osu file format v12

[General]
AudioFilename: Wings of piano.mp3
AudioLeadIn: 0
PreviewTime: 82855
Countdown: 0
SampleSet: Soft
StackLeniency: 0.7
Mode: 0
LetterboxInBreaks: 0
WidescreenStoryboard: 0

[Editor]
Bookmarks: 9283,33569
DistanceSpacing: 0.8
BeatDivisor: 8
GridSize: 8

[Metadata]
Title:Wings of piano
TitleUnicode:Wings of piano
Artist:V.K.
ArtistUnicode:V.K克
Creator:Gundam
Version:solo
Source:Deemo
Tags:
BeatmapID:371918
BeatmapSetID:150796

[Difficulty]
HPDrainRate:7
CircleSize:4
OverallDifficulty:8
ApproachRate:8
SliderMultiplier:2.5
SliderTickRate:1

[Events]
//Background and Video events
0,0,"Wings of piano.jpg",0,0
//Break Periods
//Storyboard Layer 0 (Background)
//Storyboard Layer 1 (Fail)
//Storyboard Layer 2 (Pass)
//Storyboard Layer 3 (Foreground)
//Storyboard Sound Samples
//Background Colour Transformations
3,100,163,162,255

[TimingPoints]
-2,714.285714285714,4,2,0,100,1,0
9283,-200,4,2,1,100,0,0
11426,-200,4,2,2,100,0,0
13569,-200,4,2,99,5,0,0
14283,-200,4,2,3,100,0,0
16426,-200,4,2,99,5,0,0
17140,-200,4,2,4,100,0,0
17497,-200,4,2,99,5,0,0
17676,-200,4,2,4,100,0,0
18033,-200,4,2,99,5,0,0
18212,-200,4,2,4,100,0,0
18569,-200,4,2,5,100,0,0
18926,-200,4,2,99,100,0,0
19105,-200,4,2,5,100,0,0
19462,-200,4,2,99,5,0,0
19640,-200,4,2,5,100,0,0
19997,-200,4,2,6,100,0,0
21426,-200,4,2,7,100,0,0
22855,-200,4,2,8,100,0,0
25712,-200,4,2,9,100,0,0
28569,-200,4,2,10,100,0,0
31426,-200,4,2,11,100,0,0
31605,-200,4,2,99,5,0,0
33569,-100,4,2,11,100,0,0
33926,-100,4,2,12,100,0,0
34462,-100,4,2,13,100,0,0
35176,-100,4,2,14,100,0,0
35890,-100,4,2,15,100,0,0
36605,-100,4,2,16,100,0,0
37140,-100,4,2,17,100,0,0
37676,-100,4,2,18,100,0,0
38390,-100,4,2,19,100,0,0
39105,-100,4,2,20,100,0,0
39819,-100,4,2,21,100,0,0
40533,-100,4,2,22,100,0,0
41426,-100,4,2,23,100,0,0
42230,-100,4,2,99,5,0,0
42319,-100,4,2,24,100,0,0
42765,-100,4,2,99,5,0,0
42855,-100,4,2,24,100,0,0
43390,-100,4,2,25,100,0,0
44640,-100,4,2,26,100,0,0
45176,-100,4,2,27,100,0,0
45890,-100,4,2,28,100,0,0
46426,-100,4,2,29,100,0,0
47319,-100,4,2,30,100,0,0
47855,-100,4,2,31,100,0,0
48747,-100,4,2,32,100,0,0
49283,-100,4,2,33,100,0,0
50176,-100,4,2,34,100,0,0
50712,-100,4,2,35,100,0,0
51247,-100,4,2,36,100,0,0
52140,-100,4,2,37,100,0,0
53033,-100,4,2,38,100,0,0
53569,-100,4,2,39,100,0,0
54105,-100,4,2,40,100,0,0
54997,-100,4,2,41,100,0,0
55801,-100,4,2,99,5,0,0
55890,-100,4,2,42,100,0,0
56605,-100,4,2,43,100,0,0
57140,-100,4,2,44,100,0,0
57587,-100,4,2,99,5,0,0
57676,-100,4,2,44,100,0,0
58122,-100,4,2,99,5,0,0
58212,-100,4,2,44,100,0,0
58569,-100,4,2,45,100,0,0
59194,-100,4,2,99,5,0,0
59283,-100,4,2,45,100,0,0
59908,-100,4,2,99,5,0,0
59997,-100,4,2,45,100,0,0
60533,-100,4,2,46,100,0,0
61426,-200,4,2,46,100,0,0
62051,-100,4,2,99,5,0,0
62140,-200,4,2,47,100,0,0
62765,-100,4,2,99,5,0,0
62855,-100,4,2,47,100,0,0
63390,-100,4,2,48,100,0,0
64105,-100,4,2,49,100,0,0
64997,-100,4,2,50,100,0,0
65712,-100,4,2,51,100,0,0
66605,-100,4,2,52,100,0,0
67319,-100,4,2,53,100,0,0
67944,-100,4,2,99,5,0,0
68033,-100,4,2,54,100,0,0
68390,-100,4,2,99,5,0,0
68569,-200,4,2,54,100,0,0
69015,-200,4,2,99,5,0,0
69105,-100,4,2,54,100,0,0
69551,-100,4,2,99,5,0,0
69640,-100,4,2,55,100,0,0
69908,-100,4,2,99,5,0,0
69997,-100,4,2,55,100,0,0
70622,-100,4,2,99,5,0,0
70712,-100,4,2,55,100,0,0
71337,-100,4,2,99,100,0,0
71426,-100,4,2,56,100,0,0
71872,-100,4,2,99,5,0,0
71962,-100,4,2,56,100,0,0
72855,-100,4,2,57,100,0,0
73569,-200,4,2,57,100,0,0
74194,-200,4,2,99,5,0,0
74283,-100,4,2,57,100,0,0
74402,-100,4,2,58,100,0,0
74759,-100,4,2,59,100,0,0
75117,-100,4,2,60,100,0,0
75474,-100,4,2,61,100,0,0
75831,-100,4,2,62,100,0,0
76188,-100,4,2,63,100,0,0
76545,-100,4,2,64,100,0,0
76902,-100,4,2,65,100,0,0
77497,-100,4,2,66,100,0,0
77676,-200,4,2,66,100,0,0
78390,-200,4,2,99,5,0,0
78926,-100,4,2,66,100,0,0
79283,-100,4,2,67,100,0,0
80712,-100,4,2,68,100,0,0
105712,701.754385964912,4,2,0,100,1,0
116940,705.882352941176,4,2,0,100,1,0
127528,740.740740740741,4,2,0,100,1,0
129009,857.142857142857,4,2,0,100,1,0
129437,1200,4,2,0,100,1,0
131983,833.333333333333,4,2,0,100,1,0
132538,1000,4,2,0,100,1,0
132704,1090.90909090909,4,2,0,100,1,0
133067,1276.59574468085,4,2,0,100,1,0
133386,1578.94736842105,4,2,0,100,1,0
133780,1052.63157894737,4,2,0,100,1,0
135894,634.920634920635,4,2,0,100,1,0
136528,714.285714285714,4,2,0,100,1,0
136885,895.522388059701,4,2,0,100,1,0
137332,937.5,4,2,0,100,1,0
137800,882.352941176471,4,2,0,100,1,0
138682,588.235294117647,4,2,0,100,1,0
138976,705.882352941176,4,2,0,100,1,0
139328,895.522388059701,4,2,0,100,1,0
139775,909.090909090909,4,2,0,100,1,0
140229,895.522388059701,4,2,0,100,1,0
141124,714.285714285714,4,2,0,100,1,0
141481,1100.91743119266,4,2,0,100,1,0
142031,1016.94915254237,4,2,0,100,1,0
143047,769.230769230769,4,2,0,100,1,0
143431,571.428571428571,4,2,0,100,1,0
143716,413.793103448276,4,2,0,100,1,0
143922,379.746835443038,4,2,0,100,1,0
144111,350.877192982456,4,2,0,100,1,0
144461,600,4,2,0,100,1,0
144761,631.578947368421,4,2,0,100,1,0
145392,750,4,2,0,100,1,0

[Colours]
Combo1 : 192,192,192
Combo2 : 153,153,204
Combo3 : 255,255,255
Combo4 : 255,191,223

[HitObjects]
256,88,9283,1,2,0:0:0:0:
256,120,9997,1,4,0:0:0:0:
256,152,10712,1,8,0:0:0:0:
200,288,11426,6,0,P|296:296|384:248,1,187.5,2|4,0:0|0:0,0:0:0:0:
392,224,12676,1,8,0:0:0:0:
256,192,13569,1,0,0:0:0:0:
104,80,14283,6,0,P|96:184|128:272,1,187.5,2|4,0:0|0:0,0:0:0:0:
144,288,15533,1,8,0:0:0:0:
256,192,16426,1,0,0:0:0:0:
456,72,17140,6,0,L|448:144,1,62.5,2|0,0:0|0:0,0:0:0:0:
400,256,17676,2,0,L|384:184,1,62.5,4|0,0:0|0:0,0:0:0:0:
328,80,18212,1,8,0:0:0:0:
296,248,18569,6,0,L|312:320,1,62.5,2|0,0:0|0:0,0:0:0:0:
224,208,19105,2,0,L|216:144,1,62.5,4|0,0:0|0:0,0:0:0:0:
328,80,19640,1,8,0:0:0:0:
64,80,19997,6,0,P|112:80|160:64,1,93.75,2|4,0:0|0:0,0:0:0:0:
224,208,21069,1,8,0:0:0:0:
328,80,21426,2,0,P|365:134|395:200,1,125,2|4,0:0|0:0,0:0:0:0:
399,222,22319,1,8,0:0:0:0:
408,315,22855,5,2,0:0:0:0:
399,222,23390,2,0,P|254:244|348:314,1,343.75,4|8,0:0|0:0,0:0:0:0:
408,315,25712,5,2,0:0:0:0:
399,222,26247,2,0,P|272:91|118:61,1,343.75,4|8,0:0|0:0,0:0:0:0:
58,94,28569,5,2,0:0:0:0:
110,183,29105,2,0,P|232:222|105:242,1,343.75,4|8,0:0|0:0,0:0:0:0:
110,183,31426,1,2,0:0:0:0:
256,192,31605,12,0,33213,0:0:0:0:
373,168,33569,5,4,0:0:0:0:
384,75,33747,1,8,0:0:0:0:
459,205,33926,1,2,0:0:0:0:
452,298,34105,1,4,0:0:0:0:
373,168,34283,5,8,0:0:0:0:
343,257,34462,1,2,0:0:0:0:
264,307,34640,1,4,0:0:0:0:
264,213,34819,2,0,P|274:146|272:80,1,125,8|2,0:0|0:0,0:0:0:0:
186,53,35355,1,4,0:0:0:0:
66,165,35533,2,0,P|131:154|191:154,1,125,8|2,0:0|0:0,0:0:0:0:
264,213,36069,1,4,0:0:0:0:
343,257,36247,2,0,P|359:193|347:131,1,125,8|2,0:0|0:0,0:0:0:0:
369,44,36783,2,0,L|420:98,1,62.5,4|8,0:0|0:0,0:0:0:0:
483,150,37140,5,2,0:0:0:0:
429,226,37319,1,4,0:0:0:0:
343,257,37497,1,8,0:0:0:0:
264,307,37676,2,0,P|315:337|390:342,1,125,2|4,0:0|0:0,0:0:0:0:
343,257,38212,1,8,0:0:0:0:
264,213,38390,2,0,P|273:151|268:85,1,125,2|4,0:0|0:0,0:0:0:0:
191,143,38926,1,8,0:0:0:0:
122,78,39105,2,0,P|113:141|114:224,1,125,2|4,0:0|0:0,0:0:0:0:
191,143,39640,1,8,0:0:0:0:
176,235,39819,1,2,0:0:0:0:
141,321,39997,6,0,P|206:321|267:305,1,125,4|8,0:0|0:0,0:0:0:0:
466,263,40533,2,0,P|405:253|343:257,1,125,2|4,0:0|0:0,0:0:0:0:
191,143,41247,1,8,0:0:0:0:
176,235,41426,1,2,0:0:0:0:
346,157,41783,1,4,0:0:0:0:
422,102,41962,2,0,P|370:89|314:88,1,93.75,8|0,0:0|0:0,0:0:0:0:
283,93,42319,2,0,P|204:82|128:61,1,156.25,2|0,0:0|0:0,0:0:0:0:
83,61,42855,6,0,P|84:131|91:194,1,125,4|8,0:0|0:0,0:0:0:0:
168,283,43390,2,0,P|185:221|191:154,1,125,2|4,0:0|0:0,0:0:0:0:
334,92,44462,1,8,0:0:0:0:
465,142,44640,1,2,0:0:0:0:
330,178,44819,1,4,0:0:0:0:
418,69,44997,1,8,0:0:0:0:
411,209,45176,1,2,0:0:0:0:
334,92,45355,1,4,0:0:0:0:
465,142,45533,1,8,0:0:0:0:
65,92,45890,6,0,L|91:155,1,62.5,2|4,0:0|0:0,0:0:0:0:
150,78,46247,1,8,0:0:0:0:
159,171,46426,2,0,P|158:236|172:303,1,125,2|4,0:0|0:0,0:0:0:0:
254,255,46962,2,0,P|197:242|114:247,1,125,8|2,0:0|0:0,0:0:0:0:
70,315,47497,2,0,L|143:333,1,62.5,4|8,0:0|0:0,0:0:0:0:
254,254,47855,2,0,P|274:193|280:126,1,125,2|4,0:0|0:0,0:0:0:0:
198,178,48390,1,8,0:0:0:0:
418,216,48747,5,2,0:0:0:0:
434,308,48926,1,4,0:0:0:0:
476,148,49105,1,8,0:0:0:0:
468,54,49283,2,0,P|404:88|391:152,1,125,2|4,0:0|0:0,0:0:0:0:
418,216,49819,2,0,P|360:202|311:158,1,125,8|2,0:0|0:0,0:0:0:0:
236,103,50355,2,0,L|238:173,1,62.5,4|8,0:0|0:0,0:0:0:0:
167,300,50712,2,0,L|179:239,1,62.5,2|4,0:0|0:0,0:0:0:0:
236,103,51069,1,8,0:0:0:0:
236,103,51247,2,0,P|243:166|260:230,1,125,2|4,0:0|0:0,0:0:0:0:
420,130,51962,5,8,0:0:0:0:
436,221,52140,1,2,0:0:0:0:
258,225,52497,1,4,0:0:0:0:
275,317,52676,1,8,0:0:0:0:
155,82,53033,1,2,0:0:0:0:
184,172,53212,1,4,0:0:0:0:
260,117,53390,1,8,0:0:0:0:
90,171,53569,1,2,0:0:0:0:
259,227,53747,1,4,0:0:0:0:
155,82,53926,1,8,0:0:0:0:
154,261,54105,1,2,0:0:0:0:
433,66,54462,6,0,L|473:202,1,125,4|8,0:0|0:0,0:0:0:0:
379,295,54997,2,0,L|343:175,1,125,2|4,0:0|0:0,0:0:0:0:
218,108,55533,2,0,L|231:213,1,93.75,8|0,0:0|0:0,0:0:0:0:
189,260,55890,2,0,P|148:211|127:152,1,125,2|4,0:0|0:0,0:0:0:0:
134,60,56426,1,8,0:0:0:0:
217,110,56605,1,2,0:0:0:0:
307,86,56783,1,4,0:0:0:0:
397,59,56962,1,8,0:0:0:0:
486,32,57140,6,0,P|480:118|454:204,1,156.25,2|0,0:0|0:0,0:0:0:0:
436,225,57676,2,0,P|368:263|286:270,1,156.25,4|0,0:0|0:0,0:0:0:0:
244,265,58212,1,8,0:0:0:0:
307,86,58569,2,0,P|212:115|102:62,1,218.75,2|0,0:0|0:0,0:0:0:0:
143,37,59283,2,0,P|162:153|205:251,1,218.75,4|0,0:0|0:0,0:0:0:0:
244,265,59997,5,8,0:0:0:0:
143,37,60533,2,0,P|225:76|325:77,1,187.5,2|4,0:0|0:0,0:0:0:0:
476,56,61426,6,0,L|457:168,1,109.375,8|0,0:0|0:0,0:0:0:0:
418,160,62140,2,0,L|405:280,1,109.375,2|0,0:0|0:0,0:0:0:0:
366,295,62855,5,4,0:0:0:0:
291,351,63033,1,8,0:0:0:0:
299,163,63390,5,2,0:0:0:0:
265,250,63568,1,4,0:0:0:0:
162,92,63926,37,8,0:0:0:0:
170,185,64104,1,2,0:0:0:0:
66,241,64462,5,4,0:0:0:0:
82,333,64640,1,8,0:0:0:0:
170,185,64997,37,2,0:0:0:0:
171,278,65176,1,4,0:0:0:0:
287,69,65533,5,8,0:0:0:0:
299,163,65712,1,2,0:0:0:0:
399,207,66069,37,4,0:0:0:0:
366,295,66247,1,8,0:0:0:0:
171,278,66605,38,0,P|138:224|128:159,1,125,2|4,0:0|0:0,0:0:0:0:
115,71,67140,1,8,0:0:0:0:
205,95,67319,1,2,0:0:0:0:
297,106,67497,1,4,0:0:0:0:
390,116,67676,2,0,P|433:91|476:57,1,93.75,8|0,0:0|0:0,0:0:0:0:
496,102,68033,2,0,P|484:166|481:239,1,125,2|0,0:0|0:0,0:0:0:0:
390,312,68569,6,0,P|365:278|349:240,1,78.125,4|0,0:0|0:0,0:0:0:0:
316,218,69105,22,0,P|254:271|158:306,1,156.25,8|0,0:0|0:0,0:0:0:0:
145,285,69640,2,0,P|156:232|153:185,1,93.75,2|0,0:0|0:0,0:0:0:0:
140,147,69997,2,0,P|119:63|227:82,1,218.75,4|0,0:0|0:0,0:0:0:0:
242,107,70712,2,0,P|338:153|472:140,1,218.75,8|0,0:0|0:0,0:0:0:0:
447,101,71426,6,0,P|408:170|388:253,1,156.25,2|0,0:0|0:0,0:0:0:0:
352,274,71962,2,0,P|268:297|149:271,1,187.5,4|8,0:0|0:0,0:0:0:0:
242,107,72855,1,2,0:0:0:0:
242,107,73569,38,0,P|189:126|126:125,1,109.375,4|0,0:0|0:0,0:0:0:0:
120,114,74283,5,8,0:0:0:0:
136,126,74402,1,2,0:0:0:0:
157,139,74521,1,4,0:0:0:0:
200,243,74640,6,0,L|154:227,2,41.6666666666667,8|2|4,0:0|0:0|0:0,0:0:0:0:
312,243,74997,6,0,L|358:227,2,41.6666666666667,8|2|4,0:0|0:0|0:0,0:0:0:0:
321,145,75355,5,8,0:0:0:0:
341,131,75474,1,2,0:0:0:0:
361,116,75593,1,4,0:0:0:0:
460,115,75712,6,0,L|469:65,2,41.6666666666667,8|2|4,0:0|0:0|0:0,0:0:0:0:
361,116,76069,5,8,0:0:0:0:
341,131,76188,1,2,0:0:0:0:
321,145,76307,1,4,0:0:0:0:
312,243,76426,6,0,L|358:227,2,41.6666666666667,8|2|4,0:0|0:0|0:0,0:0:0:0:
200,243,76783,6,0,L|154:227,2,41.6666666666667,8|2|4,0:0|0:0|0:0,0:0:0:0:
157,139,77140,6,0,P|105:176|74:237,1,125,8|2,0:0|0:0,0:0:0:0:
200,243,77676,6,0,P|241:193|264:132,1,125,4|0,0:0|0:0,0:0:0:0:
200,243,78926,5,8,0:0:0:0:
245,224,79283,1,2,0:0:0:0:
286,186,79640,1,4,0:0:0:0:
330,119,79997,1,8,0:0:0:0:
429,29,80712,1,2,0:0:0:0:
429,29,81426,1,4,0:0:0:0:
