osu file format v12

[General]
AudioFilename: Hua Shui Yue (Deemo).mp3
AudioLeadIn: 0
PreviewTime: 58271
Countdown: 0
SampleSet: Soft
StackLeniency: 0.7
Mode: 0
LetterboxInBreaks: 0
WidescreenStoryboard: 1

[Editor]
Bookmarks: 20264,58372,84318,101345,111075,156480
DistanceSpacing: 0.9
BeatDivisor: 4
GridSize: 4

[Metadata]
Title:Hua Shui Yue
TitleUnicode:花水月
Artist:V.K.
ArtistUnicode:V.K.克
Creator:yanlu
Version:Normal
Source:Deemo
Tags:Vanros Kloud 手掌心 VK克
BeatmapID:374882
BeatmapSetID:152271

[Difficulty]
HPDrainRate:3
CircleSize:3
OverallDifficulty:3
ApproachRate:4
SliderMultiplier:1.2
SliderTickRate:1

[Events]
//Background and Video events
0,0,"BG.jpg",0,0
//Break Periods
2,46410,57863
//Storyboard Layer 0 (Background)
//Storyboard Layer 1 (Fail)
//Storyboard Layer 2 (Pass)
//Storyboard Layer 3 (Foreground)
//Storyboard Sound Samples
//Background Colour Transformations
3,100,163,162,255

[TimingPoints]
805,405.405405405405,4,2,1,20,1,0
805,-200,4,2,1,20,0,0
9723,-142.857142857143,4,2,1,20,0,0
13777,-100,4,2,1,25,0,0
46210,-100,4,2,1,25,0,0
59183,-100,4,2,2,30,0,1
83507,-100,4,2,1,25,0,0
94859,-100,4,2,1,15,0,0
95669,-100,4,2,1,20,0,0
96075,-100,4,2,1,25,0,0
96480,-100,4,2,1,30,0,0
98102,-100,4,2,1,20,0,0
99723,-100,4,2,1,35,0,0
111075,-100,4,2,1,25,0,0
124048,-100,4,2,1,20,0,0
127291,-133.333333333333,4,2,1,18,0,0
137021,-133.333333333333,4,2,1,20,0,0
138642,-133.333333333333,4,2,1,23,0,0
139250,-133.333333333333,4,2,1,25,0,0
140264,-133.333333333333,4,2,1,20,0,0
143507,-133.333333333333,4,2,1,18,0,0
146750,-133.333333333333,4,2,1,20,0,0
152426,-200,4,2,1,25,0,0
152832,-200,4,2,1,13,0,0
156480,-200,4,2,1,10,0,0

[Colours]
Combo1 : 252,215,158
Combo2 : 251,4,48
Combo3 : 255,157,157
Combo4 : 223,213,202

[HitObjects]
160,284,6075,2,0,P|180:260|208:248,1,60
304,248,6886,2,0,P|331:260|349:283,2,60
312,152,8102,2,0,P|254:136|197:152,1,120
332,304,9723,2,0,P|388:320|452:300,1,125.999996154785
256,192,10534,12,0,11953,0:0:0:0:
416,104,12967,5,0,0:0:0:0:
128,92,13777,2,0,P|84:136|76:192,1,120
132,284,14588,2,0,P|176:240|184:184,1,120
256,104,15399,5,0,0:0:0:0:
256,96,16210,1,0,0:0:0:0:
384,92,17021,6,0,P|428:136|436:192,1,120
380,284,17832,2,0,P|336:240|328:184,2,120
256,108,19453,1,0,0:0:0:0:
212,208,19859,1,0,0:0:0:0:
280,292,20264,5,0,0:0:0:0:
492,252,21075,2,0,P|504:192|492:136,1,120
420,56,21886,2,0,P|336:104|256:88,1,180
220,52,22696,1,0,0:0:0:0:
164,144,23102,1,0,0:0:0:0:
60,172,23507,6,0,P|24:224|12:280,1,120
108,328,24318,2,0,P|160:364|216:376,1,120
204,268,25129,2,0,P|188:184|292:220,1,240
300,328,26345,1,0,0:0:0:0:
400,288,26750,6,0,P|444:252|464:192,1,120
256,132,27967,1,0,0:0:0:0:
152,108,28372,1,0,0:0:0:0:
255,78,28777,5,0,0:0:0:0:
256,132,28979,1,0,0:0:0:0:
232,180,29183,2,0,P|220:240|240:296,1,120
328,232,29994,6,0,B|364:212|429:158|452:124|395:67|361:84|339:135|367:147,1,240
256,152,31210,1,0,0:0:0:0:
184,232,31615,2,0,B|147:212|82:158|59:124|116:67|150:84|172:135|144:147,1,240
256,332,33237,5,0,0:0:0:0:
256,168,33845,1,0,0:0:0:0:
256,168,34048,2,0,B|272:124|232:88|256:52,1,120
152,24,34859,2,0,B|112:84|172:136|132:200,1,180
84,220,35669,1,0,0:0:0:0:
12,140,36075,1,0,0:0:0:0:
100,80,36480,6,0,P|160:76|212:104,1,120
292,176,37291,2,0,P|344:203|403:199,2,120
100,80,38913,6,0,P|16:160|48:268,1,240
196,336,40332,2,0,L|256:336,1,60
364,336,40940,2,0,L|424:336,1,60
468,304,41345,6,0,P|499:194|415:116,1,240
308,96,42561,1,0,0:0:0:0:
256,192,42967,1,0,0:0:0:0:
308,288,43372,6,0,P|336:276|352:252,1,60,0|0,0:0|0:0,0:0:0:0:
348,200,43777,2,0,P|329:176|301:166,1,60,0|0,0:0|0:0,0:0:0:0:
256,192,44183,2,0,P|230:208|218:235,2,60
308,288,44994,5,0,0:0:0:0:
212,336,45399,1,0,0:0:0:0:
120,280,45804,1,0,0:0:0:0:
128,172,46210,1,0,0:0:0:0:
192,224,59183,6,0,L|336:220,1,120
396,268,59994,2,0,L|496:264,2,89.9999999999999
424,108,61210,1,0,0:0:0:0:
312,176,61615,2,0,L|180:184,1,120
120,100,62426,6,0,L|140:228,1,120
188,264,63237,2,0,L|296:256,2,90
220,104,64453,1,0,0:0:0:0:
312,172,64859,1,0,0:0:0:0:
284,260,65264,2,0,L|280:328,1,60
228,328,65669,6,0,L|112:260,1,120
88,164,66480,2,0,L|180:116,1,90
232,72,67088,2,0,L|364:84,1,120
412,168,68102,2,0,L|280:176,1,120
316,288,68913,6,0,L|188:292,1,120
160,248,69521,2,0,L|288:224,2,120
208,76,70940,1,0,0:0:0:0:
208,76,71750,5,0,0:0:0:0:
160,56,71953,1,0,0:0:0:0:
108,48,72156,2,0,L|176:168,1,120
228,244,72967,2,0,L|128:256,2,90
324,112,74183,1,0,0:0:0:0:
360,212,74588,2,0,L|372:336,1,120
264,312,75399,6,0,L|368:252,1,120
412,160,76210,2,0,L|416:56,1,90
336,84,76818,2,0,L|240:192,1,120
248,120,77832,2,0,L|104:128,1,120
128,296,78642,6,0,L|384:304,1,240
420,180,79859,1,0,0:0:0:0:
300,92,80264,6,0,L|112:112,1,180
124,164,81075,2,0,L|304:176,1,180
304,232,81886,2,0,L|160:248,1,120
124,156,82696,1,0,0:0:0:0:
172,332,83507,1,0,0:0:0:0:
