osu file format v12

[General]
AudioFilename: Hua Shui Yue (Deemo).mp3
AudioLeadIn: 0
PreviewTime: 58271
Countdown: 0
SampleSet: Soft
StackLeniency: 0.7
Mode: 0
LetterboxInBreaks: 0
WidescreenStoryboard: 1

[Editor]
Bookmarks: 20264,58372,84318,101345,111075,156480
DistanceSpacing: 0.7
BeatDivisor: 4
GridSize: 4
TimelineZoom: 1

[Metadata]
Title:Hua Shui Yue
TitleUnicode:花水月
Artist:V.K.
ArtistUnicode:V.K.克
Creator:yanlu
Version:Hard
Source:Deemo
Tags:Vanros Kloud 手掌心 VK克
BeatmapID:374881
BeatmapSetID:152271

[Difficulty]
HPDrainRate:7
CircleSize:4
OverallDifficulty:6
ApproachRate:8
SliderMultiplier:1.9
SliderTickRate:1

[Events]
//Background and Video events
0,0,"BG.jpg",0,0
//Break Periods
2,101345,110325
//Storyboard Layer 0 (Background)
//Storyboard Layer 1 (Fail)
//Storyboard Layer 2 (Pass)
//Storyboard Layer 3 (Foreground)
//Storyboard Sound Samples
//Background Colour Transformations
3,100,163,162,255

[TimingPoints]
805,405.405405405405,4,2,1,20,1,0
805,-200,4,2,1,20,0,0
6379,-200,4,2,2,20,0,0
6582,-200,4,2,1,20,0,0
9622,-200,4,2,2,20,0,0
9825,-200,4,2,1,20,0,0
13777,-100,4,2,1,25,0,0
14487,-100,4,2,2,25,0,0
14690,-100,4,2,1,25,0,0
16109,-100,4,2,2,25,0,0
16311,-100,4,2,1,25,0,0
17730,-100,4,2,2,25,0,0
17933,-100,4,2,1,25,0,0
19352,-100,4,2,2,25,0,0
19554,-100,4,2,1,25,0,0
46210,-100,4,2,1,25,0,0
59183,-100,4,2,2,30,0,1
83507,-100,4,2,1,25,0,0
94859,-100,4,2,1,15,0,0
95669,-100,4,2,1,20,0,0
96075,-100,4,2,1,25,0,0
96480,-100,4,2,1,30,0,0
98102,-100,4,2,1,20,0,0
99723,-100,4,2,1,35,0,0
111075,-100,4,2,1,25,0,0
114318,-100,4,2,2,25,0,0
124048,-100,4,2,1,20,0,0
127291,-133.333333333333,4,2,1,15,0,0
127696,-133.333333333333,4,2,1,18,0,0
133777,-133.333333333333,4,2,1,20,0,0
138642,-133.333333333333,4,2,1,23,0,0
139250,-133.333333333333,4,2,1,25,0,0
140264,-133.333333333333,4,2,1,20,0,0
151615,-133.333333333333,4,2,2,20,0,0
152426,-200,4,2,2,18,0,0
152832,-200,4,2,1,13,0,0
156480,-200,4,2,1,10,0,0

[Colours]
Combo1 : 252,215,158
Combo2 : 251,4,48
Combo3 : 255,157,157
Combo4 : 223,213,202

[HitObjects]
352,220,805,6,0,L|444:192,1,95,0|8,0:0|0:0,0:0:0:0:
256,96,1615,2,0,L|164:124,1,95,0|0,0:0|0:0,0:0:0:0:
72,192,2426,2,0,P|60:240|72:284,1,95,0|8,0:0|0:0,0:0:0:0:
304,344,3237,2,0,P|316:298|304:252,1,95,0|0,0:0|0:0,0:0:0:0:
256,116,4048,6,0,P|272:68|308:44,1,95,0|8,0:0|0:0,0:0:0:0:
436,256,4859,2,0,P|420:304|384:328,1,95,0|8,0:0|0:0,0:0:0:0:
312,296,5467,1,0,0:0:0:0:
244,256,5669,2,0,B|156:228|156:228|60:256,1,190,0|8,0:0|0:0,0:0:0:0:
136,316,6886,5,0,0:0:0:0:
216,160,7291,2,0,P|256:80|328:120,1,190,2|8,0:0|0:0,0:0:0:0:
436,204,8507,1,0,0:0:0:0:
324,288,8913,2,0,P|243:326|211:250,1,190,0|8,0:0|0:0,0:0:0:0:
256,192,9926,1,0,0:0:0:0:
256,192,10332,12,0,11953,0:0:0:0:
256,192,12967,5,0,0:0:0:0:
164,192,13575,5,0,0:0:0:0:
164,192,13676,1,0,0:0:0:0:
164,192,13777,1,4,0:0:0:0:
79,154,13980,1,0,0:0:0:0:
14,223,14183,1,8,0:0:0:0:
62,307,14386,1,0,0:0:0:0:
154,286,14588,1,8,0:0:0:0:
174,98,14791,5,0,0:0:0:0:
266,77,14995,1,8,0:0:0:0:
314,161,15198,1,0,0:0:0:0:
249,234,15400,1,0,0:0:0:0:
249,234,16210,1,8,0:0:0:0:
340,192,16818,5,0,0:0:0:0:
340,192,16919,1,0,0:0:0:0:
340,192,17020,1,4,0:0:0:0:
425,230,17223,1,0,0:0:0:0:
490,161,17426,1,8,0:0:0:0:
442,77,17629,1,0,0:0:0:0:
350,98,17832,1,8,0:0:0:0:
330,286,18035,5,0,0:0:0:0:
238,307,18237,1,8,0:0:0:0:
190,223,18441,1,0,0:0:0:0:
255,150,18643,1,0,0:0:0:0:
255,150,19453,1,8,0:0:0:0:
256,44,20264,6,0,P|164:32|76:76,1,190,0|0,0:0|0:0,0:0:0:0:
204,264,21075,1,8,0:0:0:0:
360,96,21480,1,0,0:0:0:0:
380,192,21683,2,0,L|432:192,2,47.5
256,44,22291,6,0,P|216:66|199:110,1,95
276,164,22696,1,8,0:0:0:0:
80,240,23102,2,0,P|124:252|167:233,1,95
184,347,23507,2,0,P|259:296|272:201,1,190
88,72,24318,1,8,0:0:0:0:
80,240,24723,1,0,0:0:0:0:
184,347,24926,1,8,0:0:0:0:
184,347,25027,1,0,0:0:0:0:
184,347,25129,5,0,0:0:0:0:
248,288,25332,1,0,0:0:0:0:
312,344,25534,1,0,0:0:0:0:
364,280,25737,1,0,0:0:0:0:
448,272,25940,2,0,P|480:236|488:192,1,95,8|0,0:0|0:0,0:0:0:0:
376,36,26345,2,0,P|344:72|336:116,1,95,0|8,0:0|0:0,0:0:0:0:
408,180,26750,6,0,P|320:208|248:152,1,190
464,84,27561,1,8,0:0:0:0:
444,312,27967,2,0,L|464:360,2,47.5
348,296,28372,2,0,P|256:287|185:225,1,190
296,192,28980,1,0,0:0:0:0:
152,140,29183,2,0,P|112:160|96:208,1,95,8|0,0:0|0:0,0:0:0:0:
44,284,29588,2,0,P|83:305|131:290,1,95
256,280,29994,6,0,B|228:268|228:268|216:232|184:224,2,95,4|0|0,0:0|0:0|0:0,0:0:0:0:
412,344,30804,1,8,0:0:0:0:
416,88,31413,1,8,0:0:0:0:
416,88,31514,1,0,0:0:0:0:
416,88,31615,5,0,0:0:0:0:
340,48,31818,1,0,0:0:0:0:
300,124,32021,1,0,0:0:0:0:
224,88,32223,1,0,0:0:0:0:
156,144,32426,2,0,P|200:172|264:192,1,95,8|0,0:0|0:0,0:0:0:0:
340,244,32832,2,0,P|296:272|232:292,1,95
64,184,33237,6,0,P|148:256|224:284,1,190
356,100,34048,1,8,0:0:0:0:
440,312,34453,1,0,0:0:0:0:
256,176,34859,1,0,0:0:0:0:
112,112,35264,2,0,L|64:112,2,47.5
164,192,35669,6,0,P|112:208|80:240,1,95,8|0,0:0|0:0,0:0:0:0:
164,276,36075,2,0,P|136:316|140:360,1,95
232,336,36480,2,0,P|308:368|384:304,1,190
456,88,37291,1,8,0:0:0:0:
212,48,37696,1,0,0:0:0:0:
388,192,38102,1,0,0:0:0:0:
236,274,38710,6,0,L|272:308,2,47.5,0|0|8,0:0|0:0|0:0,0:0:0:0:
168,196,39115,1,0,0:0:0:0:
120,276,39318,2,0,L|192:345,1,95,0|8,0:0|0:0,0:0:0:0:
256,152,39723,6,0,P|184:100|92:132,1,190,4|0,0:0|0:0,0:0:0:0:
404,192,40534,1,8,0:0:0:0:
344,264,40737,1,0,0:0:0:0:
256,152,40940,2,0,P|292:120|336:120,1,95
256,232,41345,2,0,P|184:284|92:252,1,190
168,180,41953,1,0,0:0:0:0:
256,232,42156,6,0,P|260:280|244:324,1,95,8|0,0:0|0:0,0:0:0:0:
332,188,42561,2,0,P|336:140|320:96,1,95
348,280,42967,2,0,P|412:224|420:124,1,190
336,88,43575,2,0,L|328:40,2,47.5,0|0|8,0:0|0:0|0:0,0:0:0:0:
256,124,43980,2,0,L|216:88,2,47.5
108,116,44386,1,8,0:0:0:0:
72,136,44487,1,0,0:0:0:0:
48,168,44588,1,4,0:0:0:0:
336,180,44994,5,0,0:0:0:0:
116,240,45399,1,0,0:0:0:0:
256,308,45804,1,8,0:0:0:0:
292,328,45906,1,0,0:0:0:0:
336,336,46007,1,8,0:0:0:0:
380,332,46109,1,8,0:0:0:0:
420,316,46210,2,0,P|476:252|480:148,1,190,4|0,0:0|0:0,0:0:0:0:
272,60,47021,1,8,0:0:0:0:
256,288,47426,1,0,0:0:0:0:
176,316,47629,1,8,0:0:0:0:
92,312,47832,6,0,P|36:292|12:256,1,95
56,72,48237,2,0,P|112:92|136:128,1,95
200,208,48642,2,0,P|235:177|248:132,1,95,8|0,0:0|0:0,0:0:0:0:
96,199,49048,1,0,0:0:0:0:
176,316,49250,1,0,0:0:0:0:
336,292,49453,6,0,P|396:224|408:128,1,190,4|0,0:0|0:0,0:0:0:0:
192,56,50264,1,8,0:0:0:0:
412,112,50669,1,0,0:0:0:0:
412,112,50872,1,8,0:0:0:0:
460,184,51075,6,0,P|480:239|468:281,1,95
298,364,51480,2,0,P|277:308|289:266,1,95
276,160,51885,2,0,P|229:165|193:195,1,95,8|0,0:0|0:0,0:0:0:0:
372,216,52291,1,0,0:0:0:0:
348,88,52493,1,8,0:0:0:0:
208,60,52696,6,0,P|128:103|84:189,1,190,4|0,0:0|0:0,0:0:0:0:
380,320,53507,1,8,0:0:0:0:
256,232,53913,1,0,0:0:0:0:
204,300,54115,1,8,0:0:0:0:
120,320,54318,5,0,0:0:0:0:
120,320,54419,1,0,0:0:0:0:
120,320,54521,1,0,0:0:0:0:
136,196,54723,1,0,0:0:0:0:
256,232,54926,1,0,0:0:0:0:
136,196,55129,1,8,0:0:0:0:
236,120,55332,1,0,0:0:0:0:
136,196,55534,1,8,0:0:0:0:
116,72,55737,1,8,0:0:0:0:
116,72,55940,6,0,P|40:112|20:208,1,190,4|0,0:0|0:0,0:0:0:0:
96,292,56548,2,0,B|138:286|178:309|178:309|224:338|284:330,1,190
384,256,57156,1,8,0:0:0:0:
256,240,57359,1,0,0:0:0:0:
384,256,57561,1,8,0:0:0:0:
420,136,57764,1,0,0:0:0:0:
384,256,57967,1,8,0:0:0:0:
496,236,58169,1,8,0:0:0:0:
464,356,58372,5,12,0:0:0:0:
256,160,58777,1,2,0:0:0:0:
48,356,59183,6,0,P|36:312|48:264,1,95,6|0,0:0|0:0,0:0:0:0:
160,228,59588,1,8,0:0:0:0:
256,160,59791,2,0,P|278:120|279:71,1,95,0|8,0:0|0:0,0:0:0:0:
64,84,60298,1,8,0:0:0:0:
160,228,60602,1,8,0:0:0:0:
256,256,60804,5,0,0:0:0:0:
256,356,61007,1,0,0:0:0:0:
160,328,61210,2,0,L|112:328,2,47.5
352,192,61615,1,8,0:0:0:0:
376,184,62021,2,0,P|428:172|468:188,1,95,0|8,0:0|0:0,0:0:0:0:
422,285,62426,6,0,P|442:325|434:373,1,95,6|0,0:0|0:0,0:0:0:0:
320,340,62832,1,8,0:0:0:0:
208,304,63034,2,0,P|164:288|116:300,1,95,0|8,0:0|0:0,0:0:0:0:
272,148,63541,1,8,0:0:0:0:
320,340,63845,1,8,0:0:0:0:
416,348,64048,5,0,0:0:0:0:
464,264,64250,1,0,0:0:0:0:
368,256,64453,2,0,P|396:220|404:172,2,95,0|0|8,0:0|0:0|0:0,0:0:0:0:
208,192,65061,1,8,0:0:0:0:
208,192,65163,1,0,0:0:0:0:
208,192,65264,2,0,P|180:228|172:276,1,95,8|8,0:0|0:0,0:0:0:0:
320,340,65669,6,0,L|224:340,1,95,6|0,0:0|0:0,0:0:0:0:
99,331,66075,2,0,P|128:294|172:276,1,95,8|0,0:0|0:0,0:0:0:0:
284,248,66480,1,8,0:0:0:0:
428,72,66784,2,0,P|424:142|384:199,1,142.5,8|8,0:0|0:0,0:0:0:0:
284,248,67291,5,0,0:0:0:0:
416,304,67493,1,0,0:0:0:0:
256,344,67696,1,0,0:0:0:0:
368,232,67899,1,0,0:0:0:0:
308,96,68102,2,0,P|304:49|320:4,2,95,8|0|0,0:0|0:0|0:0,0:0:0:0:
416,304,68913,6,0,L|240:232,1,190,6|8,0:0|0:0,0:0:0:0:
212,256,69521,2,0,L|364:372,2,190,0|8|0,0:0|0:0|0:0,0:0:0:0:
100,232,70534,5,4,0:0:0:0:
200,140,70737,1,0,0:0:0:0:
88,120,70940,1,8,0:0:0:0:
256,48,71142,1,0,0:0:0:0:
256,236,71548,1,8,0:0:0:0:
216,260,71649,1,0,0:0:0:0:
204,304,71750,2,0,P|169:339|125:351,1,95,12|8,0:0|0:0,0:0:0:0:
296,316,72156,6,0,B|348:308|348:308|428:324|428:324|484:316,1,190,6|8,0:0|0:0,0:0:0:0:
432,236,72764,1,0,0:0:0:0:
432,236,72967,1,8,0:0:0:0:
492,60,73271,1,8,0:0:0:0:
308,88,73575,1,8,0:0:0:0:
320,200,73777,6,0,P|316:248|336:288,1,95,0|0,0:0|0:0,0:0:0:0:
432,236,74183,2,0,P|475:215|500:178,2,95,0|0|8,0:0|0:0|0:0,0:0:0:0:
400,252,74994,1,0,0:0:0:0:
372,272,75399,6,0,B|324:296|324:296|260:268|260:268|200:300,1,190,6|8,0:0|0:0,0:0:0:0:
264,368,76007,1,0,0:0:0:0:
120,352,76210,2,0,L|72:352,1,47.5,8|0,0:0|0:0,0:0:0:0:
76,256,76514,2,0,L|20:256,1,47.5,8|0,0:0|0:0,0:0:0:0:
152,184,76818,1,12,0:0:0:0:
256,232,77021,5,4,0:0:0:0:
408,252,77223,1,0,0:0:0:0:
344,112,77426,1,8,0:0:0:0:
338,200,77629,1,0,0:0:0:0:
338,200,77730,1,0,0:0:0:0:
338,200,77832,1,8,0:0:0:0:
244,136,78034,1,0,0:0:0:0:
244,136,78237,1,8,0:0:0:0:
156,208,78440,1,0,0:0:0:0:
156,208,78642,6,0,B|92:216|92:216|24:184|56:112,1,190,2|8,0:0|0:0,0:0:0:0:
228,52,79250,2,0,B|292:44|292:44|360:76|328:148,1,190,0|8,0:0|0:0,0:0:0:0:
244,136,79859,2,0,L|148:128,1,95,0|8,0:0|0:0,0:0:0:0:
64,240,80264,6,0,P|128:300|224:280,1,190,4|0,0:0|0:0,0:0:0:0:
300,228,80872,1,0,0:0:0:0:
388,192,81075,2,0,P|440:196|476:220,2,95,8|0|0,0:0|0:0|0:0,0:0:0:0:
256,192,81886,12,0,83507,0:0:0:0:
168,100,84318,5,0,0:0:0:0:
168,100,84723,1,8,0:0:0:0:
84,228,85129,6,0,P|168:268|252:228,1,190,4|8,0:0|0:0,0:0:0:0:
352,128,85737,2,0,L|256:140,1,95
168,184,86142,1,0,0:0:0:0:
336,216,86345,1,8,0:0:0:0:
248,260,86548,2,0,L|153:271,1,95
264,348,86953,5,0,0:0:0:0:
296,328,87054,1,0,0:0:0:0:
328,308,87156,2,0,L|422:296,1,95,8|0,0:0|0:0,0:0:0:0:
456,192,87561,1,0,0:0:0:0:
380,116,87764,1,0,0:0:0:0:
256,164,87967,2,0,P|300:184|336:216,1,95,8|0,0:0|0:0,0:0:0:0:
248,260,88372,6,0,P|176:308|76:296,1,190,4|8,0:0|0:0,0:0:0:0:
96,156,88980,2,0,P|108:200|152:220,1,95
256,164,89386,1,0,0:0:0:0:
180,96,89588,1,8,0:0:0:0:
248,260,89791,2,0,P|328:228|344:132,1,190
280,56,90399,5,8,0:0:0:0:
280,56,90500,1,0,0:0:0:0:
280,56,90602,1,0,0:0:0:0:
384,52,90804,2,0,L|428:32,2,47.5,0|0|0,0:0|0:0|0:0,0:0:0:0:
444,128,91210,2,0,L|492:132,3,47.5,8|0|0|0,0:0|0:0|0:0|0:0,0:0:0:0:
468,200,91615,6,0,B|400:176|400:176|360:224|296:224,1,190,4|8,0:0|0:0,0:0:0:0:
256,312,92223,2,0,P|300:321|348:312,1,95
320,132,92629,1,0,0:0:0:0:
320,132,92832,1,8,0:0:0:0:
184,256,93034,2,0,P|256:314|350:313,1,190
288,228,93642,6,0,P|260:268|256:312,1,95,8|0,0:0|0:0,0:0:0:0:
392,208,94048,2,0,P|424:144|408:76,2,142.5,8|8|8,0:0|0:0|0:0,0:0:0:0:
256,192,94859,12,0,96480,0:0:0:0:
256,88,96886,5,0,0:0:0:0:
256,88,97291,5,0,0:0:0:0:
176,284,97595,1,8,0:0:0:0:
440,192,97899,1,4,0:0:0:0:
256,192,98102,12,0,99724,0:0:0:0:
344,100,111075,5,4,0:0:0:0:
256,316,111480,5,8,0:0:0:0:
168,284,111683,1,0,0:0:0:0:
256,68,112088,1,0,0:0:0:0:
256,68,112190,1,0,0:0:0:0:
256,68,112291,1,8,0:0:0:0:
228,160,112494,2,0,P|225:203|266:225,1,95,0|4,0:0|0:0,0:0:0:0:
344,100,112899,6,0,P|387:102|409:62,2,95,0|8|0,0:0|0:0|0:0,0:0:0:0:
108,192,113710,2,0,P|64:189|42:230,2,95,0|8|0,0:0|0:0|0:0,0:0:0:0:
192,240,114318,6,0,P|256:248|300:356,1,190,6|8,0:0|0:0,0:0:0:0:
208,336,114926,2,0,P|160:336|120:308,1,95,0|8,0:0|0:0,0:0:0:0:
256,108,115433,1,8,0:0:0:0:
468,192,115737,1,8,0:0:0:0:
460,288,115940,5,0,0:0:0:0:
384,232,116142,1,0,0:0:0:0:
370,235,116244,1,0,0:0:0:0:
356,236,116345,2,0,P|310:245|277:278,1,95
360,328,116750,1,8,0:0:0:0:
256,64,117156,2,0,B|248:96|204:92|204:92|168:88,1,95,0|8,0:0|0:0,0:0:0:0:
0,136,117561,6,0,B|40:84|96:104|96:104|108:148|148:160,1,190,6|8,0:0|0:0,0:0:0:0:
168,176,118068,1,0,0:0:0:0:
192,184,118169,1,0,0:0:0:0:
280,156,118372,1,8,0:0:0:0:
472,280,118676,1,8,0:0:0:0:
260,248,118980,1,12,0:0:0:0:
168,268,119183,6,0,P|120:256|88:224,1,95,4|0,0:0|0:0,0:0:0:0:
212,344,119588,2,0,P|164:357|120:345,1,95,8|0,0:0|0:0,0:0:0:0:
260,248,119994,1,8,0:0:0:0:
280,256,120095,1,0,0:0:0:0:
300,264,120196,2,0,L|356:344,1,95,8|0,0:0|0:0,0:0:0:0:
420,248,120602,1,8,0:0:0:0:
340,168,120804,6,0,B|300:140|300:140|256:168|212:140|212:140|172:168,1,190,2|8,0:0|0:0,0:0:0:0:
256,52,121413,1,0,0:0:0:0:
164,260,121818,1,0,0:0:0:0:
320,304,122021,1,8,0:0:0:0:
228,328,122223,1,0,0:0:0:0:
252,236,122426,6,0,P|192:172|100:192,1,190,4|8,0:0|0:0,0:0:0:0:
256,104,123034,1,0,0:0:0:0:
300,128,123136,1,0,0:0:0:0:
328,168,123237,2,0,P|388:232|480:212,2,190,0|8|0,0:0|0:0|0:0,0:0:0:0:
256,192,124149,12,0,127291,0:0:0:0:
120,240,127696,5,8,0:0:0:0:
256,192,128102,1,0,0:0:0:0:
360,292,128507,2,0,L|292:316,1,71.2500027179719,8|0,0:0|0:0,0:0:0:0:
220,316,128913,5,4,0:0:0:0:
348,200,129318,1,8,0:0:0:0:
256,56,129723,1,0,0:0:0:0:
88,88,130129,2,0,L|160:88,2,71.2500027179719,8|0|0,0:0|0:0|0:0,0:0:0:0:
188,192,130940,2,0,L|116:192,2,71.2500027179719,8|0|0,0:0|0:0|0:0,0:0:0:0:
256,284,131750,5,8,0:0:0:0:
316,224,131953,1,8,0:0:0:0:
400,244,132156,2,0,P|440:240|468:224,1,71.2500027179719,4|0,0:0|0:0,0:0:0:0:
324,144,132561,2,0,P|284:148|256:164,1,71.2500027179719,8|0,0:0|0:0,0:0:0:0:
408,160,132967,2,0,P|424:123|424:91,1,71.2500027179719
316,224,133372,2,0,P|299:260|299:292,1,71.2500027179719,8|0,0:0|0:0,0:0:0:0:
324,144,133777,5,6,0:0:0:0:
432,276,134183,1,8,0:0:0:0:
256,292,134588,1,0,0:0:0:0:
156,152,134994,1,8,0:0:0:0:
156,152,135196,1,8,0:0:0:0:
76,116,135399,6,0,P|72:184|124:232,2,142.500005435944,4|8|0,0:0|0:0|0:0,0:0:0:0:
180,64,136413,1,0,0:0:0:0:
292,88,136615,2,0,L|364:80,1,71.2500027179719,8|0,0:0|0:0,0:0:0:0:
448,176,137021,6,0,B|392:184|392:184|384:180|384:180|392:188|392:188|384:184|384:184|328:192,1,142.500005435944,6|8,0:0|0:0,0:0:0:0:
256,164,137629,1,0,0:0:0:0:
180,176,137832,2,0,P|144:184|112:204,2,71.2500027179719,0|0|8,0:0|0:0|0:0,0:0:0:0:
200,248,138440,1,8,0:0:0:0:
256,296,138642,5,4,0:0:0:0:
328,328,138845,1,0,0:0:0:0:
424,192,139250,1,0,0:0:0:0:
328,56,139656,1,0,0:0:0:0:
328,56,139859,1,8,0:0:0:0:
328,56,140061,1,8,0:0:0:0:
352,140,140264,6,0,P|276:128|244:76,1,142.500005435944,6|8,0:0|0:0,0:0:0:0:
240,40,140872,2,0,B|184:48|172:96|116:112,1,142.500005435944
40,192,141480,2,0,L|112:192,1,71.2500027179719,8|0,0:0|0:0,0:0:0:0:
88,276,141886,6,0,P|164:264|196:212,1,142.500005435944,4|8,0:0|0:0,0:0:0:0:
200,176,142494,2,0,B|256:184|268:232|324:248,1,142.500005435944
400,328,143102,2,0,L|328:328,1,71.2500027179719,8|0,0:0|0:0,0:0:0:0:
236,312,143507,5,4,0:0:0:0:
288,256,143710,1,0,0:0:0:0:
276,180,143913,1,8,0:0:0:0:
308,112,144115,1,0,0:0:0:0:
368,68,144318,2,0,P|404:60|436:68,1,71.2500027179719
452,140,144723,2,0,P|483:159|500:188,1,71.2500027179719,8|0,0:0|0:0,0:0:0:0:
472,256,145129,6,0,P|480:292|472:324,2,71.2500027179719,0|0|8,0:0|0:0|0:0,0:0:0:0:
392,288,145737,2,0,P|328:308|256:292,1,142.500005435944
124,260,146345,2,0,P|156:244|192:244,1,71.2500027179719,8|0,0:0|0:0,0:0:0:0:
276,224,146750,6,0,P|262:292|205:331,2,142.500005435944,6|8|0,0:0|0:0|0:0,0:0:0:0:
217,155,147764,1,8,0:0:0:0:
200,116,148169,1,0,0:0:0:0:
184,76,148575,1,8,0:0:0:0:
368,64,148980,2,0,L|296:64,1,71.2500027179719,0|8,0:0|0:0,0:0:0:0:
328,144,149386,2,0,L|400:144,1,71.2500027179719,0|8,0:0|0:0,0:0:0:0:
480,172,149791,1,0,0:0:0:0:
432,268,149994,6,0,P|344:308|256:244,1,213.750008153916,4|0,0:0|0:0,0:0:0:0:
256,192,150804,5,8,0:0:0:0:
263,154,150940,1,0,0:0:0:0:
253,116,151075,1,0,0:0:0:0:
220,93,151210,1,8,0:0:0:0:
176,92,151345,1,0,0:0:0:0:
132,112,151480,1,0,0:0:0:0:
116,160,151615,1,4,0:0:0:0:
256,287,152426,6,0,L|256:192,1,95,8|0,0:0|0:0,0:0:0:0:
256,192,153237,12,0,156480,0:0:0:0:
