osu file format v12

[General]
AudioFilename: V.K. - Darkness.mp3
AudioLeadIn: 0
PreviewTime: 75249
Countdown: 0
SampleSet: Soft
StackLeniency: 0.7
Mode: 0
LetterboxInBreaks: 1

[Editor]
Bookmarks: 45202,60265,105453
DistanceSpacing: 0.9
BeatDivisor: 4
GridSize: 4

[Metadata]
Title:Darkness
TitleUnicode:Darkness
Artist:V.K.
ArtistUnicode:V.K.
Creator:Niva
Version:Pie's Normal
Source:Cytus
Tags:nivalis katty pie chapter 4 ch4 v.k kloudhsu
BeatmapID:225515
BeatmapSetID:79838

[Difficulty]
HPDrainRate:4
CircleSize:3
OverallDifficulty:4
ApproachRate:5
SliderMultiplier:1.4
SliderTickRate:2

[Events]
//Background and Video events
0,0,"bg.jpg",0,0
//Break Periods
2,30333,32694
//Storyboard Layer 0 (Background)
//Storyboard Layer 1 (Fail)
//Storyboard Layer 2 (Pass)
//Storyboard Layer 3 (Foreground)
//Storyboard Sound Samples
//Background Colour Transformations
3,100,255,255,255

[TimingPoints]
10050,627.615062761506,4,2,0,50,1,0
30134,618.556701030928,4,2,0,50,1,0
33894,627.615062761506,4,2,0,50,1,0
35154,627.615062761506,4,2,0,50,1,0
75321,-100,4,2,0,40,0,0
85364,-100,4,2,0,50,0,0
93131,-100,4,2,0,40,0,0
93288,-100,4,2,0,50,0,0
93445,-100,4,2,0,60,0,0
93759,-100,4,2,0,50,0,0
93916,-100,4,2,0,60,0,0
94072,-100,4,2,0,70,0,0
94308,-100,4,2,0,50,0,0

[Colours]
Combo1 : 224,243,254
Combo2 : 158,138,255

[HitObjects]
316,100,10050,2,0,L|380:152,2,70,4|0|8,0:0|0:0|0:0,0:0:0:0:
256,84,10991,1,0,0:0:0:0:
196,100,11305,2,0,L|132:152,2,70,2|2|8,0:0|0:0|0:0,0:0:0:0:
256,212,12560,6,0,P|256:284|324:324,1,140,0|8,0:0|0:0,0:0:0:0:
368,312,13501,1,0,0:0:0:0:
416,272,13815,2,0,P|416:200|348:160,1,140,2|8,0:0|0:0,0:0:0:0:
296,60,15070,6,0,L|224:60,1,70,4|0,0:0|0:0,0:0:0:0:
164,64,15698,2,0,P|96:76|60:144,1,140,8|2,0:0|0:0,0:0:0:0:
56,196,16639,1,2,0:0:0:0:
80,256,16953,1,8,0:0:0:0:
132,292,17267,1,2,0:0:0:0:
192,312,17581,6,0,B|228:312|256:336|256:336|284:312|320:312,2,140,2|8|2,0:0|0:0|0:0,0:0:0:0:
192,248,19150,2,0,L|192:176,1,70,2|8,0:0|0:0,0:0:0:0:
288,96,20091,6,0,P|324:88|357:101,1,70,4|0,0:0|0:0,0:0:0:0:
400,144,20719,1,8,0:0:0:0:
416,208,21033,1,0,0:0:0:0:
408,272,21347,2,0,P|352:308|294:274,1,140,2|8,0:0|0:0,0:0:0:0:
256,224,22288,1,2,0:0:0:0:
216,272,22602,6,0,P|159:306|103:270,1,140,4|8,0:0|0:0,0:0:0:0:
72,216,23543,2,0,L|40:148,1,70,0|2,0:0|0:0,0:0:0:0:
96,120,24171,2,0,L|64:52,2,70,2|8|2,0:0|0:0|0:0,0:0:0:0:
256,192,25112,12,8,26995,0:0:0:0:
368,168,27623,6,0,B|407:199|407:263|407:263|343:263|311:295|311:295|288:248|224:248|199:295|199:295|167:263|103:263|103:263|103:199|143:167,1,560,4|2,0:0|0:0,0:0:0:0:
144,160,33894,6,0,L|144:248,1,70
168,288,34521,1,8,3:2:0:0:
224,320,34835,1,0,0:0:0:0:
288,320,35154,6,0,B|352:296|352:296|367:226,1,140,4|8,0:0|0:0,0:0:0:0:
368,160,36095,2,0,L|368:80,3,70,0|0|0|8,0:0|0:0|0:0|0:0,0:0:0:0:
256,32,37664,6,0,B|208:32|208:32|173:63|116:58,1,140,4|8,0:0|0:0,0:0:0:0:
96,116,38605,1,0,0:0:0:0:
103,178,38919,2,0,L|112:263,1,70
119,310,39547,1,8,0:0:0:0:
243,326,40174,6,0,B|276:304|309:311|309:311|317:278|351:257,1,140,4|8,0:0|0:0,0:0:0:0:
388,207,41116,2,0,L|388:135,1,70
335,102,41743,1,0,0:0:0:0:
281,131,42057,1,8,0:0:0:0:
160,88,42685,6,0,P|96:72|49:121,1,140,4|8,0:0|0:0,0:0:0:0:
40,184,43626,1,0,0:0:0:0:
56,248,43940,1,2,0:0:0:0:
104,288,44254,1,0,0:0:0:0:
168,296,44568,2,0,L|240:296,1,70,8|0,0:0|0:0,0:0:0:0:
304,296,45195,6,0,P|384:288|408:224,1,140,4|8,0:0|0:0,0:0:0:0:
456,188,46137,1,0,0:0:0:0:
452,120,46451,1,2,0:0:0:0:
392,84,46764,1,2,0:0:0:0:
328,104,47078,2,0,P|248:112|224:176,1,140,8|4,0:0|0:0,0:0:0:0:
160,176,48020,6,0,L|112:240,1,70,0|8,0:0|0:0,0:0:0:0:
168,272,48647,2,0,L|120:336,2,70,0|2|2,0:0|0:0|0:0,0:0:0:0:
232,272,49589,2,0,B|280:272|280:272|325:295|368:272,1,140,8|4,0:0|0:0,0:0:0:0:
428,288,50530,5,0,0:0:0:0:
421,225,50844,1,8,0:0:0:0:
418,162,51158,1,0,0:0:0:0:
408,96,51471,2,0,P|368:48|294:47,1,140,2|8,0:0|0:0,0:0:0:0:
256,96,52413,1,2,0:0:0:0:
217,47,52727,6,0,P|144:48|104:96,2,140,4|8|2,0:0|0:0|0:0,0:0:0:0:
256,96,54296,1,2,0:0:0:0:
256,160,54610,1,8,0:0:0:0:
256,224,54923,1,2,0:0:0:0:
256,288,55237,6,0,B|296:344|296:344|367:344,1,140,4|8,0:0|0:0,0:0:0:0:
424,312,56179,1,0,0:0:0:0:
456,256,56492,1,2,0:0:0:0:
456,192,56806,1,0,0:0:0:0:
416,144,57120,2,0,B|360:104|360:104|288:104,1,140,8|4,0:0|0:0,0:0:0:0:
224,104,58061,6,0,P|184:96|152:104,1,70,0|8,0:0|0:0,0:0:0:0:
96,120,58689,2,0,P|62:142|45:170,1,70
32,232,59317,2,0,P|23:272|32:304,2,70,0|8|0,0:0|0:0|0:0,0:0:0:0:
88,208,60258,6,0,L|232:208,1,140,4|8,0:0|0:0,0:0:0:0:
280,240,61200,1,0,0:0:0:0:
336,208,61513,1,0,0:0:0:0:
392,240,61827,2,0,L|464:240,2,70,0|8|0,0:0|0:0|0:0,0:0:0:0:
336,208,62769,6,0,P|352:144|325:77,1,140,4|8,0:0|0:0,0:0:0:0:
272,40,63710,2,0,P|240:24|200:24,1,70
144,24,64338,2,0,P|110:35|81:63,2,70,0|8|0,0:0|0:0|0:0,0:0:0:0:
176,80,65279,5,4,0:0:0:0:
176,144,65593,1,0,0:0:0:0:
200,200,65907,1,2,0:0:0:0:
248,240,66220,1,0,0:0:0:0:
304,264,66534,2,0,L|400:264,2,70,2|0|8,0:0|0:0|0:0,0:0:0:0:
192,328,67789,5,4,0:0:0:0:
128,320,68103,1,0,0:0:0:0:
80,280,68417,1,2,0:0:0:0:
64,216,68731,1,0,0:0:0:0:
64,152,69045,2,0,L|64:64,2,70,2|0|8,0:0|0:0|0:0,0:0:0:0:
192,168,70300,5,4,0:0:0:0:
248,192,70614,1,0,0:0:0:0:
304,168,70928,1,2,0:0:0:0:
360,192,71241,1,0,0:0:0:0:
416,168,71555,2,0,L|488:168,2,70,2|0|8,0:0|0:0|0:0,0:0:0:0:
256,192,72810,12,8,74693,0:0:0:0:
112,216,75321,6,0,B|140:244|140:278|140:278|174:278|202:306,1,140,4|8,0:0|0:0,0:0:0:0:
256,344,76262,1,2,0:0:0:0:
309,306,76576,2,0,B|337:278|371:278|371:278|371:244|400:216,1,140,0|8,0:0|0:0,0:0:0:0:
392,152,77518,1,2,0:0:0:0:
392,152,77831,6,0,L|344:96,1,70
292,64,78459,2,0,L|220:64,1,70,8|2,0:0|0:0,0:0:0:0:
165,98,79087,2,0,L|120:152,1,70,0|0,0:0|0:0,0:0:0:0:
80,200,79714,1,8,0:0:0:0:
52,256,80028,1,0,0:0:0:0:
84,312,80342,6,0,P|132:356|204:361,1,140,4|8,0:0|0:0,0:0:0:0:
256,324,81283,1,2,0:0:0:0:
307,361,81597,2,0,P|380:356|428:312,1,140,0|8,0:0|0:0,0:0:0:0:
428,248,82538,1,2,0:0:0:0:
256,192,82852,12,2,84735,3:0:0:0:
300,352,85363,6,0,P|344:352|376:332,1,70,4|0,0:0|0:0,0:0:0:0:
412,296,85990,2,0,P|443:264|451:228,1,70,2|0,0:0|0:0,0:0:0:0:
460,180,86618,2,0,P|459:135|439:103,1,70,2|0,0:0|0:0,0:0:0:0:
408,64,87246,2,0,P|376:32|340:24,1,70,2|0,0:0|0:0,0:0:0:0:
288,24,87873,6,0,P|220:40|192:124,1,140,4|2,0:0|0:0,0:0:0:0:
188,160,88815,1,0,0:0:0:0:
188,224,89128,1,2,0:0:0:0:
152,276,89442,1,0,0:0:0:0:
92,296,89756,1,2,0:0:0:0:
32,276,90070,1,0,0:0:0:0:
0,222,90384,6,0,L|0:134,2,70,4|0|2,0:0|0:0|0:0,0:0:0:0:
31,276,91325,1,0,0:0:0:0:
91,295,91639,2,0,B|122:307|158:293|158:293|196:280|228:292,1,140,2|2,0:0|0:0,0:0:0:0:
288,273,92580,1,0,0:0:0:0:
286,207,92894,5,4,0:0:0:0:
252,148,93208,2,0,L|268:108,2,35,2|0|2,0:0|0:0|0:0,0:0:0:0:
188,148,93836,2,0,L|172:108,2,35,2|0|2,0:0|0:0|0:0,0:0:0:0:
220,204,94463,2,0,L|220:288,2,70,2|2|2,0:0|0:0|0:0,0:0:0:0:
252,148,95405,6,0,L|300:92,1,70,4|0,0:0|0:0,0:0:0:0:
360,96,96032,2,0,L|405:149,1,70,8|0,0:0|0:0,0:0:0:0:
392,212,96660,2,0,P|344:240|269:211,2,140,2|8|4,0:0|0:0|0:0,0:0:0:0:
456,200,98229,5,0,0:0:0:0:
476,260,98543,1,8,0:0:0:0:
452,316,98856,1,0,0:0:0:0:
392,332,99170,2,0,B|356:320|324:336|324:336|288:348|255:334,2,140,2|2|4,0:0|0:0|0:0,0:0:0:0:
452,316,100739,6,0,P|468:280|460:240,1,70,0|8,0:0|0:0,0:0:0:0:
424,204,101367,1,0,0:0:0:0:
368,172,101681,2,0,P|320:128|284:176,2,140,2|8|4,0:0|0:0|0:0,0:0:0:0:
256,192,103250,12,2,104819,0:0:0:0:
256,192,105446,5,4,0:0:0:0:
