osu file format v12

[General]
AudioFilename: V.K. - Darkness.mp3
AudioLeadIn: 0
PreviewTime: 75249
Countdown: 0
SampleSet: Soft
StackLeniency: 0.7
Mode: 0
LetterboxInBreaks: 1

[Editor]
DistanceSpacing: 1
BeatDivisor: 12
GridSize: 4

[Metadata]
Title:Darkness
TitleUnicode:Darkness
Artist:V.K.
ArtistUnicode:V.K.
Creator:Niva
Version:Insane
Source:Cytus
Tags:nivalis katty pie chapter 4 ch4 v.k kloudhsu
BeatmapID:222591
BeatmapSetID:79838

[Difficulty]
HPDrainRate:7
CircleSize:4
OverallDifficulty:7
ApproachRate:9
SliderMultiplier:3.4
SliderTickRate:2

[Events]
//Background and Video events
0,0,"bg.jpg",0,0
//Break Periods
//Storyboard Layer 0 (Background)
//Storyboard Layer 1 (Fail)
//Storyboard Layer 2 (Pass)
//Storyboard Layer 3 (Foreground)
//Storyboard Sound Samples
//Background Colour Transformations
3,100,255,255,255

[TimingPoints]
10050,627.615062761506,4,2,0,50,1,0
30134,618.556701030928,4,2,0,50,1,0
30134,-133.333333333333,4,2,0,50,0,0
33894,627.615062761506,4,2,0,50,1,0
34135,-100,4,2,0,50,0,0
35154,627.615062761506,4,2,0,50,1,0
75321,-133.333333333333,4,2,0,40,0,0
85364,-100,4,2,0,50,0,0
93131,-100,4,2,0,40,0,0
93288,-100,4,2,0,50,0,0
93445,-100,4,2,0,60,0,0
93759,-100,4,2,0,50,0,0
93916,-100,4,2,0,60,0,0
94072,-100,4,2,0,70,0,0
94308,-100,4,2,0,50,0,0

[Colours]
Combo1 : 224,243,254
Combo2 : 158,138,255

[HitObjects]
464,136,10050,1,0,1:2:0:0:
361,117,10206,1,2,0:0:0:0:
444,236,10363,1,0,1:2:0:0:
344,217,10520,1,2,0:0:0:0:
476,127,10677,1,8,0:0:0:0:
352,105,10834,1,2,0:0:0:0:
452,247,10991,1,0,0:0:0:0:
332,225,11148,1,2,1:2:0:0:
210,254,11305,6,0,P|147:268|85:237,1,127.5
87,232,11619,2,0,L|79:138,1,85,2|2,0:0|0:0,0:0:0:0:
184,48,11932,2,0,L|194:139,1,85,8|2,0:0|0:0,0:0:0:0:
210,254,12246,1,0,0:0:0:0:
316,329,12403,1,2,0:0:0:0:
434,283,12560,6,0,L|531:283,1,85,0|2,1:2|0:0,0:0:0:0:
316,330,12874,2,0,L|219:330,1,85,0|2,1:2|0:0,0:0:0:0:
423,296,13188,2,0,L|520:296,1,85,8|2,0:0|0:0,0:0:0:0:
309,344,13501,2,0,L|212:344,1,85,0|2,0:0|1:2,0:0:0:0:
107,379,13815,2,0,P|44:380|-3:331,1,127.5
0,325,14129,2,0,L|18:237,1,85,2|2,0:0|0:0,0:0:0:0:
98,23,14443,2,0,L|118:106,1,85,8|2,0:0|1:2,0:0:0:0:
209,256,14757,2,0,L|305:256,1,85,0|10,0:0|0:0,0:0:0:0:
384,303,15070,5,0,1:2:0:0:
473,352,15227,1,2,0:0:0:0:
397,283,15384,1,0,1:2:0:0:
356,189,15541,1,2,0:0:0:0:
395,101,15698,1,8,0:0:0:0:
460,26,15855,1,2,0:0:0:0:
384,81,16012,1,0,0:0:0:0:
285,108,16169,1,2,1:2:0:0:
187,79,16326,6,0,B|142:79|142:79|99:98|56:78,1,127.5
52,70,16639,2,0,L|67:163,1,85,2|2,0:0|0:0,0:0:0:0:
0,275,16953,1,8,0:0:0:0:
89,384,17110,1,2,0:0:0:0:
225,339,17267,1,0,0:0:0:0:
205,186,17424,1,2,0:0:0:0:
119,272,17581,5,2,1:2:0:0:
313,250,17738,1,2,0:0:0:0:
225,339,17895,1,0,1:2:0:0:
205,186,18052,1,2,0:0:0:0:
308,75,18208,2,0,P|347:83|393:74,1,85,8|2,0:0|0:0,0:0:0:0:
483,30,18522,1,0,0:0:0:0:
483,31,18679,1,2,1:2:0:0:
482,133,18836,2,0,L|493:230,1,85,0|2,0:0|1:2,0:0:0:0:
422,384,19150,2,0,L|412:298,1,85,0|2,0:0|0:0,0:0:0:0:
313,250,19464,2,0,B|284:251|284:251|255:245|255:245|219:246,1,85,8|2,0:0|1:2,0:0:0:0:
50,358,19778,1,0,0:0:0:0:
50,358,20091,5,0,1:2:0:0:
37,256,20248,1,2,0:0:0:0:
157,346,20405,1,0,1:2:0:0:
145,244,20562,1,2,0:0:0:0:
41,366,20719,1,8,0:0:0:0:
26,247,20876,1,2,0:0:0:0:
166,353,21033,1,0,0:0:0:0:
152,234,21190,1,2,1:2:0:0:
194,119,21347,6,0,P|255:140|315:118,1,127.5
323,112,21660,2,0,L|413:112,1,85,2|2,0:0|0:0,0:0:0:0:
479,211,21974,2,0,L|372:211,1,85,8|2,0:0|0:0,0:0:0:0:
322,286,22288,1,0,0:0:0:0:
322,286,22445,1,2,0:0:0:0:
245,353,22602,6,0,L|161:353,1,85,0|2,1:2|0:0,0:0:0:0:
79,288,22916,2,0,P|64:243|84:202,1,85,0|2,1:2|0:0,0:0:0:0:
193,40,23229,2,0,P|208:85|188:126,1,85,8|2,0:0|0:0,0:0:0:0:
92,107,23543,1,0,0:0:0:0:
184,231,23700,1,2,1:2:0:0:
322,286,23857,6,0,B|364:286|364:286|403:275|403:275|448:273,1,127.5
460,281,24171,2,0,P|442:238|448:189,1,85,2|2,0:0|0:0,0:0:0:0:
257,20,24485,2,0,L|256:110,1,85,8|2,0:0|1:2,0:0:0:0:
52,281,24798,2,0,P|70:238|67:200,1,85,0|10,0:0|0:0,0:0:0:0:
258,374,25112,1,0,0:0:0:0:
256,192,25191,12,2,26995,2:0:0:0:
495,272,27623,5,2,1:2:0:0:
353,190,27780,1,2,0:0:0:0:
426,347,27937,1,0,1:2:0:0:
454,178,28093,1,2,0:0:0:0:
339,291,28250,2,0,B|297:283|297:283|256:293,1,85,8|2,0:0|0:0,0:0:0:0:
123,258,28564,2,0,B|81:266|81:266|40:256,1,85,0|2,0:0|1:2,0:0:0:0:
40,128,28878,6,0,B|81:118|81:118|123:126,1,85,0|2,0:0|1:2,0:0:0:0:
256,91,29192,2,0,B|297:101|297:101|339:93,1,85,0|2,0:0|0:0,0:0:0:0:
504,192,29506,2,0,L|412:191,1,85,8|2,0:0|1:2,0:0:0:0:
339,291,29819,1,2,0:0:0:0:
339,291,30134,6,0,P|290:322|220:311,1,127.500004863739,2|0,0:0|0:0,0:0:0:0:
155,276,30597,2,0,B|104:276|104:276|66:297|25:278,1,127.500004863739,2|0,0:0|0:0,0:0:0:0:
64,211,31061,1,2,0:0:0:0:
32,141,31216,1,0,0:0:0:0:
67,55,31371,1,2,0:0:0:0:
161,24,31525,1,2,0:0:0:0:
161,24,31989,6,0,L|239:24,1,63.7500024318696,2|0,0:0|0:0,0:0:0:0:
358,114,32298,2,0,L|268:114,1,63.7500024318696,0|0,0:0|0:0,0:0:0:0:
195,173,32608,2,0,P|177:242|204:291,1,127.500004863739
290,340,33072,1,2,0:0:0:0:
378,289,33226,2,0,L|444:289,2,63.7500024318696
475,199,33894,6,0,L|464:112,1,85,2|8,0:2|0:0,0:0:0:0:
377,61,34207,2,0,B|333:61|333:61|296:82|252:63,1,127.5,2|0,0:0|0:0,0:0:0:0:
256,50,34521,2,0,B|214:58|214:58|165:49,1,85,10|0,0:0|0:0,0:0:0:0:
58,153,34835,2,0,B|100:145|100:145|141:152,1,85,0|2,0:0|0:0,0:0:0:0:
256,194,35154,5,0,1:2:0:0:
370,152,35310,1,0,0:0:0:0:
330,248,35467,2,0,P|258:285|182:248,2,170,0|8|0,0:0|0:0|0:0,0:0:0:0:
412,308,36252,1,8,0:0:0:0:
496,250,36409,1,0,0:0:0:0:
469,151,36566,1,8,0:0:0:0:
370,152,36723,1,0,1:2:0:0:
260,369,37036,1,8,0:0:0:0:
142,152,37350,1,0,0:0:0:0:
260,369,37664,6,0,B|294:368|294:368|323:362|323:362|352:364,1,85,0|0,1:2|0:0,0:0:0:0:
446,382,37978,2,0,B|485:361|524:364|524:364|498:321|516:278,2,170,0|8|0,0:0|0:0|0:0,0:0:0:0:
416,283,38762,1,8,0:0:0:0:
418,180,38919,1,0,0:0:0:0:
323,218,39076,1,8,0:0:0:0:
221,209,39233,1,0,1:2:0:0:
418,180,39547,6,0,B|425:151|408:118|408:118|391:85|395:54,1,127.5,8|0,0:0|0:0,0:0:0:0:
401,43,39861,2,0,B|355:50|355:50|315:42,1,85
212,138,40174,2,0,B|255:130|255:130|295:138,1,85,0|0,1:2|0:0,0:0:0:0:
194,42,40488,2,0,B|157:50|157:50|115:42|115:42|67:60|20:43,2,170,0|8|0,0:0|0:0|0:0,0:0:0:0:
258,131,41273,1,8,0:0:0:0:
320,211,41430,1,0,0:0:0:0:
258,292,41587,1,8,0:0:0:0:
194,212,41743,1,0,1:2:0:0:
338,351,42057,2,0,P|265:387|208:375,1,127.5,8|0,0:0|0:0,0:0:0:0:
205,373,42371,2,0,B|175:373|175:373|142:382|142:382|112:382,1,85
0,298,42685,6,0,L|91:297,1,85,2|0,1:2|0:0,0:0:0:0:
208,215,42999,2,0,B|178:215|178:215|145:206|145:206|124:206,1,85,2|0,0:0|0:0,0:0:0:0:
292,273,43312,2,0,B|329:222|294:158|294:158|294:103,1,170,10|2,0:0|0:0,0:0:0:0:
292,7,43783,1,8,0:0:0:0:
389,44,43940,2,0,P|431:49|481:37,1,85,2|8,0:0|0:0,0:0:0:0:
198,76,44254,2,0,P|136:64|69:73,1,127.5,2|0,1:2|0:0,0:0:0:0:
61,64,44568,2,0,L|76:152,1,85,10|0,0:0|0:0,0:0:0:0:
148,360,44882,2,0,L|171:274,1,85
278,154,45195,5,0,1:2:0:0:
378,133,45352,1,2,0:0:0:0:
306,257,45509,1,0,1:2:0:0:
405,231,45666,1,2,0:0:0:0:
266,146,45823,1,8,0:0:0:0:
383,122,45980,1,2,0:0:0:0:
299,267,46137,1,0,0:0:0:0:
415,236,46294,1,2,1:2:0:0:
505,296,46451,6,0,P|458:337|395:344,1,127.5
399,358,46764,2,0,P|355:343|309:345,1,85,2|2,0:0|0:0,0:0:0:0:
219,375,47078,2,0,P|179:378|136:364,1,85,8|2,0:0|0:0,0:0:0:0:
67,256,47392,2,0,L|81:170,1,85,0|2,0:0|0:0,0:0:0:0:
103,19,47706,5,0,1:2:0:0:
195,62,47863,1,2,0:0:0:0:
295,77,48020,1,0,1:2:0:0:
396,63,48177,1,2,0:0:0:0:
486,15,48333,1,8,0:0:0:0:
406,79,48490,1,2,0:0:0:0:
395,180,48647,1,0,0:0:0:0:
421,278,48804,1,2,1:2:0:0:
478,362,48961,6,0,P|431:329|355:324,1,127.5
353,328,49275,2,0,L|363:242,1,85,2|2,0:0|0:0,0:0:0:0:
295,77,49589,2,0,L|285:161,1,85,8|2,0:0|1:2,0:0:0:0:
193,228,49902,2,0,P|151:238|110:233,1,85,0|2,0:0|0:0,0:0:0:0:
1,85,50216,5,0,1:2:0:0:
18,186,50373,1,2,0:0:0:0:
196,88,50530,1,0,1:2:0:0:
98,115,50687,1,2,0:0:0:0:
201,283,50844,1,8,0:0:0:0:
173,186,51001,1,2,0:0:0:0:
4,284,51158,1,0,0:0:0:0:
102,256,51315,1,2,1:2:0:0:
201,283,51471,6,0,B|248:283|248:283|291:301|326:283,1,127.5
341,276,51785,2,0,P|371:243|384:201,1,85,2|2,0:0|0:0,0:0:0:0:
288,195,52099,1,8,0:0:0:0:
248,382,52256,1,2,0:0:0:0:
418,341,52413,2,0,B|463:332|463:332|503:342,1,85,0|2,0:0|0:0,0:0:0:0:
418,341,52727,5,2,1:2:0:0:
341,274,52884,1,2,0:0:0:0:
336,172,53041,1,0,1:2:0:0:
387,83,53197,1,2,0:0:0:0:
486,60,53354,1,8,0:0:0:0:
386,83,53511,1,2,0:0:0:0:
271,82,53668,1,0,0:0:0:0:
156,25,53825,1,2,1:2:0:0:
66,134,53982,6,0,L|77:227,1,85,0|2,0:0|1:2,0:0:0:0:
188,383,54296,2,0,L|201:291,1,85,0|2,0:0|0:0,0:0:0:0:
308,195,54610,2,0,L|397:195,2,85,8|2|0,0:0|1:2|0:0,0:0:0:0:
197,65,55080,1,8,0:0:0:0:
65,133,55237,6,0,B|20:153|3:199|19:248|65:268,1,170,4|0,1:2|0:0,0:0:0:0:
151,316,55708,1,0,0:0:0:0:
241,268,55865,2,0,L|329:268,1,85,10|0,0:0|0:0,0:0:0:0:
451,381,56179,1,2,0:0:0:0:
512,303,56336,2,0,P|523:263|508:218,1,85,8|2,0:0|0:0,0:0:0:0:
447,144,56649,1,8,0:0:0:0:
381,222,56806,1,2,1:2:0:0:
279,233,56963,1,0,0:0:0:0:
183,197,57120,2,0,B|138:189|100:211|100:211|65:233|18:223,1,170,10|0,0:0|0:0,0:0:0:0:
279,233,57748,6,0,P|227:201|219:76,1,170,0|0,1:2|0:0,0:0:0:0:
304,134,58218,1,0,0:0:0:0:
329,35,58375,2,0,P|380:66|388:191,1,170,10|0,0:0|0:0,0:0:0:0:
512,252,58846,2,0,B|455:252|455:252|397:279|339:246,1,170,10|8,0:0|0:0,0:0:0:0:
258,198,59317,1,2,1:2:0:0:
166,245,59474,1,2,0:0:0:0:
167,344,59630,1,8,0:0:0:0:
256,384,59787,1,2,0:0:0:0:
343,343,59944,1,2,0:0:0:0:
343,343,60258,6,0,B|398:343|398:343|453:371|508:342,1,170,0|2,1:2|0:0,0:0:0:0:
478,244,60729,1,0,0:0:0:0:
509,147,60886,2,0,L|530:45,2,85,10|0|0,0:0|0:0|0:0,0:0:0:0:
478,244,61356,2,0,B|437:263|396:244|396:244|354:228|309:243,1,170,10|8,0:0|0:0,0:0:0:0:
258,366,61827,1,2,1:2:0:0:
258,366,62141,6,0,P|169:381|95:327,1,170,10|0,0:0|0:0,0:0:0:0:
5,316,62612,2,0,P|90:314|143:252,1,170,2|0,0:0|0:0,0:0:0:0:
119,103,63082,1,2,0:0:0:0:
119,103,63396,6,0,B|173:103|173:103|231:87|231:87|286:86,1,170,10|0,0:0|0:0,0:0:0:0:
337,3,63867,2,0,P|331:108|380:153,1,170,10|8,0:0|0:0,0:0:0:0:
425,59,64338,1,0,1:2:0:0:
255,193,64651,1,8,0:0:0:0:
87,59,64965,1,0,0:0:0:0:
255,193,65279,6,0,B|302:200|302:200|347:191,1,85,2|0,1:2|0:0,0:0:0:0:
469,272,65593,2,0,B|422:265|422:265|377:274,1,85,0|0,0:0|0:0,0:0:0:0:
300,329,65907,2,0,B|245:329|245:329|189:359|136:324,1,170,10|2,0:0|0:0,0:0:0:0:
68,247,66377,1,8,0:0:0:0:
75,145,66534,2,0,L|89:47,2,85,0|10|0,0:0|0:0|1:2,0:0:0:0:
256,193,67162,1,8,0:0:0:0:
437,145,67476,2,0,P|447:207|422:276,1,127.5
439,281,67789,6,0,L|351:275,1,85,2|0,1:2|0:0,0:0:0:0:
257,193,68103,2,0,L|172:198,1,85
69,247,68417,1,10,0:0:0:0:
69,247,68731,1,2,0:0:0:0:
13,162,68888,1,8,0:0:0:0:
74,80,69045,1,2,0:0:0:0:
168,117,69202,1,8,0:0:0:0:
169,219,69359,2,0,B|177:271|159:301|159:301|202:285|246:293,1,170,0|8,1:2|0:0,0:0:0:0:
422,194,69986,1,0,0:0:0:0:
422,194,70300,6,0,B|411:151|411:151|426:107,1,85,2|0,1:2|0:0,0:0:0:0:
334,0,70614,2,0,B|345:43|345:43|330:87,1,85
302,179,70928,2,0,B|257:188|216:168|216:168|176:150|132:159,1,170,10|2,0:0|0:0,0:0:0:0:
168,255,71398,1,8,0:0:0:0:
254,3,71555,2,0,L|273:86,1,85,0|10,0:0|0:0,0:0:0:0:
302,179,71869,2,0,B|326:209|368:208|378:221|378:221|384:208|424:209|453:181,1,170,0|8,1:2|0:0,0:0:0:0:
508,379,72497,1,0,0:0:0:0:
508,379,72810,6,0,L|421:365,1,85,2|0,1:2|0:0,0:0:0:0:
249,322,73124,2,0,L|334:312,1,85
420,256,73438,2,0,P|451:182|409:102,1,170,10|2,0:0|0:0,0:0:0:0:
325,54,73909,1,8,0:0:0:0:
191,111,74066,1,2,0:0:0:0:
224,12,74223,1,8,0:0:0:0:
287,152,74379,2,0,B|311:218|311:218|359:252|418:223,2,170,0|8|0,1:2|0:0|0:0,0:0:0:0:
353,315,75321,6,0,B|311:313|274:290|274:290|225:291,1,127.5,6|0,1:2|1:2,0:0:0:0:
162,328,75792,2,0,P|97:335|47:296,1,127.500004863739,2|0,0:0|0:0,0:0:0:0:
28,225,76262,2,0,L|40:150,1,63.7500024318696,2|0,0:0|1:2,0:0:0:0:
172,265,76733,2,0,L|160:341,1,63.7500024318696,2|0,1:2|0:0,0:0:0:0:
28,225,77204,1,10,0:0:0:0:
172,265,77518,1,2,0:0:0:0:
314,228,77831,6,0,B|346:239|379:228|379:228|411:219|439:228,1,127.500004863739,2|0,1:2|1:2,0:0:0:0:
501,273,78302,2,0,B|473:234|494:188|494:188|481:141,1,127.500004863739,2|0,0:0|0:0,0:0:0:0:
512,77,78773,2,0,P|463:115|398:119,1,127.500004863739,2|0,0:0|0:0,0:0:0:0:
326,96,79243,1,2,1:2:0:0:
252,230,79557,2,0,L|269:293,1,63.7500024318696,0|10,0:0|0:0,0:0:0:0:
410,341,80028,2,0,L|336:341,1,63.7500024318696,2|8,0:0|0:0,0:0:0:0:
268,292,80342,6,0,B|221:292|221:292|181:309|141:292,1,127.500004863739,2|0,1:2|1:2,0:0:0:0:
84,242,80812,2,0,P|60:183|86:126,1,127.500004863739,2|0,0:0|0:0,0:0:0:0:
143,78,81283,2,0,B|181:61|221:78|221:78|268:78,1,127.500004863739,2|0,0:0|0:0,0:0:0:0:
308,8,81754,2,0,P|304:85|343:122,1,127.500004863739,2|0,1:2|0:0,0:0:0:0:
374,50,82225,1,10,0:0:0:0:
255,156,82538,1,2,0:0:0:0:
138,50,82852,6,0,L|65:51,2,63.7500024318696,2|0|0,1:2|0:0|1:2,0:0:0:0:
200,95,83323,2,0,B|222:74|249:73|255:67|255:67|261:73|288:73|314:97,1,127.500004863739,2|2,0:0|0:0,0:0:0:0:
374,50,83794,2,0,L|447:51,1,63.7500024318696,0|0,0:0|1:2,0:0:0:0:
499,3,84107,2,0,P|461:57|470:122,1,127.500004863739,2|0,0:0|0:0,0:0:0:0:
509,196,84578,2,0,P|522:261|489:318,1,127.500004863739,2|0,0:0|1:2,0:0:0:0:
391,377,85049,1,2,0:0:0:0:
391,377,85363,5,4,1:2:0:0:
309,315,85520,1,0,0:0:0:0:
210,287,85677,1,2,0:0:0:0:
109,303,85833,1,0,0:0:0:0:
17,347,85990,1,8,0:0:0:0:
14,335,86304,1,2,0:0:0:0:
12,325,86618,6,0,L|21:236,1,85,0|2,0:0|0:0,0:0:0:0:
114,56,86932,2,0,L|132:150,1,85,2|0,1:2|0:0,0:0:0:0:
261,242,87246,2,0,L|346:242,1,85,8|0,0:0|0:0,0:0:0:0:
501,66,87559,2,0,L|413:65,1,85,2|0,0:0|0:0,0:0:0:0:
328,11,87873,5,0,1:2:0:0:
405,77,88030,1,0,0:0:0:0:
447,169,88187,1,2,0:0:0:0:
440,270,88344,1,0,0:0:0:0:
390,358,88501,1,8,0:0:0:0:
378,353,88815,1,2,0:0:0:0:
368,347,89128,6,0,L|273:347,1,85,0|2,0:0|0:0,0:0:0:0:
40,264,89442,2,0,L|135:264,1,85,2|0,1:2|0:0,0:0:0:0:
126,24,89756,2,0,L|159:103,1,85,8|0,0:0|0:0,0:0:0:0:
384,22,90070,2,0,L|350:112,1,85,2|0,0:0|0:0,0:0:0:0:
447,144,90384,5,0,1:2:0:0:
346,127,90541,1,0,0:0:0:0:
254,171,90697,1,2,0:0:0:0:
226,269,90854,1,0,0:0:0:0:
265,362,91011,1,8,0:0:0:0:
281,358,91325,1,2,0:0:0:0:
297,354,91639,6,0,P|257:365|213:364,1,85,0|2,0:0|0:0,0:0:0:0:
105,251,91953,2,0,L|119:151,1,85,2|0,1:2|0:0,0:0:0:0:
0,30,92266,2,0,P|38:44|83:45,1,85,8|0,0:0|0:0,0:0:0:0:
275,5,92580,2,0,P|319:2|368:17,1,85,2|0,0:0|0:0,0:0:0:0:
493,139,92894,5,4,1:2:0:0:
493,138,93208,5,0,0:0:0:0:
479,239,93365,1,0,0:0:0:0:
462,339,93522,1,6,0:0:0:0:
429,117,93836,5,0,0:0:0:0:
445,232,93992,1,0,0:0:0:0:
462,338,94149,1,6,0:0:0:0:
366,377,94463,1,0,1:2:0:0:
271,346,94777,1,8,0:0:0:0:
219,261,95091,1,2,0:0:0:0:
248,162,95405,5,0,1:2:0:0:
204,258,95561,1,0,0:0:0:0:
109,295,95718,1,2,0:0:0:0:
8,278,95875,1,0,0:0:0:0:
102,316,96032,1,8,0:0:0:0:
183,377,96189,1,0,0:0:0:0:
265,316,96346,1,2,0:0:0:0:
359,279,96503,1,2,0:0:0:0:
462,290,96660,5,0,0:0:0:0:
465,272,96738,1,2,0:0:0:0:
468,256,96817,1,10,0:0:0:0:
471,240,96895,1,0,0:0:0:0:
474,223,96974,1,0,1:2:0:0:
477,207,97052,1,0,0:0:0:0:
480,191,97130,1,2,0:0:0:0:
483,175,97209,1,0,0:0:0:0:
485,159,97287,5,8,0:0:0:0:
450,183,97366,1,0,0:0:0:0:
407,187,97444,1,2,0:0:0:0:
364,183,97523,1,0,0:0:0:0:
328,158,97601,1,0,0:0:0:0:
302,124,97680,1,0,0:0:0:0:
290,82,97758,1,2,0:0:0:0:
297,40,97837,1,2,0:0:0:0:
321,4,97915,6,0,P|260:35|198:26,1,127.5,0|0,1:2|0:0,0:0:0:0:
203,28,98229,1,2,0:0:0:0:
104,1,98386,1,0,0:0:0:0:
57,91,98543,2,0,P|63:135|66:187,1,85,8|0,0:0|0:0,0:0:0:0:
94,368,98856,2,0,P|100:325|108:284,1,85,2|2,0:0|0:0,0:0:0:0:
192,195,99170,5,0,0:0:0:0:
208,195,99249,1,2,0:0:0:0:
225,195,99327,1,10,0:0:0:0:
241,195,99406,1,0,0:0:0:0:
258,195,99484,1,0,1:2:0:0:
274,195,99562,1,0,0:0:0:0:
291,195,99641,1,2,0:0:0:0:
307,195,99719,1,0,0:0:0:0:
323,185,99798,5,8,0:0:0:0:
307,225,99876,1,0,0:0:0:0:
310,267,99955,1,2,0:0:0:0:
329,304,100033,1,0,0:0:0:0:
362,329,100112,1,0,0:0:0:0:
402,342,100190,1,0,0:0:0:0:
443,337,100269,1,2,0:0:0:0:
482,319,100347,1,2,0:0:0:0:
501,281,100425,5,0,1:2:0:0:
466,31,100739,2,0,L|478:117,1,85,2|0,0:0|0:0,0:0:0:0:
501,281,101053,1,8,0:0:0:0:
362,329,101210,1,0,0:0:0:0:
218,280,101367,2,0,B|174:288|174:288|126:280,1,85,2|2,0:0|0:0,0:0:0:0:
36,308,101681,5,0,0:0:0:0:
38,290,101759,1,2,0:0:0:0:
40,273,101838,1,10,0:0:0:0:
42,255,101916,1,0,0:0:0:0:
44,238,101995,1,0,1:2:0:0:
46,220,102073,1,0,0:0:0:0:
48,203,102151,1,2,0:0:0:0:
50,186,102230,1,0,0:0:0:0:
44,168,102308,5,8,0:0:0:0:
83,182,102387,1,0,0:0:0:0:
125,179,102465,1,2,0:0:0:0:
163,161,102544,1,0,0:0:0:0:
193,131,102622,1,0,0:0:0:0:
236,132,102701,1,0,0:0:0:0:
280,132,102779,1,2,0:0:0:0:
324,132,102857,1,2,0:0:0:0:
368,132,102936,6,0,L|407:132,11,28.3333333333333,0|0|0|0|0|0|2|0|0|0|0|0,1:2|0:0|0:0|0:0|0:0|0:0|0:0|0:0|0:0|0:0|0:0|0:0,0:0:0:0:
392,210,103564,6,0,L|423:211,12,28.3333333333333,8|0|0|0|0|0|2|0|0|0|0|0|2,0:0|0:0|0:0|0:0|0:0|0:0|0:0|0:0|0:0|0:0|0:0|0:0|0:0,0:0:0:0:
374,289,104819,1,8,0:0:0:0:
355,367,105446,1,6,0:0:0:0:
