osu file format v12

[General]
AudioFilename: V.K. - Darkness.mp3
AudioLeadIn: 0
PreviewTime: 75249
Countdown: 0
SampleSet: Soft
StackLeniency: 0.7
Mode: 0
LetterboxInBreaks: 1

[Editor]
DistanceSpacing: 1
BeatDivisor: 4
GridSize: 4

[Metadata]
Title:Darkness
TitleUnicode:Darkness
Artist:V.K.
ArtistUnicode:V.K.
Creator:Niva
Version:Easy
Source:Cytus
Tags:nivalis katty pie chapter 4 ch4 v.k kloudhsu
BeatmapID:225210
BeatmapSetID:79838

[Difficulty]
HPDrainRate:2
CircleSize:3
OverallDifficulty:2
ApproachRate:3
SliderMultiplier:1.15
SliderTickRate:2

[Events]
//Background and Video events
0,0,"bg.jpg",0,0
//Break Periods
//Storyboard Layer 0 (Background)
//Storyboard Layer 1 (Fail)
//Storyboard Layer 2 (Pass)
//Storyboard Layer 3 (Foreground)
//Storyboard Sound Samples
//Background Colour Transformations
3,100,255,255,255

[TimingPoints]
10050,627.615062761506,4,2,0,50,1,0
30134,618.556701030928,4,2,0,50,1,0
33894,627.615062761506,4,2,0,50,1,0
34135,-100,4,2,0,50,0,0
35154,627.615062761506,4,2,0,50,1,0
85364,-100,4,2,0,50,0,0
93131,-100,4,2,0,40,0,0
93288,-100,4,2,0,50,0,0
93445,-100,4,2,0,60,0,0
93759,-100,4,2,0,50,0,0
93916,-100,4,2,0,60,0,0
94072,-100,4,2,0,70,0,0
94308,-100,4,2,0,50,0,0

[Colours]
Combo1 : 224,243,254
Combo2 : 158,138,255

[HitObjects]
441,144,10050,2,0,L|463:30,2,115,0|10|0,1:2|0:0|0:0,0:0:0:0:
466,256,11932,1,10,0:0:0:0:
356,221,12560,6,0,B|316:221|316:221|280:238|237:220,1,115,0|10,1:2|0:0,0:0:0:0:
146,159,13815,1,0,0:0:0:0:
49,221,14443,1,10,0:0:0:0:
87,329,15070,6,0,P|128:362|187:358,1,115,0|10,1:2|0:0,0:0:0:0:
294,314,16326,2,0,P|353:310|396:341,1,115,0|10,0:0|0:0,0:0:0:0:
487,270,17581,5,2,1:2:0:0:
458,158,18208,1,10,0:0:0:0:
346,186,18836,2,0,B|305:187|305:187|268:203|229:187,1,115,0|10,0:0|0:0,0:0:0:0:
177,172,19778,1,0,0:0:0:0:
138,129,20091,6,0,L|155:258,1,115,0|10,1:2|0:0,0:0:0:0:
256,293,21347,1,0,0:0:0:0:
362,248,21974,1,10,0:0:0:0:
475,263,22602,6,0,B|478:219|457:185|457:185|456:133,2,115,0|10|0,1:2|0:0|0:0,0:0:0:0:
511,372,24485,1,10,0:0:0:0:
256,192,25112,12,2,26995,0:0:0:0:
310,338,27623,6,0,P|251:356|200:338,1,115,0|8,1:2|0:0,0:0:0:0:
123,256,28878,2,0,L|135:139,1,115,0|8,0:2|0:0,0:0:0:0:
118,86,29819,1,0,0:0:0:0:
95,32,30134,6,0,P|147:53|207:48,1,115,2|0,0:0|0:0,0:0:0:0:
317,24,31371,1,2,0:0:0:0:
430,44,31989,2,0,L|497:44,1,57.5,0|0,0:0|0:0,0:0:0:0:
256,192,32608,12,4,35154,1:2:0:0:
45,280,35781,6,0,P|89:318|147:323,1,115,8|0,0:0|0:0,0:0:0:0:
255,295,37036,1,8,0:0:0:0:
365,261,37664,6,0,B|408:261|408:261|443:277|480:262,1,115,0|8,1:2|0:0,0:0:0:0:
506,151,38919,1,0,0:0:0:0:
492,95,39233,1,0,0:0:0:0:
479,38,39547,1,8,0:0:0:0:
367,63,40174,6,0,B|340:69|310:58|310:58|277:46|249:51,1,115,0|8,1:2|0:0,0:0:0:0:
178,137,41430,2,0,B|180:169|196:192|196:192|182:210|176:244,1,115,0|8,0:0|0:0,0:0:0:0:
256,325,42685,6,0,B|299:326|299:326|338:342|374:325,1,115,2|10,1:2|0:0,0:0:0:0:
467,268,43940,1,2,0:0:0:0:
449,213,44254,1,0,1:2:0:0:
462,156,44568,1,10,0:0:0:0:
414,51,45195,5,0,1:2:0:0:
301,77,45823,1,10,0:0:0:0:
189,50,46451,2,0,B|148:51|148:51|110:68|71:49,1,115,0|10,0:0|0:0,0:0:0:0:
21,152,47706,5,0,1:2:0:0:
59,194,48020,1,0,0:0:0:0:
96,238,48333,1,10,0:0:0:0:
201,192,48961,2,0,B|231:188|256:178|256:178|281:187|314:191,1,115,0|10,0:0|0:0,0:0:0:0:
416,238,50216,5,0,1:2:0:0:
491,153,50844,1,10,0:0:0:0:
446,46,51471,2,0,B|416:38|389:46|389:46|361:54|330:45,1,115,0|10,0:0|0:0,0:0:0:0:
256,132,52727,6,0,B|224:132|224:132|175:121|175:121|143:121,2,115,2|10|0,1:2|0:0|0:0,0:0:0:0:
310,150,54296,1,0,0:0:0:0:
364,132,54610,1,10,0:0:0:0:
464,187,55237,6,0,P|498:234|490:294,1,115,4|10,1:2|0:0,0:0:0:0:
417,374,56492,1,2,0:0:0:0:
305,351,57120,1,10,0:0:0:0:
192,373,57748,5,4,1:2:0:0:
103,299,58375,2,0,L|-1:299,2,86.25,10|10|0,0:0|0:0|1:2,0:0:0:0:
138,252,59630,1,8,0:0:0:0:
200,155,60258,6,0,B|234:155|257:163|257:163|287:154|314:155,1,115,0|10,1:2|0:0,0:0:0:0:
374,252,61513,1,0,0:0:0:0:
328,357,62141,1,10,0:0:0:0:
218,322,62769,6,0,P|159:317|109:339,1,115,4|10,1:2|0:0,0:0:0:0:
33,252,64024,1,0,0:0:0:0:
58,140,64651,1,8,0:0:0:0:
167,174,65279,6,0,B|209:175|209:175|244:157|286:160,1,115,0|10,1:2|0:0,0:0:0:0:
387,199,66534,2,0,P|448:206|497:175,1,115,0|10,0:0|0:0,0:0:0:0:
476,66,67789,5,0,1:2:0:0:
363,88,68417,1,10,0:0:0:0:
250,64,69045,2,0,B|219:60|192:70|192:70|166:79|134:75,1,115,2|8,0:0|0:0,0:0:0:0:
67,167,70300,5,0,1:2:0:0:
172,213,70928,1,10,0:0:0:0:
200,324,71555,2,0,B|230:322|257:314|257:314|282:322|314:325,1,115,0|10,0:0|0:0,0:0:0:0:
340,213,72810,5,0,1:2:0:0:
448,174,73438,1,10,0:0:0:0:
507,272,74066,1,2,0:0:0:0:
446,369,74693,1,8,0:0:0:0:
339,325,75321,6,0,B|297:340|251:321|251:321|202:302|153:325,2,172.5,4|2|8,1:2|0:0|0:0,0:0:0:0:
312,212,77831,6,0,B|299:155|299:155|329:97|329:97|316:41,2,172.5,0|2|8,1:2|0:0|0:0,0:0:0:0:
392,295,80342,6,0,B|443:331|493:297|493:297|507:233,2,172.5,0|2|8,1:2|0:0|0:0,0:0:0:0:
286,340,82852,5,0,1:2:0:0:
176,380,83480,1,8,0:0:0:0:
72,340,84107,2,0,L|-15:340,2,86.25,0|2|2,0:0|0:0|0:0,0:0:0:0:
119,307,85363,6,0,P|139:257|113:201,2,115,4|10|0,1:2|0:0|0:0,0:0:0:0:
207,376,87246,1,10,0:0:0:0:
314,341,87873,6,0,B|339:335|371:346|371:346|404:359|438:352,2,115,4|10|0,1:2|0:0|0:0,0:0:0:0:
278,231,89756,1,10,0:0:0:0:
170,190,90384,6,0,B|173:147|150:115|150:115|150:66,2,115,0|10|0,1:2|0:0|0:0,0:0:0:0:
95,277,92266,1,10,0:0:0:0:
168,365,92894,6,0,P|223:378|276:357,1,115,4|10,1:2|0:0,0:0:0:0:
381,312,94149,2,0,B|423:312|423:312|459:328|495:308,1,115,0|10,0:0|0:0,0:0:0:0:
512,252,95091,1,2,0:0:0:0:
496,196,95405,5,4,1:2:0:0:
510,83,96032,1,10,0:0:0:0:
402,123,96660,2,0,P|317:138|233:97,1,172.5,2|2,0:0|0:0,0:0:0:0:
199,63,97915,5,4,1:2:0:0:
204,184,98543,1,10,0:0:0:0:
212,301,99170,2,0,B|267:300|267:300|309:350|377:337,1,172.5,2|2,0:0|0:0,0:0:0:0:
428,327,100425,5,0,1:2:0:0:
351,240,101053,1,10,0:0:0:0:
240,273,101681,2,0,B|198:282|156:259|156:259|113:234|74:241,1,172.5,2|2,0:0|0:0,0:0:0:0:
256,192,102936,12,2,104191,0:0:0:0:
198,306,104819,5,8,0:0:0:0:
311,286,105446,5,6,0:0:0:0:
