osu file format v13

[General]
AudioFilename: 06 Wings of piano.mp3
AudioLeadIn: 0
PreviewTime: 82863
Countdown: 0
SampleSet: Soft
StackLeniency: 0.7
Mode: 0
LetterboxInBreaks: 1
CountdownOffset: 2
WidescreenStoryboard: 1

[Editor]
DistanceSpacing: 0.8
BeatDivisor: 8
GridSize: 8
TimelineZoom: 1

[Metadata]
Title:Wings of piano
TitleUnicode:Wings of piano
Artist:V.K
ArtistUnicode:V.K
Creator:Chie Satonaka
Version:Hard
Source:Deemo
Tags:Deemo V.K
BeatmapID:393819
BeatmapSetID:161334

[Difficulty]
HPDrainRate:7
CircleSize:4
OverallDifficulty:7
ApproachRate:8
SliderMultiplier:1.3
SliderTickRate:1

[Events]
//Background and Video events
0,0,"maxresdefault.jpg",0,0
//Break Periods
//Storyboard Layer 0 (Background)
//Storyboard Layer 1 (Fail)
//Storyboard Layer 2 (Pass)
//Storyboard Layer 3 (Foreground)
//Storyboard Sound Samples
//Background Colour Transformations
3,100,163,162,255

[TimingPoints]
6,714.285714285714,4,2,0,77,1,0
33577,-66.6666666666667,4,2,0,64,0,0
33677,-55.5555555555556,4,2,0,64,0,0
34291,-66.6666666666667,4,2,0,64,0,1
40101,-66.6666666666667,4,2,0,64,0,0
74291,-55.5555555555556,4,2,0,64,0,0
77148,-66.6666666666667,4,2,0,64,0,0
82863,-55.5555555555556,4,2,0,64,0,1
94291,-55.5555555555556,4,2,0,64,0,0
105722,699.708454810496,4,2,0,77,1,0
105822,-55.5555555555556,4,2,0,77,0,0
111355,702.576112412178,4,2,0,77,1,0
111355,-55.5555555555556,4,2,0,77,0,0
127528,740.740740740741,4,2,0,77,1,0
127602,-55.5555555555556,4,2,0,77,0,0

[Colours]
Combo1 : 0,128,192
Combo2 : 192,192,192
Combo3 : 0,0,0

[HitObjects]
144,144,6,5,2,0:0:0:0:
261,153,363,2,0,L|323:108,2,65
248,228,1434,5,2,0:0:0:0:
361,251,1791,2,0,B|430:217|430:217|407:168,1,130
302,140,2863,5,2,0:0:0:0:
161,103,3220,2,0,B|232:78|232:78|290:78,1,130
232,226,4291,1,2,0:0:0:0:
356,236,4648,1,0,0:0:0:0:
421,153,5005,1,0,0:0:0:0:
367,61,5720,6,0,L|290:60,1,65,0|2,0:0|0:0,0:0:0:0:
237,78,6434,1,0,0:0:0:0:
286,125,6791,1,0,0:0:0:0:
342,167,7148,1,2,0:0:0:0:
401,226,7505,2,0,L|333:242,1,65
326,241,8220,2,0,L|252:215,1,65,0|2,0:0|0:0,0:0:0:0:
139,84,9291,5,2,0:0:0:0:
254,177,10006,5,2,0:0:0:0:
379,104,10720,5,2,0:0:0:0:
366,240,11434,5,2,0:0:0:0:
247,260,11791,2,0,L|181:218,2,65,0|8|0,0:0|0:0|0:0,0:0:0:0:
315,270,12863,1,8,0:0:0:0:
161,179,13220,2,0,B|203:133|203:133|215:140,2,65,0|8|0,0:0|0:0|0:0,0:0:0:0:
313,142,14291,5,2,0:0:0:0:
406,166,14648,2,0,L|457:216,1,65,0|8,0:0|0:0,0:0:0:0:
362,244,15363,1,0,0:0:0:0:
266,205,15720,2,0,L|201:175,2,65,2|0|2,0:0|0:0|0:0,0:0:0:0:
313,146,16791,5,0,0:0:0:0:
152,91,17148,2,0,L|217:131,1,65,0|8,0:0|0:0,0:0:0:0:
203,123,17863,2,0,L|255:82,1,65,0|8,0:0|0:0,0:0:0:0:
341,102,18577,5,0,0:0:0:0:
355,196,18934,1,2,0:0:0:0:
264,242,19291,2,0,B|196:246|196:246|150:200,1,130,0|2,0:0|0:0,0:0:0:0:
165,111,20363,6,0,B|236:107|236:107|279:160,1,130
273,117,21434,1,0,0:0:0:0:
345,157,21791,1,2,0:0:0:0:
404,215,22148,1,0,0:0:0:0:
320,251,22505,5,0,0:0:0:0:
254,260,22863,2,0,B|227:229|236:230|234:230|237:230|237:230|205:212|169:159|169:158,1,130,0|2,0:0|0:0,0:0:0:0:
216,124,23934,1,0,0:0:0:0:
288,103,24291,1,0,0:0:0:0:
356,140,24648,1,0,0:0:0:0:
399,206,25005,2,0,L|328:209,1,65,0|8,0:0|0:0,0:0:0:0:
261,230,25720,2,0,B|217:205|217:205|228:189|228:189|200:195|166:171,1,130,0|2,0:0|0:0,0:0:0:0:
188,128,26791,5,0,0:0:0:0:
263,78,27148,1,2,0:0:0:0:
328,138,27505,1,0,0:0:0:0:
259,209,27863,1,2,0:0:0:0:
180,217,28220,2,0,L|123:186,3,65,0|2|0|2,0:0|0:0|0:0|0:0,0:0:0:0:
148,123,29648,5,0,0:0:0:0:
239,84,30005,1,2,0:0:0:0:
326,127,30363,1,0,0:0:0:0:
238,194,30720,1,0,0:0:0:0:
256,192,31077,12,0,33220,0:0:0:0:
303,111,33577,6,0,L|343:77,3,48.750001859665
238,142,34291,1,2,0:0:0:0:
184,124,34470,2,0,L|127:115,1,48.750001859665,0|2,0:0|0:0,0:0:0:0:
135,116,34827,2,0,P|58:147|54:164,1,97.50000371933
56,150,35363,2,0,L|86:208,1,48.750001859665
83,193,35720,2,0,L|132:166,3,48.750001859665,0|2|0|2,0:0|0:0|0:0|0:0,0:0:0:0:
76,195,36434,2,0,L|7:186,1,48.750001859665
0,124,36791,5,0,0:0:0:0:
134,96,36970,2,0,L|88:133,1,48.750001859665
114,190,37327,2,0,L|207:158,2,97.50000371933,2|2|2,0:0|0:0|0:0,0:0:0:0:
151,266,38220,1,0,0:0:0:0:
230,246,38398,2,0,B|317:237|317:237|308:214,1,97.50000371933,0|2,0:0|0:0,0:0:0:0:
301,152,38934,6,0,L|249:126,1,48.750001859665,0|2,0:0|0:0,0:0:0:0:
194,104,39291,2,0,L|137:113,1,48.750001859665,0|2,0:0|0:0,0:0:0:0:
86,122,39648,2,0,L|23:97,1,48.750001859665
40,104,40005,1,8,0:0:0:0:
143,217,40363,5,2,0:0:0:0:
179,205,40541,2,2,B|226:188|226:188|226:189,2,48.750001859665
148,144,41077,1,0,0:0:0:0:
206,111,41255,2,0,L|261:77,2,48.750001859665
263,162,41791,1,2,0:0:0:0:
377,197,41970,2,0,B|396:134|396:134|452:97,2,121.875004649162,0|0|4,0:0|0:0|0:0,0:0:0:0:
323,241,43041,2,0,L|259:219,1,48.750001859665
276,225,43398,2,0,L|254:168,1,48.750001859665
258,179,43755,2,0,L|232:132,1,48.750001859665
101,51,44470,5,4,0:0:0:0:
184,56,44648,1,4,0:0:0:0:
186,144,44827,2,0,L|87:145,1,97.50000371933,4|0,0:0|0:0,0:0:0:0:
102,211,45363,1,4,0:0:0:0:
162,282,45541,1,4,0:0:0:0:
280,266,45720,6,0,L|293:211,1,48.750001859665,0|2,0:0|0:0,0:0:0:0:
292,220,46077,2,0,L|352:216,1,48.750001859665,0|2,0:0|0:0,0:0:0:0:
341,219,46434,2,0,L|440:276,1,97.50000371933
424,267,46970,1,2,0:0:0:0:
443,194,47148,2,0,B|463:146|463:146|411:111,1,97.50000371933
339,157,47863,5,0,0:0:0:0:
264,224,48220,2,0,B|222:187|222:187|264:148,1,97.50000371933,0|2,0:0|0:0,0:0:0:0:
277,91,48755,2,0,L|225:109,3,48.750001859665,0|0|0|2,0:0|0:0|0:0|0:0,0:0:0:0:
188,93,49648,6,0,L|148:126,1,48.750001859665,0|2,0:0|0:0,0:0:0:0:
83,133,50005,2,0,L|115:169,3,48.750001859665
190,96,50720,1,0,0:0:0:0:
232,135,50898,1,2,0:0:0:0:
274,164,51077,1,0,0:0:0:0:
314,210,51255,1,2,0:0:0:0:
199,234,51613,6,0,L|146:208,1,48.750001859665
155,212,51970,2,0,L|201:167,1,48.750001859665,0|8,0:0|0:0,0:0:0:0:
178,69,52505,2,0,P|234:85|239:82,1,48.750001859665,0|2,0:0|0:0,0:0:0:0:
216,137,53220,2,0,L|323:126,2,97.50000371933
305,99,54113,2,0,L|256:145,1,48.750001859665,0|2,0:0|0:0,0:0:0:0:
299,172,54470,2,0,L|352:200,1,48.750001859665,0|2,0:0|0:0,0:0:0:0:
342,194,54827,1,0,0:0:0:0:
242,223,55005,1,0,0:0:0:0:
147,168,55363,6,0,L|86:146,1,48.750001859665,0|2,0:0|0:0,0:0:0:0:
101,85,55898,2,0,L|161:74,2,48.750001859665,0|8|0,0:0|0:0|0:0,0:0:0:0:
101,85,56434,2,0,L|45:102,2,48.750001859665,0|8|0,0:0|0:0|0:0,0:0:0:0:
126,164,57148,1,6,0:0:0:0:
349,110,57505,5,2,0:0:0:0:
394,157,57684,1,0,0:0:0:0:
424,202,57863,1,8,0:0:0:0:
339,235,58220,5,0,0:0:0:0:
0,241,58577,1,4,0:0:0:0:
97,162,58934,5,0,0:0:0:0:
218,97,59291,1,0,0:0:0:0:
308,128,59648,5,0,0:0:0:0:
346,167,59827,1,0,0:0:0:0:
387,206,60005,1,8,0:0:0:0:
335,238,60363,6,0,L|228:224,1,97.50000371933,0|2,0:0|0:0,0:0:0:0:
144,169,61077,2,0,L|239:116,1,97.50000371933,0|2,0:0|0:0,0:0:0:0:
324,154,61791,1,0,0:0:0:0:
408,204,62148,1,10,0:0:0:0:
467,91,62863,5,2,0:0:0:0:
400,120,63041,1,0,0:0:0:0:
278,131,63398,5,0,0:0:0:0:
212,84,63577,1,2,0:0:0:0:
97,91,63934,5,0,0:0:0:0:
44,144,64113,1,2,0:0:0:0:
101,235,64470,5,0,0:0:0:0:
160,272,64648,1,2,0:0:0:0:
300,255,65005,6,0,L|343:215,1,48.750001859665
243,98,65541,6,0,L|303:112,1,48.750001859665
349,134,66077,2,0,L|385:180,1,48.750001859665
376,232,66613,1,0,0:0:0:0:
221,233,66970,1,2,0:0:0:0:
221,233,67148,1,2,0:0:0:0:
209,93,67505,6,0,L|302:137,3,97.50000371933,4|0|4|0,0:0|0:0|0:0|0:0,0:0:0:0:
163,203,68934,1,0,0:0:0:0:
259,210,69291,2,0,P|345:204|380:96,1,195.00000743866,2|2,0:0|0:0,0:0:0:0:
234,122,70363,1,0,0:0:0:0:
234,122,70720,1,8,0:0:0:0:
127,188,71434,5,2,0:0:0:0:
97,156,71613,1,8,0:0:0:0:
79,129,71791,2,0,L|137:39,1,97.50000371933
263,152,72505,1,0,0:0:0:0:
371,129,72863,1,2,0:0:0:0:
410,223,73220,1,0,0:0:0:0:
306,251,73577,1,2,0:0:0:0:
238,149,74291,6,0,L|275:128,4,29.2499991073609
161,148,74738,2,0,L|118:129,6,29.2499991073609
203,194,75363,2,0,L|207:229,7,29.2499991073609
152,204,76077,2,0,L|113:225,7,29.2499991073609
171,92,77148,1,2,0:0:0:0:
171,92,77505,1,0,0:0:0:0:
171,92,77684,1,2,0:0:0:0:
279,100,78934,5,2,0:0:0:0:
337,140,79291,1,0,0:0:0:0:
389,193,79648,1,2,0:0:0:0:
343,244,80005,1,0,0:0:0:0:
274,256,80720,1,8,0:0:0:0:
166,191,81434,1,6,0:0:0:0:
256,192,81791,12,0,82595,0:0:0:0:
166,191,82863,5,0,0:0:0:0:
169,110,83041,1,8,0:0:0:0:
251,106,83220,1,0,0:0:0:0:
252,187,83398,1,8,0:0:0:0:
339,105,83755,1,0,0:0:0:0:
385,151,83934,1,0,0:0:0:0:
426,189,84113,1,8,0:0:0:0:
394,253,84470,2,0,L|316:258,2,58.4999982147217,8|0|8,0:0|0:0|0:0,0:0:0:0:
234,220,85184,2,0,L|165:172,2,58.4999982147217
125,128,85720,1,8,0:0:0:0:
214,113,85898,1,0,0:0:0:0:
323,146,86077,6,0,L|330:273,1,116.999996429443,2|0,0:0|0:0,0:0:0:0:
269,227,86791,1,0,0:0:0:0:
296,192,86970,2,0,L|338:137,1,58.4999982147217
186,208,87505,6,2,L|154:222,5,29.2499991073609
170,74,88220,2,8,L|296:31,1,116.999996429443
281,153,88755,1,0,0:0:0:0:
281,153,88934,1,8,0:0:0:0:
281,153,89113,1,0,0:0:0:0:
386,191,89470,6,0,L|336:222,1,58.4999982147217,0|0,0:0|0:0,0:0:0:0:
336,221,89827,2,0,L|266:191,1,58.4999982147217,0|4,0:0|0:0,0:0:0:0:
190,83,90363,1,0,0:0:0:0:
34,219,90720,1,0,0:0:0:0:
204,326,91077,1,4,0:0:0:0:
346,198,91434,5,4,0:0:0:0:
298,142,91791,2,0,L|168:102,1,116.999996429443,0|4,0:0|0:0,0:0:0:0:
167,87,92505,2,0,L|53:155,1,116.999996429443,0|4,0:0|0:0,0:0:0:0:
188,194,93577,1,4,0:0:0:0:
256,111,94291,5,0,0:0:0:0:
297,140,94648,2,0,L|418:201,2,116.999996429443,8|0|8,0:0|0:0|0:0,0:0:0:0:
179,98,95720,5,0,0:0:0:0:
115,115,96077,2,0,B|44:89|44:89|25:130,2,116.999996429443,2|0|2,0:0|0:0|0:0,0:0:0:0:
258,133,97148,5,4,0:0:0:0:
276,211,97505,2,0,L|278:347,2,116.999996429443,4|0|4,0:0|0:0|0:0,0:0:0:0:
322,112,98577,1,0,0:0:0:0:
229,90,98934,1,0,0:0:0:0:
127,122,99291,1,0,0:0:0:0:
146,201,99648,1,0,0:0:0:0:
213,231,100005,1,0,0:0:0:0:
41,184,100363,6,4,P|208:310|411:164,1,467.999985717774
315,169,102148,2,0,L|194:122,2,116.999996429443
135,180,103220,2,2,L|200:198,1,58.4999982147217
270,238,103755,2,2,L|339:242,1,58.4999982147217
222,151,105005,5,4,0:0:0:0:
346,95,105720,5,2,0:0:0:0:
416,144,106071,2,0,L|464:208,2,65
346,95,106771,1,0,0:0:0:0:
72,148,107121,5,2,0:0:0:0:
112,206,107471,2,0,L|226:278,2,116.999996429443,2|0|4,0:0|0:0|0:0,0:0:0:0:
249,92,108520,5,0,0:0:0:0:
276,164,108870,2,2,L|353:262,2,116.999996429443,0|0|0,0:0|0:0|0:0,0:0:0:0:
163,146,109920,1,0,0:0:0:0:
199,257,110270,2,0,L|239:264,3,29.2499991073609
215,190,110809,1,0,0:0:0:0:
215,190,110988,1,0,0:0:0:0:
292,175,111166,1,8,0:0:0:0:
361,157,111319,1,2,0:0:0:0:
96,192,111706,2,0,L|168:80,1,116.999996429443
264,120,112408,5,0,0:0:0:0:
248,192,112760,2,0,L|360:160,1,116.999996429443
336,232,113462,1,0,0:0:0:0:
30,146,113814,1,0,0:0:0:0:
72,96,113989,1,0,0:0:0:0:
136,80,114165,1,2,0:0:0:0:
200,80,114340,1,0,0:0:0:0:
256,112,114516,1,8,0:0:0:0:
224,168,114867,6,0,L|112:200,2,116.999996429443,0|8|0,0:0|0:0|0:0,0:0:0:0:
256,80,116077,1,0,0:0:0:0:
256,80,116255,1,8,0:0:0:0:
205,141,116613,5,0,0:0:0:0:
264,168,116791,1,0,0:0:0:0:
309,205,116970,1,0,0:0:0:0:
344,170,117148,1,0,0:0:0:0:
306,125,117327,1,0,0:0:0:0:
264,94,117505,1,2,0:0:0:0:
218,64,117684,1,0,0:0:0:0:
264,240,118029,6,0,B|328:224|328:224|360:176,1,116.999996429443,0|2,0:0|0:0,0:0:0:0:
376,136,118577,1,0,0:0:0:0:
304,144,118755,1,0,0:0:0:0:
200,152,118934,2,0,L|239:93,2,58.4999982147217
144,96,119434,2,0,L|80:208,1,116.999996429443,0|2,0:0|0:0,0:0:0:0:
143,214,120137,2,0,L|262:202,1,116.999996429443
154,59,120839,2,0,P|257:71|283:95,1,116.999996429443,0|4,0:0|0:0,0:0:0:0:
104,160,121542,5,0,0:0:0:0:
216,164,121893,1,0,0:0:0:0:
268,147,122069,1,0,0:0:0:0:
314,122,122244,1,0,0:0:0:0:
179,67,122596,1,4,0:0:0:0:
444,67,122947,1,4,0:0:0:0:
329,220,123298,1,0,0:0:0:0:
137,202,123650,1,0,0:0:0:0:
63,149,124177,5,4,0:0:0:0:
63,149,124352,1,4,0:0:0:0:
166,118,124703,2,0,L|290:137,1,116.999996429443
303,194,125406,2,0,L|177:195,1,116.999996429443,0|2,0:0|0:0,0:0:0:0:
137,197,126109,2,0,L|132:55,1,116.999996429443,0|2,0:0|0:0,0:0:0:0:
170,140,127514,1,2,0:0:0:0:
269,162,128268,1,2,0:0:0:0:
401,211,129009,1,2,0:0:0:0:
367,102,129379,1,8,0:0:0:0:
265,76,130120,2,2,L|226:86,4,29.2499991073609
256,192,130861,12,0,131972,0:0:0:0:
121,163,132250,5,0,0:0:0:0:
248,108,132620,1,0,0:0:0:0:
366,175,132990,1,0,0:0:0:0:
387,89,133837,1,4,0:0:0:0:
256,192,135945,12,0,136647,0:0:0:0:
148,87,137157,5,0,0:0:0:0:
285,142,137528,1,0,0:0:0:0:
187,177,137898,2,2,L|63:235,2,116.999996429443
77,152,138916,1,0,0:0:0:0:
201,86,139379,1,0,0:0:0:0:
312,149,139657,1,8,0:0:0:0:
245,184,140120,6,2,B|310:224|310:224|355:197,2,116.999996429443
325,104,141139,1,0,0:0:0:0:
199,126,141416,2,0,B|127:155|127:155|103:138,1,87.7499973220826,0|2,0:0|0:0,0:0:0:0:
99,73,141972,1,0,0:0:0:0:
228,155,142898,5,2,0:0:0:0:
344,91,143453,1,0,0:0:0:0:
268,75,143731,2,2,L|186:92,3,58.4999982147217
168,119,144750,5,4,0:0:0:0:
224,193,145305,5,4,0:0:0:0:
368,171,146046,5,4,0:0:0:0:
