osu file format v13

[General]
AudioFilename: V.K - Wings of Piano.mp3
AudioLeadIn: 0
PreviewTime: -1
Countdown: 0
SampleSet: Soft
StackLeniency: 0.7
Mode: 3
LetterboxInBreaks: 1
SpecialStyle: 0
WidescreenStoryboard: 1

[Editor]
Bookmarks: 5382
DistanceSpacing: 0.8
BeatDivisor: 4
GridSize: 16
TimelineZoom: 1

[Metadata]
Title:Wings of Piano
TitleUnicode:Wings of Piano
Artist:V.K
ArtistUnicode:V.K
Creator:cjj490168650
Version:Warm up
Source:Deemo
Tags:Deemo
BeatmapID:475396
BeatmapSetID:200616

[Difficulty]
HPDrainRate:4
CircleSize:4
OverallDifficulty:5
ApproachRate:5
SliderMultiplier:1.4
SliderTickRate:1

[Events]
//Background and Video events
0,0,"61a8253b5bb5c9eaf286c2ebd739b6003af3b371.jpg",0,0
//Break Periods
2,30184,32355
2,126719,135731
//Storyboard Layer 0 (Background)
//Storyboard Layer 1 (Fail)
//Storyboard Layer 2 (Pass)
//Storyboard Layer 3 (Foreground)
//Storyboard Sound Samples
//Background Colour Transformations
3,100,163,162,255

[TimingPoints]
9269.99025444404,714.285714285714,4,2,0,25,1,0
105696.32312162,705.882352941176,4,2,0,25,1,0
133931,352.941176470588,4,2,0,25,1,0

[HitObjects]
32,192,9269,5,0,0:0:0:0:
352,192,9984,1,0,0:0:0:0:
416,192,10698,1,0,0:0:0:0:
480,192,11412,128,0,12127:0:0:0:0:
320,192,12662,1,0,0:0:0:0:
32,192,14269,128,0,14984:0:0:0:0:
320,192,15519,1,0,0:0:0:0:
352,192,17127,1,0,0:0:0:0:
192,192,18555,1,0,0:0:0:0:
288,192,19984,1,0,0:0:0:0:
96,192,21412,128,0,22127:0:0:0:0:
96,192,22841,1,0,0:0:0:0:
288,192,23377,128,0,24269:0:0:0:0:
160,192,25698,1,0,0:0:0:0:
448,192,26234,128,0,27127:0:0:0:0:
288,192,28555,1,0,0:0:0:0:
480,192,29091,128,0,29984:0:0:0:0:
192,192,33555,132,0,33912:0:0:0:0:
320,192,34269,128,0,36769:0:0:0:0:
192,192,37127,128,0,39805:0:0:0:0:
64,192,39984,128,0,42305:0:0:0:0:
480,192,42841,128,0,43734:0:0:0:0:
192,192,44448,128,0,45519:0:0:0:0:
192,192,45877,128,0,48377:0:0:0:0:
320,192,48734,128,0,51234:0:0:0:0:
192,192,51591,1,0,0:0:0:0:
192,192,51948,128,0,52662:0:0:0:0:
448,192,53198,128,0,54091:0:0:0:0:
192,192,54448,1,0,0:0:0:0:
320,192,54805,128,0,55519:0:0:0:0:
192,192,55877,128,0,56769:0:0:0:0:
64,192,57127,128,0,58198:0:0:0:0:
416,192,58555,128,0,59269:0:0:0:0:
320,192,59984,128,0,61055:0:0:0:0:
448,192,61412,128,0,61769:0:0:0:0:
64,192,62127,1,0,0:0:0:0:
448,192,62841,1,0,0:0:0:0:
192,192,63377,1,0,0:0:0:0:
64,192,63912,1,0,0:0:0:0:
320,192,64448,1,0,0:0:0:0:
64,192,64984,1,0,0:0:0:0:
32,192,65519,1,0,0:0:0:0:
32,192,66055,1,0,0:0:0:0:
448,192,66591,1,0,0:0:0:0:
448,192,67305,128,0,68555:0:0:0:0:
192,192,69091,128,0,69627:0:0:0:0:
352,192,69984,128,0,70698:0:0:0:0:
32,192,71412,1,0,0:0:0:0:
192,192,71948,1,0,0:0:0:0:
352,192,72484,1,0,0:0:0:0:
480,192,72841,128,0,73555:0:0:0:0:
448,192,74269,128,0,77127:0:0:0:0:
96,192,78912,1,0,0:0:0:0:
192,192,79269,1,0,0:0:0:0:
480,192,79627,1,0,0:0:0:0:
64,192,79984,128,0,81412:0:0:0:0:
32,192,82841,128,0,86948:0:0:0:0:
192,192,87127,128,0,87484:0:0:0:0:
192,192,87841,128,0,88377:0:0:0:0:
448,192,88555,128,0,94269:0:0:0:0:
64,192,94627,128,0,94984:0:0:0:0:
448,192,95341,1,0,0:0:0:0:
192,192,96055,128,0,96412:0:0:0:0:
288,192,96769,1,0,0:0:0:0:
320,192,98019,128,0,99805:0:0:0:0:
320,192,100341,128,0,101055:0:0:0:0:
192,192,101769,1,0,0:0:0:0:
192,192,102305,128,0,102662:0:0:0:0:
320,192,103198,1,0,0:0:0:0:
320,192,103734,1,0,0:0:0:0:
96,192,104984,1,0,0:0:0:0:
320,192,105696,1,0,0:0:0:0:
320,192,106049,128,0,106402:0:0:0:0:
480,192,106755,1,0,0:0:0:0:
320,192,107108,1,0,0:0:0:0:
192,192,107461,128,0,107813:0:0:0:0:
96,192,108166,1,0,0:0:0:0:
192,192,108519,1,0,0:0:0:0:
192,192,108872,128,0,109225:0:0:0:0:
64,192,109402,128,0,109931:0:0:0:0:
448,192,110284,128,0,111343:0:0:0:0:
64,192,111696,128,0,112049:0:0:0:0:
448,192,112402,1,0,0:0:0:0:
192,192,112755,1,0,0:0:0:0:
192,192,113108,128,0,113461:0:0:0:0:
32,192,113813,1,0,0:0:0:0:
64,192,114166,128,0,115049:0:0:0:0:
160,192,115225,128,0,115578:0:0:0:0:
192,192,116284,128,0,116813:0:0:0:0:
320,192,116990,1,0,0:0:0:0:
320,192,117343,128,0,117696:0:0:0:0:
448,192,118049,1,0,0:0:0:0:
320,192,118402,1,0,0:0:0:0:
320,192,118755,128,0,119108:0:0:0:0:
192,192,119461,1,0,0:0:0:0:
192,192,119813,1,0,0:0:0:0:
192,192,120166,128,0,120519:0:0:0:0:
448,192,120696,128,0,121049:0:0:0:0:
448,192,121225,128,0,121931:0:0:0:0:
320,192,122108,1,0,0:0:0:0:
320,192,122637,1,0,0:0:0:0:
352,192,122990,128,0,123519:0:0:0:0:
224,192,123696,128,0,124225:0:0:0:0:
320,192,125461,128,0,126519:0:0:0:0:
352,192,136931,5,0,0:0:0:0:
480,192,138254,1,0,0:0:0:0:
320,192,139313,1,0,0:0:0:0:
416,192,140636,1,0,0:0:0:0:
352,192,141166,1,0,0:0:0:0:
288,192,142048,1,0,0:0:0:0:
192,192,143019,128,0,144078:0:0:0:0:
288,192,144828,1,0,0:0:0:0:
416,192,145401,1,0,0:0:0:0:
64,192,146195,1,0,0:0:0:0:
448,192,146195,1,0,0:0:0:0:
