osu file format v14

[General]
AudioFilename: 2-17 Hua Sui Yue.mp3
AudioLeadIn: 0
PreviewTime: 58410
Countdown: 0
SampleSet: Soft
StackLeniency: 0.7
Mode: 3
LetterboxInBreaks: 0
SpecialStyle: 0
WidescreenStoryboard: 0

[Editor]
Bookmarks: 14525,61248
DistanceSpacing: 0.6
BeatDivisor: 12
GridSize: 4
TimelineZoom: 3.099998

[Metadata]
Title:Hua Sui Yue
TitleUnicode:Hua Sui Yue
Artist:V.K
ArtistUnicode:V.K
Creator:SanadaYukimura
Version:Hard LV7
Source:Deemo
Tags:花水月 Flower water and the moon Love ‧ Infinity Piano 克 Vanros Kloud Rayark Games Collection 3
BeatmapID:683455
BeatmapSetID:305137

[Difficulty]
HPDrainRate:7
CircleSize:4
OverallDifficulty:8
ApproachRate:5
SliderMultiplier:1.4
SliderTickRate:1

[Events]
//Background and Video events
0,0,"5f75d41fbe096b63216898340e338744ebf8ac11.jpg",0,0
//Break Periods
//Storyboard Layer 0 (Background)
//Storyboard Layer 1 (Fail)
//Storyboard Layer 2 (Pass)
//Storyboard Layer 3 (Foreground)
//Storyboard Sound Samples

[TimingPoints]
32,405.405405405405,4,2,0,20,1,0
58410,-100,4,2,0,20,0,1
84356,-100,4,2,0,20,0,0
111923,-100,4,2,0,20,0,1
123275,-100,4,2,0,20,0,0

[HitObjects]
448,192,32,5,0,0:0:0:0:
64,192,437,1,0,0:0:0:0:
320,192,842,1,0,0:0:0:0:
192,192,842,1,0,0:0:0:0:
448,192,1653,1,0,0:0:0:0:
64,192,2059,1,0,0:0:0:0:
448,192,2464,1,0,0:0:0:0:
320,192,2464,1,0,0:0:0:0:
448,192,3275,1,0,0:0:0:0:
64,192,3275,1,0,0:0:0:0:
192,192,3680,1,0,0:0:0:0:
64,192,4086,1,0,0:0:0:0:
448,192,4086,1,0,0:0:0:0:
192,192,4491,1,0,0:0:0:0:
320,192,4491,1,0,0:0:0:0:
448,192,4896,1,0,0:0:0:0:
192,192,5302,128,0,5707:0:0:0:0:
320,192,5302,1,0,0:0:0:0:
320,192,5707,128,0,6113:0:0:0:0:
448,192,5707,1,0,0:0:0:0:
64,192,5910,1,0,0:0:0:0:
448,192,6113,128,0,6518:0:0:0:0:
192,192,6113,1,0,0:0:0:0:
192,192,6518,128,0,7937:0:0:0:0:
320,192,6518,1,0,0:0:0:0:
64,192,6923,1,0,0:0:0:0:
448,192,7329,1,0,0:0:0:0:
448,192,7937,1,0,0:0:0:0:
320,192,8004,1,0,0:0:0:0:
192,192,8072,1,0,0:0:0:0:
448,192,8140,128,0,8950:0:0:0:0:
64,192,8140,1,0,0:0:0:0:
192,192,8545,1,0,0:0:0:0:
320,192,8950,128,0,9559:0:0:0:0:
64,192,8950,1,0,0:0:0:0:
448,192,9559,1,0,0:0:0:0:
64,192,9559,128,0,12599:0:0:0:0:
192,192,9761,1,0,0:0:0:0:
448,192,10167,1,0,0:0:0:0:
320,192,10572,1,0,0:0:0:0:
192,192,11180,1,0,0:0:0:0:
320,192,11248,1,0,0:0:0:0:
448,192,11315,1,0,0:0:0:0:
192,192,11383,1,0,0:0:0:0:
448,192,11991,1,0,0:0:0:0:
320,192,12059,1,0,0:0:0:0:
192,192,12126,1,0,0:0:0:0:
448,192,12194,1,0,0:0:0:0:
192,192,12802,1,0,0:0:0:0:
320,192,12869,1,0,0:0:0:0:
448,192,12937,1,0,0:0:0:0:
64,192,13004,1,0,0:0:0:0:
192,192,13004,1,0,0:0:0:0:
320,192,13410,1,0,0:0:0:0:
64,192,13815,1,0,0:0:0:0:
448,192,14221,1,0,0:0:0:0:
320,192,14423,1,0,0:0:0:0:
192,192,14626,1,0,0:0:0:0:
64,192,14626,1,0,0:0:0:0:
320,192,15437,1,0,0:0:0:0:
192,192,15437,1,0,0:0:0:0:
64,192,16045,1,0,0:0:0:0:
192,192,16248,1,0,0:0:0:0:
448,192,16248,1,0,0:0:0:0:
320,192,16653,1,0,0:0:0:0:
192,192,16856,1,0,0:0:0:0:
64,192,17059,1,0,0:0:0:0:
192,192,17464,1,0,0:0:0:0:
448,192,17667,1,0,0:0:0:0:
320,192,17734,1,0,0:0:0:0:
64,192,17869,1,0,0:0:0:0:
192,192,17920,1,0,0:0:0:0:
320,192,18477,1,0,0:0:0:0:
192,192,18680,1,0,0:0:0:0:
64,192,19288,1,0,0:0:0:0:
448,192,19491,1,0,0:0:0:0:
192,192,19896,1,0,0:0:0:0:
320,192,20302,1,0,0:0:0:0:
448,192,20707,1,0,0:0:0:0:
64,192,20986,1,0,0:0:0:0:
192,192,21037,1,0,0:0:0:0:
320,192,21087,1,0,0:0:0:0:
448,192,21138,1,0,0:0:0:0:
448,192,21518,1,0,0:0:0:0:
192,192,21923,1,0,0:0:0:0:
448,192,22329,1,0,0:0:0:0:
64,192,22734,1,0,0:0:0:0:
320,192,22734,1,0,0:0:0:0:
192,192,23140,1,0,0:0:0:0:
448,192,23444,1,0,0:0:0:0:
320,192,23494,1,0,0:0:0:0:
192,192,23545,1,0,0:0:0:0:
64,192,23545,1,0,0:0:0:0:
64,192,23950,1,0,0:0:0:0:
192,192,24356,1,0,0:0:0:0:
320,192,24356,1,0,0:0:0:0:
448,192,24761,1,0,0:0:0:0:
64,192,25167,1,0,0:0:0:0:
320,192,25167,1,0,0:0:0:0:
192,192,25572,1,0,0:0:0:0:
448,192,25977,1,0,0:0:0:0:
320,192,25977,1,0,0:0:0:0:
64,192,26383,1,0,0:0:0:0:
192,192,26788,1,0,0:0:0:0:
320,192,27194,1,0,0:0:0:0:
64,192,27599,1,0,0:0:0:0:
448,192,27599,1,0,0:0:0:0:
192,192,27954,1,0,0:0:0:0:
320,192,28004,1,0,0:0:0:0:
448,192,28410,1,0,0:0:0:0:
64,192,28410,1,0,0:0:0:0:
192,192,28815,1,0,0:0:0:0:
320,192,29221,1,0,0:0:0:0:
448,192,29221,1,0,0:0:0:0:
64,192,29626,1,0,0:0:0:0:
192,192,29829,1,0,0:0:0:0:
320,192,30031,1,0,0:0:0:0:
448,192,30031,1,0,0:0:0:0:
192,192,30234,1,0,0:0:0:0:
448,192,30437,1,0,0:0:0:0:
64,192,30640,1,0,0:0:0:0:
192,192,30707,1,0,0:0:0:0:
320,192,30775,1,0,0:0:0:0:
448,192,30842,1,0,0:0:0:0:
320,192,31653,1,0,0:0:0:0:
192,192,32059,1,0,0:0:0:0:
448,192,32464,1,0,0:0:0:0:
320,192,32869,1,0,0:0:0:0:
192,192,33275,1,0,0:0:0:0:
64,192,33275,1,0,0:0:0:0:
448,192,33680,1,0,0:0:0:0:
64,192,33959,1,0,0:0:0:0:
192,192,34010,1,0,0:0:0:0:
320,192,34060,1,0,0:0:0:0:
448,192,34111,1,0,0:0:0:0:
448,192,34896,1,0,0:0:0:0:
64,192,35302,1,0,0:0:0:0:
192,192,35707,1,0,0:0:0:0:
320,192,35707,1,0,0:0:0:0:
448,192,36113,1,0,0:0:0:0:
64,192,36518,1,0,0:0:0:0:
320,192,36518,1,0,0:0:0:0:
192,192,36923,1,0,0:0:0:0:
320,192,37329,1,0,0:0:0:0:
448,192,37329,1,0,0:0:0:0:
64,192,37734,1,0,0:0:0:0:
448,192,37937,1,0,0:0:0:0:
192,192,38140,1,0,0:0:0:0:
320,192,38545,1,0,0:0:0:0:
448,192,38950,1,0,0:0:0:0:
192,192,38950,1,0,0:0:0:0:
64,192,39559,1,0,0:0:0:0:
320,192,39761,1,0,0:0:0:0:
192,192,39964,1,0,0:0:0:0:
64,192,40167,1,0,0:0:0:0:
448,192,40369,1,0,0:0:0:0:
192,192,40572,1,0,0:0:0:0:
64,192,40572,1,0,0:0:0:0:
320,192,40977,1,0,0:0:0:0:
192,192,41248,1,0,0:0:0:0:
320,192,41315,1,0,0:0:0:0:
448,192,41383,1,0,0:0:0:0:
64,192,41788,1,0,0:0:0:0:
320,192,41788,1,0,0:0:0:0:
192,192,42194,1,0,0:0:0:0:
448,192,42194,1,0,0:0:0:0:
64,192,42599,5,0,0:0:0:0:
448,192,42599,1,0,0:0:0:0:
64,192,43004,1,0,0:0:0:0:
320,192,43004,1,0,0:0:0:0:
448,192,43207,1,0,0:0:0:0:
192,192,43207,1,0,0:0:0:0:
64,192,43410,1,0,0:0:0:0:
320,192,43410,1,0,0:0:0:0:
448,192,43613,1,0,0:0:0:0:
192,192,43613,1,0,0:0:0:0:
448,192,43815,1,0,0:0:0:0:
64,192,43815,1,0,0:0:0:0:
192,192,44018,1,0,0:0:0:0:
320,192,44018,1,0,0:0:0:0:
448,192,44221,1,0,0:0:0:0:
64,192,44221,1,0,0:0:0:0:
64,192,44626,128,0,45437:0:0:0:0:
320,192,44626,1,0,0:0:0:0:
192,192,45234,1,0,0:0:0:0:
448,192,45234,1,0,0:0:0:0:
192,192,45437,1,0,0:0:0:0:
448,192,45437,1,0,0:0:0:0:
320,192,45640,1,0,0:0:0:0:
64,192,45842,1,0,0:0:0:0:
448,192,46045,1,0,0:0:0:0:
192,192,46248,1,0,0:0:0:0:
320,192,46248,1,0,0:0:0:0:
448,192,47059,1,0,0:0:0:0:
192,192,47261,1,0,0:0:0:0:
64,192,47464,1,0,0:0:0:0:
448,192,47667,1,0,0:0:0:0:
64,192,47768,1,0,0:0:0:0:
192,192,47819,1,0,0:0:0:0:
320,192,47869,1,0,0:0:0:0:
448,192,47869,1,0,0:0:0:0:
64,192,48275,1,0,0:0:0:0:
320,192,48477,1,0,0:0:0:0:
192,192,48680,1,0,0:0:0:0:
64,192,48680,1,0,0:0:0:0:
448,192,48883,1,0,0:0:0:0:
192,192,49086,1,0,0:0:0:0:
64,192,49288,1,0,0:0:0:0:
448,192,49491,1,0,0:0:0:0:
320,192,49491,1,0,0:0:0:0:
192,192,49694,1,0,0:0:0:0:
320,192,49896,1,0,0:0:0:0:
448,192,50099,1,0,0:0:0:0:
64,192,50302,1,0,0:0:0:0:
320,192,50504,1,0,0:0:0:0:
192,192,50707,1,0,0:0:0:0:
448,192,50910,1,0,0:0:0:0:
64,192,51011,1,0,0:0:0:0:
192,192,51062,1,0,0:0:0:0:
320,192,51113,1,0,0:0:0:0:
448,192,51113,1,0,0:0:0:0:
192,192,51315,1,0,0:0:0:0:
448,192,51518,1,0,0:0:0:0:
320,192,51721,1,0,0:0:0:0:
192,192,51822,1,0,0:0:0:0:
64,192,51923,1,0,0:0:0:0:
448,192,51923,1,0,0:0:0:0:
192,192,52126,1,0,0:0:0:0:
320,192,52329,1,0,0:0:0:0:
448,192,52531,1,0,0:0:0:0:
192,192,52531,1,0,0:0:0:0:
64,192,52734,1,0,0:0:0:0:
320,192,52734,1,0,0:0:0:0:
448,192,53545,1,0,0:0:0:0:
64,0,53748,5,0,0:0:0:0:
192,192,53950,1,0,0:0:0:0:
448,192,54153,1,0,0:0:0:0:
320,192,54356,1,0,0:0:0:0:
64,192,54356,1,0,0:0:0:0:
192,192,54559,1,0,0:0:0:0:
320,192,54761,1,0,0:0:0:0:
448,192,54964,1,0,0:0:0:0:
320,192,55065,1,0,0:0:0:0:
192,192,55167,1,0,0:0:0:0:
64,192,55167,1,0,0:0:0:0:
320,192,55369,1,0,0:0:0:0:
448,192,55572,1,0,0:0:0:0:
64,192,55775,1,0,0:0:0:0:
192,192,55977,1,0,0:0:0:0:
448,192,55977,1,0,0:0:0:0:
320,192,56180,1,0,0:0:0:0:
448,192,56383,1,0,0:0:0:0:
64,192,56586,1,0,0:0:0:0:
320,192,56788,1,0,0:0:0:0:
448,192,56788,1,0,0:0:0:0:
192,192,56991,1,0,0:0:0:0:
64,192,56991,1,0,0:0:0:0:
320,192,57194,1,0,0:0:0:0:
448,192,57194,1,0,0:0:0:0:
192,192,57396,1,0,0:0:0:0:
64,192,57396,1,0,0:0:0:0:
448,192,57599,1,0,0:0:0:0:
320,192,57599,1,0,0:0:0:0:
192,192,57700,1,0,0:0:0:0:
64,192,58004,1,0,0:0:0:0:
448,192,58004,1,0,0:0:0:0:
192,192,58072,1,0,0:0:0:0:
320,192,58140,1,0,0:0:0:0:
448,192,58207,1,0,0:0:0:0:
64,192,58258,1,0,0:0:0:0:
192,192,58309,1,0,0:0:0:0:
320,192,58410,1,0,0:0:0:0:
448,192,58410,1,0,0:0:0:0:
192,192,58815,1,0,0:0:0:0:
64,192,59018,1,0,0:0:0:0:
448,192,59221,1,0,0:0:0:0:
320,192,59221,1,0,0:0:0:0:
192,192,59423,1,0,0:0:0:0:
320,192,59626,1,0,0:0:0:0:
448,192,59829,1,0,0:0:0:0:
64,192,59829,1,0,0:0:0:0:
64,192,60031,1,0,0:0:0:0:
448,192,60031,1,0,0:0:0:0:
192,192,60234,1,0,0:0:0:0:
320,192,60437,1,0,0:0:0:0:
448,192,60640,1,0,0:0:0:0:
320,192,60842,1,0,0:0:0:0:
192,192,60842,1,0,0:0:0:0:
64,192,61045,1,0,0:0:0:0:
448,192,61248,1,0,0:0:0:0:
192,192,61450,1,0,0:0:0:0:
320,192,61552,1,0,0:0:0:0:
448,192,61653,1,0,0:0:0:0:
64,192,61653,1,0,0:0:0:0:
192,192,61856,1,0,0:0:0:0:
448,192,62059,1,0,0:0:0:0:
64,192,62261,1,0,0:0:0:0:
448,192,62464,1,0,0:0:0:0:
320,192,62464,1,0,0:0:0:0:
192,192,62667,1,0,0:0:0:0:
64,192,62869,1,0,0:0:0:0:
448,192,63072,1,0,0:0:0:0:
192,192,63072,1,0,0:0:0:0:
448,192,63275,1,0,0:0:0:0:
192,192,63275,1,0,0:0:0:0:
320,192,63477,1,0,0:0:0:0:
64,192,63680,1,0,0:0:0:0:
192,192,63883,1,0,0:0:0:0:
320,192,64086,1,0,0:0:0:0:
64,192,64086,1,0,0:0:0:0:
448,192,64288,1,0,0:0:0:0:
192,192,64491,1,0,0:0:0:0:
320,192,64491,1,0,0:0:0:0:
448,192,64694,1,0,0:0:0:0:
64,192,64846,1,0,0:0:0:0:
192,192,64896,1,0,0:0:0:0:
448,192,65048,1,0,0:0:0:0:
320,192,65099,1,0,0:0:0:0:
192,192,65302,1,0,0:0:0:0:
320,192,65504,1,0,0:0:0:0:
64,192,65707,1,0,0:0:0:0:
192,192,65707,1,0,0:0:0:0:
448,192,65910,1,0,0:0:0:0:
320,192,66011,1,0,0:0:0:0:
192,192,66113,1,0,0:0:0:0:
64,192,66315,1,0,0:0:0:0:
320,192,66315,1,0,0:0:0:0:
320,192,66518,1,0,0:0:0:0:
64,192,66518,1,0,0:0:0:0:
448,192,66721,1,0,0:0:0:0:
192,192,66923,1,0,0:0:0:0:
320,192,67126,1,0,0:0:0:0:
64,192,67329,1,0,0:0:0:0:
192,192,67329,1,0,0:0:0:0:
320,192,67531,1,0,0:0:0:0:
448,192,67531,1,0,0:0:0:0:
192,192,67734,1,0,0:0:0:0:
448,192,67937,1,0,0:0:0:0:
64,192,68038,1,0,0:0:0:0:
192,192,68089,1,0,0:0:0:0:
320,192,68140,1,0,0:0:0:0:
448,192,68140,1,0,0:0:0:0:
64,192,68342,1,0,0:0:0:0:
448,192,68545,1,0,0:0:0:0:
320,192,68748,1,0,0:0:0:0:
64,192,68950,1,0,0:0:0:0:
192,192,68950,1,0,0:0:0:0:
448,192,69153,1,0,0:0:0:0:
192,192,69559,1,0,0:0:0:0:
320,192,69559,1,0,0:0:0:0:
448,192,69761,128,0,69964:0:0:0:0:
64,192,69964,128,0,70167:0:0:0:0:
320,192,70167,128,0,70369:0:0:0:0:
192,192,70369,128,0,70572:0:0:0:0:
448,192,70775,128,0,70977:0:0:0:0:
64,192,70775,1,0,0:0:0:0:
320,192,70977,128,0,71180:0:0:0:0:
192,192,71180,128,0,71383:0:0:0:0:
64,192,71383,128,0,72802:0:0:0:0:
448,192,71383,1,0,0:0:0:0:
192,192,71586,1,0,0:0:0:0:
320,192,71788,1,0,0:0:0:0:
448,192,71991,1,0,0:0:0:0:
192,192,72194,1,0,0:0:0:0:
320,192,72194,1,0,0:0:0:0:
448,192,72396,1,0,0:0:0:0:
192,192,72599,1,0,0:0:0:0:
448,192,72802,1,0,0:0:0:0:
320,192,72802,1,0,0:0:0:0:
320,192,73004,1,0,0:0:0:0:
448,192,73004,1,0,0:0:0:0:
192,192,73207,1,0,0:0:0:0:
320,192,73410,1,0,0:0:0:0:
448,192,73613,1,0,0:0:0:0:
64,192,73815,1,0,0:0:0:0:
192,192,73815,1,0,0:0:0:0:
320,192,74018,1,0,0:0:0:0:
448,192,74221,1,0,0:0:0:0:
64,192,74423,1,0,0:0:0:0:
320,192,74626,1,0,0:0:0:0:
448,192,74626,1,0,0:0:0:0:
192,192,74829,1,0,0:0:0:0:
448,192,75031,1,0,0:0:0:0:
64,192,75234,1,0,0:0:0:0:
320,192,75386,1,0,0:0:0:0:
448,192,75437,1,0,0:0:0:0:
192,192,75640,1,0,0:0:0:0:
64,192,75690,1,0,0:0:0:0:
320,192,75842,1,0,0:0:0:0:
64,192,76045,1,0,0:0:0:0:
448,192,76045,1,0,0:0:0:0:
448,192,76248,1,0,0:0:0:0:
64,192,76248,1,0,0:0:0:0:
192,192,76450,1,0,0:0:0:0:
320,192,76653,1,0,0:0:0:0:
448,192,76856,1,0,0:0:0:0:
320,192,77059,1,0,0:0:0:0:
192,192,77261,1,0,0:0:0:0:
64,192,77464,1,0,0:0:0:0:
192,192,77667,1,0,0:0:0:0:
448,192,77869,1,0,0:0:0:0:
320,192,77869,1,0,0:0:0:0:
192,192,78072,1,0,0:0:0:0:
64,192,78275,1,0,0:0:0:0:
448,192,78477,1,0,0:0:0:0:
192,192,78680,1,0,0:0:0:0:
320,192,78680,1,0,0:0:0:0:
64,192,78883,1,0,0:0:0:0:
448,192,79086,1,0,0:0:0:0:
64,192,79288,1,0,0:0:0:0:
192,192,79288,1,0,0:0:0:0:
448,192,79390,1,0,0:0:0:0:
320,192,79440,1,0,0:0:0:0:
64,192,79491,1,0,0:0:0:0:
192,192,79491,1,0,0:0:0:0:
320,192,79694,1,0,0:0:0:0:
192,192,79896,1,0,0:0:0:0:
448,192,80099,1,0,0:0:0:0:
192,192,80200,1,0,0:0:0:0:
320,192,80251,1,0,0:0:0:0:
448,192,80302,1,0,0:0:0:0:
64,192,80302,1,0,0:0:0:0:
448,192,80707,1,0,0:0:0:0:
64,192,81113,128,0,83545:0:0:0:0:
320,192,81113,1,0,0:0:0:0:
448,192,81518,1,0,0:0:0:0:
192,192,81721,1,0,0:0:0:0:
320,192,81822,1,0,0:0:0:0:
448,192,81923,1,0,0:0:0:0:
192,192,82126,1,0,0:0:0:0:
320,192,82531,1,0,0:0:0:0:
448,192,82734,128,0,83545:0:0:0:0:
192,192,83545,1,0,0:0:0:0:
448,192,83950,1,0,0:0:0:0:
64,192,84356,128,0,84559:0:0:0:0:
320,192,84356,1,0,0:0:0:0:
64,192,84761,128,0,84964:0:0:0:0:
448,192,84761,1,0,0:0:0:0:
320,192,84964,1,0,0:0:0:0:
64,192,85167,128,0,85369:0:0:0:0:
448,192,85167,1,0,0:0:0:0:
320,192,85369,1,0,0:0:0:0:
64,192,85572,128,0,85775:0:0:0:0:
448,192,85572,1,0,0:0:0:0:
320,192,85775,1,0,0:0:0:0:
64,192,85977,128,0,86180:0:0:0:0:
448,192,85977,1,0,0:0:0:0:
320,192,86180,1,0,0:0:0:0:
64,192,86383,128,0,86586:0:0:0:0:
448,192,86383,1,0,0:0:0:0:
320,192,86586,1,0,0:0:0:0:
64,192,86788,128,0,86991:0:0:0:0:
448,192,86788,1,0,0:0:0:0:
320,192,86991,1,0,0:0:0:0:
64,192,87194,128,0,87396:0:0:0:0:
448,192,87194,1,0,0:0:0:0:
320,192,87396,1,0,0:0:0:0:
448,192,87599,128,0,87802:0:0:0:0:
192,192,87599,1,0,0:0:0:0:
64,192,87802,1,0,0:0:0:0:
448,192,88004,128,0,88207:0:0:0:0:
192,192,88004,1,0,0:0:0:0:
64,192,88207,1,0,0:0:0:0:
448,192,88410,128,0,88613:0:0:0:0:
192,192,88410,1,0,0:0:0:0:
64,192,88613,1,0,0:0:0:0:
448,192,88815,128,0,89018:0:0:0:0:
192,192,88815,1,0,0:0:0:0:
320,192,89018,1,0,0:0:0:0:
64,192,89221,1,0,0:0:0:0:
448,192,89423,1,0,0:0:0:0:
448,192,89626,1,0,0:0:0:0:
192,192,89829,1,0,0:0:0:0:
320,192,90031,1,0,0:0:0:0:
448,192,90234,1,0,0:0:0:0:
192,192,90437,1,0,0:0:0:0:
64,192,90640,1,0,0:0:0:0:
320,192,90842,128,0,91045:0:0:0:0:
448,192,90842,1,0,0:0:0:0:
64,192,91045,1,0,0:0:0:0:
320,192,91248,128,0,91450:0:0:0:0:
448,192,91248,1,0,0:0:0:0:
64,192,91450,1,0,0:0:0:0:
320,192,91653,128,0,91856:0:0:0:0:
448,192,91653,1,0,0:0:0:0:
64,192,91856,1,0,0:0:0:0:
320,192,92059,128,0,92261:0:0:0:0:
448,192,92059,1,0,0:0:0:0:
64,192,92261,1,0,0:0:0:0:
320,192,92464,128,0,92869:0:0:0:0:
448,192,92464,1,0,0:0:0:0:
192,192,92667,1,0,0:0:0:0:
64,192,92869,128,0,93275:0:0:0:0:
448,192,92869,1,0,0:0:0:0:
192,192,93072,1,0,0:0:0:0:
448,192,93275,128,0,93477:0:0:0:0:
320,192,93275,1,0,0:0:0:0:
192,192,93477,1,0,0:0:0:0:
320,192,93680,1,0,0:0:0:0:
448,192,93680,128,0,93883:0:0:0:0:
192,192,93883,1,0,0:0:0:0:
64,192,94086,1,0,0:0:0:0:
448,192,94288,1,0,0:0:0:0:
64,192,94491,1,0,0:0:0:0:
448,192,94694,1,0,0:0:0:0:
64,192,94896,1,0,0:0:0:0:
448,192,95099,1,0,0:0:0:0:
192,192,95302,1,0,0:0:0:0:
320,192,95437,1,0,0:0:0:0:
448,192,95580,1,0,0:0:0:0:
320,192,95707,1,0,0:0:0:0:
192,192,95842,1,0,0:0:0:0:
64,192,95977,1,0,0:0:0:0:
192,192,96113,1,0,0:0:0:0:
320,192,96248,1,0,0:0:0:0:
448,192,96391,1,0,0:0:0:0:
64,192,96518,1,0,0:0:0:0:
192,192,96721,1,0,0:0:0:0:
448,192,96923,1,0,0:0:0:0:
192,192,97126,1,0,0:0:0:0:
448,192,97329,128,0,97531:0:0:0:0:
64,192,97329,128,0,97531:0:0:0:0:
320,192,97734,128,0,97937:0:0:0:0:
64,192,97734,128,0,97937:0:0:0:0:
64,192,98140,128,0,98342:0:0:0:0:
192,192,98140,128,0,98342:0:0:0:0:
448,192,98545,128,0,98950:0:0:0:0:
64,192,98545,128,0,98950:0:0:0:0:
320,192,98950,128,0,100572:0:0:0:0:
64,192,99761,1,0,0:0:0:0:
448,192,100167,1,0,0:0:0:0:
64,192,100572,1,0,0:0:0:0:
192,192,100572,1,0,0:0:0:0:
448,192,100977,1,0,0:0:0:0:
192,192,101383,1,0,0:0:0:0:
448,192,101687,1,0,0:0:0:0:
320,192,101991,1,0,0:0:0:0:
64,192,102160,1,0,0:0:0:0:
192,192,102227,1,0,0:0:0:0:
320,192,102295,1,0,0:0:0:0:
448,192,102363,1,0,0:0:0:0:
64,192,103004,1,0,0:0:0:0:
320,192,103410,1,0,0:0:0:0:
192,192,103815,1,0,0:0:0:0:
64,192,103815,1,0,0:0:0:0:
448,192,104221,1,0,0:0:0:0:
192,192,104626,1,0,0:0:0:0:
448,192,104829,1,0,0:0:0:0:
64,192,105031,1,0,0:0:0:0:
320,192,105234,1,0,0:0:0:0:
192,192,105437,1,0,0:0:0:0:
448,192,105437,1,0,0:0:0:0:
192,192,106248,1,0,0:0:0:0:
320,192,106450,1,0,0:0:0:0:
192,192,106653,1,0,0:0:0:0:
64,192,106856,1,0,0:0:0:0:
320,192,107059,1,0,0:0:0:0:
448,192,107059,1,0,0:0:0:0:
64,192,107464,1,0,0:0:0:0:
320,192,107667,1,0,0:0:0:0:
192,192,107869,1,0,0:0:0:0:
64,192,107869,1,0,0:0:0:0:
448,192,108072,1,0,0:0:0:0:
320,192,108275,1,0,0:0:0:0:
192,192,108477,1,0,0:0:0:0:
64,192,108680,1,0,0:0:0:0:
448,192,108680,1,0,0:0:0:0:
320,192,108883,1,0,0:0:0:0:
64,192,109086,1,0,0:0:0:0:
192,192,109288,1,0,0:0:0:0:
320,192,109491,1,0,0:0:0:0:
448,192,109491,1,0,0:0:0:0:
192,192,109694,1,0,0:0:0:0:
320,192,109896,1,0,0:0:0:0:
448,192,110099,1,0,0:0:0:0:
64,192,110302,1,0,0:0:0:0:
192,192,110302,1,0,0:0:0:0:
320,192,110707,1,0,0:0:0:0:
448,192,110707,1,0,0:0:0:0:
192,192,110910,1,0,0:0:0:0:
64,192,110910,1,0,0:0:0:0:
320,192,111315,1,0,0:0:0:0:
192,192,111315,1,0,0:0:0:0:
64,192,111721,1,0,0:0:0:0:
448,192,111721,1,0,0:0:0:0:
320,192,111923,128,0,112126:0:0:0:0:
192,192,112126,128,0,112329:0:0:0:0:
64,192,112329,128,0,112531:0:0:0:0:
448,192,112531,128,0,112734:0:0:0:0:
192,192,112937,128,0,113140:0:0:0:0:
320,192,113140,128,0,113342:0:0:0:0:
448,192,113342,128,0,113545:0:0:0:0:
64,192,113342,1,0,0:0:0:0:
192,192,113444,1,0,0:0:0:0:
320,192,113545,1,0,0:0:0:0:
64,192,113545,1,0,0:0:0:0:
448,192,113950,1,0,0:0:0:0:
320,192,114153,1,0,0:0:0:0:
64,192,114356,1,0,0:0:0:0:
192,192,114559,1,0,0:0:0:0:
320,192,114761,1,0,0:0:0:0:
64,192,114964,1,0,0:0:0:0:
448,192,114964,1,0,0:0:0:0:
448,192,115167,1,0,0:0:0:0:
64,192,115167,1,0,0:0:0:0:
192,192,115369,1,0,0:0:0:0:
320,192,115572,1,0,0:0:0:0:
192,192,115775,1,0,0:0:0:0:
320,192,115977,1,0,0:0:0:0:
448,192,116180,1,0,0:0:0:0:
64,192,116383,1,0,0:0:0:0:
192,192,116788,1,0,0:0:0:0:
320,192,116788,1,0,0:0:0:0:
448,192,116991,1,0,0:0:0:0:
320,192,117194,1,0,0:0:0:0:
192,192,117396,1,0,0:0:0:0:
448,192,117599,1,0,0:0:0:0:
64,192,117802,1,0,0:0:0:0:
192,192,118004,1,0,0:0:0:0:
320,192,118207,1,0,0:0:0:0:
448,192,118207,1,0,0:0:0:0:
64,192,118410,1,0,0:0:0:0:
192,192,118410,128,0,118613:0:0:0:0:
320,192,118613,128,0,118815:0:0:0:0:
448,192,118815,128,0,119018:0:0:0:0:
64,192,119018,128,0,119221:0:0:0:0:
192,192,119221,1,0,0:0:0:0:
320,192,119322,1,0,0:0:0:0:
448,192,119423,1,0,0:0:0:0:
192,192,119423,128,0,119626:0:0:0:0:
448,192,119626,1,0,0:0:0:0:
64,192,119626,128,0,119829:0:0:0:0:
320,192,119727,1,0,0:0:0:0:
448,192,119829,128,0,120031:0:0:0:0:
192,192,119829,1,0,0:0:0:0:
320,192,119930,1,0,0:0:0:0:
64,192,120031,1,0,0:0:0:0:
192,192,120031,1,0,0:0:0:0:
320,192,120437,1,0,0:0:0:0:
192,192,120640,1,0,0:0:0:0:
320,192,121045,1,0,0:0:0:0:
64,192,121248,1,0,0:0:0:0:
320,192,121450,1,0,0:0:0:0:
448,192,121450,1,0,0:0:0:0:
64,192,121552,1,0,0:0:0:0:
192,192,121602,1,0,0:0:0:0:
448,192,121653,1,0,0:0:0:0:
320,192,121653,1,0,0:0:0:0:
64,192,121856,1,0,0:0:0:0:
192,192,122059,1,0,0:0:0:0:
448,192,122261,1,0,0:0:0:0:
320,192,122464,1,0,0:0:0:0:
64,192,122869,1,0,0:0:0:0:
448,192,123275,128,0,125707:0:0:0:0:
320,192,123275,1,0,0:0:0:0:
192,192,123680,1,0,0:0:0:0:
320,192,124086,1,0,0:0:0:0:
64,192,124288,1,0,0:0:0:0:
192,192,124694,1,0,0:0:0:0:
320,192,125302,1,0,0:0:0:0:
192,192,125707,1,0,0:0:0:0:
320,192,126113,1,0,0:0:0:0:
448,192,126518,1,0,0:0:0:0:
64,192,126518,1,0,0:0:0:0:
320,192,126923,1,0,0:0:0:0:
192,192,127126,1,0,0:0:0:0:
64,192,127329,1,0,0:0:0:0:
320,192,127329,1,0,0:0:0:0:
448,192,127734,1,0,0:0:0:0:
64,192,128140,1,0,0:0:0:0:
448,192,128342,1,0,0:0:0:0:
320,192,128545,1,0,0:0:0:0:
192,192,128748,1,0,0:0:0:0:
448,192,128950,1,0,0:0:0:0:
320,192,128950,1,0,0:0:0:0:
64,192,129356,1,0,0:0:0:0:
448,192,129761,1,0,0:0:0:0:
192,192,129964,1,0,0:0:0:0:
320,192,130167,1,0,0:0:0:0:
64,192,130369,1,0,0:0:0:0:
448,192,130471,1,0,0:0:0:0:
320,192,130521,1,0,0:0:0:0:
192,192,130572,1,0,0:0:0:0:
64,192,130977,1,0,0:0:0:0:
192,192,131180,1,0,0:0:0:0:
320,192,131383,1,0,0:0:0:0:
64,192,131586,1,0,0:0:0:0:
448,192,131788,1,0,0:0:0:0:
320,192,131991,1,0,0:0:0:0:
192,192,132194,1,0,0:0:0:0:
448,192,132194,1,0,0:0:0:0:
64,192,132396,1,0,0:0:0:0:
320,192,132599,1,0,0:0:0:0:
448,192,132599,1,0,0:0:0:0:
64,192,132802,1,0,0:0:0:0:
320,192,133004,1,0,0:0:0:0:
448,192,133004,1,0,0:0:0:0:
192,192,133207,1,0,0:0:0:0:
320,192,133410,1,0,0:0:0:0:
448,192,133613,1,0,0:0:0:0:
64,192,133815,1,0,0:0:0:0:
192,192,133815,1,0,0:0:0:0:
320,192,134221,1,0,0:0:0:0:
192,192,134423,1,0,0:0:0:0:
64,192,134829,1,0,0:0:0:0:
320,192,135234,1,0,0:0:0:0:
448,192,135437,1,0,0:0:0:0:
192,192,135437,1,0,0:0:0:0:
64,192,135640,1,0,0:0:0:0:
192,192,135842,1,0,0:0:0:0:
320,192,136045,1,0,0:0:0:0:
448,192,136248,1,0,0:0:0:0:
64,192,136450,1,0,0:0:0:0:
320,192,136653,1,0,0:0:0:0:
64,192,136856,1,0,0:0:0:0:
448,192,137059,1,0,0:0:0:0:
192,192,137059,1,0,0:0:0:0:
320,192,137194,1,0,0:0:0:0:
192,192,137329,1,0,0:0:0:0:
64,192,137464,1,0,0:0:0:0:
192,192,137599,1,0,0:0:0:0:
320,192,137734,1,0,0:0:0:0:
192,192,137869,1,0,0:0:0:0:
320,192,138275,1,0,0:0:0:0:
448,192,138477,1,0,0:0:0:0:
192,192,138680,1,0,0:0:0:0:
64,192,138680,1,0,0:0:0:0:
320,192,139086,1,0,0:0:0:0:
64,192,139314,1,0,0:0:0:0:
192,192,139364,1,0,0:0:0:0:
320,192,139415,1,0,0:0:0:0:
64,192,139466,1,0,0:0:0:0:
448,192,139491,128,0,142329:0:0:0:0:
192,192,140302,1,0,0:0:0:0:
64,192,140707,1,0,0:0:0:0:
320,192,141518,1,0,0:0:0:0:
320,192,142599,1,0,0:0:0:0:
192,192,142667,1,0,0:0:0:0:
64,192,142734,128,0,145977:0:0:0:0:
