osu file format v13

[General]
AudioFilename: Deemo - Evolution Era.mp3
AudioLeadIn: 0
PreviewTime: 128659
Countdown: 0
SampleSet: Soft
StackLeniency: 0.7
Mode: 0
LetterboxInBreaks: 0
StoryFireInFront: 0
EpilepsyWarning: 1
WidescreenStoryboard: 1

[Editor]
DistanceSpacing: 0.7
BeatDivisor: 4
GridSize: 4
TimelineZoom: 2.3

[Metadata]
Title:Evolution Era
TitleUnicode:Evolution Era
Artist:V.K
ArtistUnicode:V.K
Creator:FreeSongs
Version:Evolution
Source:Deemo
Tags:
BeatmapID:551489
BeatmapSetID:238434

[Difficulty]
HPDrainRate:7
CircleSize:5.5
OverallDifficulty:8
ApproachRate:9.8
SliderMultiplier:1.5
SliderTickRate:2

[Events]
//Background and Video events
0,0,"maxresdefault.jpg",0,0
//Break Periods
2,40659,44326
//Storyboard Layer 0 (Background)
//Storyboard Layer 1 (Fail)
//Storyboard Layer 2 (Pass)
//Storyboard Layer 3 (Foreground)
//Storyboard Sound Samples

[TimingPoints]
660,333.333333333333,4,2,1,100,1,0
660,-133.333333333333,4,2,1,15,0,0
16659,-133.333333333333,4,2,1,25,0,0
17993,-200,4,2,1,30,0,0
19159,-200,4,2,1,15,0,0
19659,-200,4,2,1,20,0,0
20159,-200,4,2,1,25,0,0
20659,-200,4,2,1,30,0,0
21159,-200,4,2,1,35,0,0
21493,-125,4,2,1,35,0,0
22993,-200,4,2,1,35,0,0
23493,-125,4,2,1,35,0,0
25993,-100,4,2,1,35,0,0
26493,-125,4,2,1,35,0,0
27326,-100,4,2,1,35,0,0
28993,-125,4,2,1,35,0,0
33659,-200,4,2,1,35,0,0
35159,-166.666666666667,4,2,1,35,0,0
35659,-142.857142857143,4,2,1,35,0,0
35993,-125,4,2,1,35,0,0
40326,-125,4,2,3,35,0,0
45326,-125,4,2,1,50,0,0
77493,-100,4,2,1,50,0,0
77993,-100,4,2,1,65,0,1
79993,-90.9090909090909,4,2,1,65,0,1
80326,-83.3333333333333,4,2,1,65,0,1
101993,-133.333333333333,4,2,3,30,0,0
102159,-133.333333333333,4,2,1,40,0,0
112659,-83.3333333333333,4,2,1,50,0,0
124993,-76.9230769230769,4,2,1,50,0,0
125326,-71.4285714285714,4,2,1,50,0,0
128659,-71.4285714285714,4,2,1,65,0,1
130659,-66.6666666666667,4,2,1,65,0,1
131326,-71.4285714285714,4,2,1,65,0,1
139326,-66.6666666666667,4,2,1,65,0,1
144659,-71.4285714285714,4,2,1,65,0,1
149993,-100,4,2,1,20,0,0
154993,-66.6666666666667,4,2,1,50,0,0
155326,-66.6666666666667,4,2,1,70,0,1
160659,-66.6666666666667,4,2,1,70,0,0
163029,334.133333333333,4,2,1,70,1,0

[HitObjects]
44,148,660,5,2,0:0:0:0:
184,96,993,1,0,0:0:0:0:
168,136,1159,1,0,0:0:0:0:
316,52,1493,1,0,0:0:0:0:
348,124,1659,1,2,0:0:0:0:
320,132,2993,5,0,0:0:0:0:
312,148,3326,1,2,0:0:0:0:
476,232,3659,1,0,0:0:0:0:
500,256,3826,1,0,0:0:0:0:
272,384,4159,1,0,0:0:0:0:
248,356,4326,1,0,0:0:0:0:
284,356,4493,1,0,0:0:0:0:
108,164,4659,5,2,0:0:0:0:
124,204,5159,5,0,0:0:0:0:
140,244,5493,5,0,0:0:0:0:
56,232,5659,1,0,0:0:0:0:
108,164,5826,1,0,0:0:0:0:
140,244,5993,1,2,0:0:0:0:
256,136,6326,1,0,0:0:0:0:
292,204,6493,1,0,0:0:0:0:
376,28,6826,1,0,0:0:0:0:
404,168,6993,1,2,0:0:0:0:
404,196,8326,5,0,0:0:0:0:
404,216,8659,1,0,0:0:0:0:
216,68,8993,1,0,0:0:0:0:
184,40,9159,1,0,0:0:0:0:
84,268,9493,1,0,0:0:0:0:
40,296,9659,1,0,0:0:0:0:
48,296,9826,1,0,0:0:0:0:
96,68,9993,5,2,0:0:0:0:
120,240,10159,1,0,0:0:0:0:
128,76,10326,1,2,0:0:0:0:
152,212,10493,1,0,0:0:0:0:
160,84,10659,1,2,0:0:0:0:
184,184,10826,1,0,0:0:0:0:
216,156,10993,1,2,0:0:0:0:
216,172,11159,1,0,0:0:0:0:
216,188,11326,5,2,0:0:0:0:
392,108,11659,1,0,0:0:0:0:
424,176,11826,1,0,0:0:0:0:
144,56,12159,1,0,0:0:0:0:
80,136,12326,1,2,0:0:0:0:
80,160,13659,5,0,0:0:0:0:
80,176,13993,1,2,0:0:0:0:
364,204,14326,1,0,0:0:0:0:
304,180,14493,1,0,0:0:0:0:
360,268,14659,1,0,0:0:0:0:
424,180,14826,1,0,0:0:0:0:
304,180,14993,1,0,0:0:0:0:
360,268,15159,1,0,0:0:0:0:
368,76,15326,5,2,0:0:0:0:
328,248,15493,1,0,0:0:0:0:
388,72,15659,1,2,0:0:0:0:
324,212,15826,1,0,0:0:0:0:
416,80,15993,1,2,0:0:0:0:
328,192,16159,1,0,0:0:0:0:
432,120,16326,1,2,0:0:0:0:
340,180,16493,1,0,0:0:0:0:
392,156,16659,6,0,L|444:176,1,56.2500021457673,8|0,0:0|0:0,0:0:0:0:
268,88,16993,1,0,0:0:0:0:
216,160,17159,2,0,L|148:140,1,56.2500021457673,0|8,0:0|0:0,0:0:0:0:
80,112,17493,1,0,0:0:0:0:
96,240,17659,2,0,L|168:232,1,56.2500021457673,0|0,0:0|0:0,0:0:0:0:
292,336,17993,2,0,P|256:344|212:332,2,75,0|0|8,0:0|0:0|0:0,0:0:0:0:
256,192,18993,1,2,0:0:0:0:
256,192,19159,12,0,21326,0:0:0:0:
244,148,21493,5,0,0:0:0:0:
172,104,21659,1,0,0:0:0:0:
220,36,21826,1,0,0:0:0:0:
352,72,21993,2,0,L|432:60,1,60
328,160,22326,1,0,0:0:0:0:
328,192,22493,2,0,L|388:224,1,60,0|8,0:0|0:0,0:0:0:0:
292,288,22826,1,0,0:0:0:0:
292,320,22993,2,0,P|236:340|180:312,1,112.5
120,240,23659,1,0,0:0:0:0:
296,48,23993,1,8,0:0:0:0:
420,252,24326,5,0,0:0:0:0:
412,268,24659,1,0,0:0:0:0:
200,112,24993,1,0,0:0:0:0:
224,132,25159,2,0,L|264:192,1,60,0|8,0:0|0:0,0:0:0:0:
328,276,25493,1,0,0:0:0:0:
268,200,25659,2,0,L|304:136,1,60
344,56,25993,2,0,L|372:132,1,75
392,200,26326,1,0,0:0:0:0:
232,72,26493,2,0,L|160:96,1,60,0|8,0:0|0:0,0:0:0:0:
92,120,26826,1,0,0:0:0:0:
208,164,26993,5,0,0:0:0:0:
156,224,27159,1,0,0:0:0:0:
108,284,27326,2,0,L|24:276,1,75
120,272,27659,1,0,0:0:0:0:
208,344,27826,2,0,L|296:352,1,75,0|8,0:0|0:0,0:0:0:0:
352,356,28159,1,0,0:0:0:0:
196,332,28326,1,0,0:0:0:0:
224,256,28493,1,0,0:0:0:0:
252,172,28659,1,0,0:0:0:0:
380,288,28993,6,0,L|440:316,1,60
364,228,29326,2,0,L|384:304,1,60,8|0,0:0|0:0,0:0:0:0:
396,176,29659,2,0,L|356:240,1,60
384,140,29993,1,0,0:0:0:0:
264,44,30326,1,0,0:0:0:0:
284,24,30493,2,0,L|356:24,1,60,0|8,0:0|0:0,0:0:0:0:
240,120,30826,1,0,0:0:0:0:
160,136,30993,2,0,L|236:136,1,60
296,120,31326,5,0,0:0:0:0:
196,216,31493,1,0,0:0:0:0:
296,120,31659,1,0,0:0:0:0:
396,36,31826,1,0,0:0:0:0:
396,176,31993,1,8,0:0:0:0:
312,132,32159,1,0,0:0:0:0:
396,36,32326,1,0,0:0:0:0:
328,144,32493,1,0,0:0:0:0:
264,244,32659,6,0,L|192:256,1,60
216,36,32993,1,0,0:0:0:0:
288,100,33159,2,0,L|344:160,1,60,0|8,0:0|0:0,0:0:0:0:
92,272,33493,1,0,0:0:0:0:
136,188,33659,2,0,L|196:80,1,112.5
204,64,34326,2,0,L|284:52,2,75,0|8|0,0:0|0:0|0:0,0:0:0:0:
100,80,35159,5,0,0:0:0:0:
88,112,35326,2,0,L|148:92,1,44.999998626709
76,152,35659,2,0,L|140:108,1,52.4999983978272
64,196,35993,2,0,L|124:144,1,60,8|0,0:0|0:0,0:0:0:0:
48,244,36326,1,0,0:0:0:0:
100,188,36493,1,0,0:0:0:0:
160,128,36659,5,0,0:0:0:0:
40,260,36826,1,0,0:0:0:0:
152,144,36993,1,0,0:0:0:0:
32,276,37159,1,0,0:0:0:0:
144,160,37326,1,8,0:0:0:0:
60,272,37493,1,0,0:0:0:0:
148,188,37659,1,0,0:0:0:0:
104,264,37826,1,0,0:0:0:0:
152,232,37993,1,0,0:0:0:0:
244,352,38326,5,0,0:0:0:0:
296,320,38493,2,0,L|352:288,2,60,0|8|0,0:0|0:0|0:0,0:0:0:0:
256,96,38993,1,0,0:0:0:0:
256,192,40326,5,4,0:0:0:0:
256,204,45326,5,2,0:0:0:0:
256,288,45493,1,4,0:0:0:0:
256,288,45659,2,0,L|256:356,1,60,4|2,0:0|0:0,0:0:0:0:
160,288,45993,2,0,B|96:300|96:300|76:268|40:268|44:240,1,120,4|4,0:0|0:0,0:0:0:0:
92,144,46659,1,8,0:0:0:0:
92,144,46993,2,0,L|160:112,1,60
340,156,47326,1,0,0:0:0:0:
310,146,47493,2,0,L|256:172,2,60,4|4|0,0:0|0:0|0:0,0:0:0:0:
256,288,47993,1,8,0:0:0:0:
300,40,48326,1,0,0:0:0:0:
512,116,48659,5,4,0:0:0:0:
464,240,48826,1,0,0:0:0:0:
340,156,48993,1,0,0:0:0:0:
468,256,49159,1,0,0:0:0:0:
348,144,49326,1,8,0:0:0:0:
504,100,49493,1,0,0:0:0:0:
472,272,49659,1,0,0:0:0:0:
356,132,49826,1,0,0:0:0:0:
364,120,50159,6,0,L|304:104,1,60,4|4,0:0|0:0,0:0:0:0:
156,56,50493,1,0,0:0:0:0:
292,100,50659,1,8,0:0:0:0:
180,192,50826,1,0,0:0:0:0:
144,48,50993,1,2,0:0:0:0:
132,40,51076,1,2,0:0:0:0:
120,32,51159,1,2,0:0:0:0:
172,208,51326,6,0,L|244:216,1,60,4|0,0:0|0:0,0:0:0:0:
140,228,51659,1,0,0:0:0:0:
108,248,51826,1,0,0:0:0:0:
76,268,51993,1,8,0:0:0:0:
108,24,52326,1,0,0:0:0:0:
160,120,52493,1,0,0:0:0:0:
292,16,52826,1,0,0:0:0:0:
336,112,52993,2,0,L|400:96,2,60,4|0|8,0:0|0:0|0:0,0:0:0:0:
224,148,53493,1,0,0:0:0:0:
340,180,53659,2,0,L|408:196,1,60,0|0,0:0|0:0,0:0:0:0:
184,292,53993,6,0,L|124:292,1,60,4|0,0:0|0:0,0:0:0:0:
344,248,54326,2,0,L|404:248,1,60,4|0,0:0|0:0,0:0:0:0:
240,168,54659,1,8,0:0:0:0:
336,112,54826,1,0,0:0:0:0:
260,32,54993,1,0,0:0:0:0:
252,40,55326,5,0,0:0:0:0:
228,164,55493,1,0,0:0:0:0:
336,100,55659,1,4,0:0:0:0:
244,48,55826,1,0,0:0:0:0:
128,92,55993,1,8,0:0:0:0:
236,56,56159,1,0,0:0:0:0:
216,160,56326,1,6,0:0:0:0:
224,152,56409,1,2,0:0:0:0:
232,144,56493,1,2,0:0:0:0:
196,264,56659,5,4,0:0:0:0:
348,192,56826,1,0,0:0:0:0:
380,176,56993,1,0,0:0:0:0:
412,160,57159,1,0,0:0:0:0:
444,144,57326,1,8,0:0:0:0:
432,256,57493,1,0,0:0:0:0:
412,120,57659,1,0,0:0:0:0:
456,232,57826,1,0,0:0:0:0:
272,256,58159,5,0,0:0:0:0:
280,276,58243,1,0,0:0:0:0:
288,296,58326,1,4,0:0:0:0:
348,192,58493,1,0,0:0:0:0:
264,236,58659,2,0,L|200:268,1,60,8|0,0:0|0:0,0:0:0:0:
60,192,58993,2,0,L|124:160,1,60
180,44,59326,5,4,0:0:0:0:
224,132,59493,1,0,0:0:0:0:
272,212,59659,1,4,0:0:0:0:
316,128,59826,2,0,L|380:96,1,60,0|8,0:0|0:0,0:0:0:0:
376,208,60159,1,0,0:0:0:0:
212,136,60326,1,4,0:0:0:0:
200,124,60826,5,0,0:0:0:0:
116,196,60993,2,0,L|56:189,1,60,4|0,0:0|0:0,0:0:0:0:
124,208,61326,1,8,0:0:0:0:
184,112,61493,1,0,0:0:0:0:
132,220,61659,1,6,0:0:0:0:
140,232,61743,1,2,0:0:0:0:
148,244,61826,1,2,0:0:0:0:
216,344,61993,6,0,L|181:295,2,60,4|0|0,0:0|0:0|0:0,0:0:0:0:
168,100,62493,2,0,B|216:64|216:64|236:72|260:96|264:124,1,120,2|0,0:0|0:0,0:0:0:0:
316,208,62993,2,0,L|368:276,1,60,0|0,0:0|0:0,0:0:0:0:
356,164,63326,1,0,0:0:0:0:
356,268,63493,1,4,0:0:0:0:
392,120,63659,1,4,0:0:0:0:
360,280,63826,1,0,0:0:0:0:
432,72,63993,1,8,0:0:0:0:
364,292,64159,5,0,0:0:0:0:
420,160,64326,1,0,0:0:0:0:
472,28,64493,1,0,0:0:0:0:
260,308,64659,1,4,0:0:0:0:
264,296,64993,1,8,0:0:0:0:
272,64,65159,1,4,0:0:0:0:
276,52,65493,1,4,0:0:0:0:
280,40,65826,1,4,0:0:0:0:
184,52,65993,5,6,0:0:0:0:
176,60,66076,1,2,0:0:0:0:
168,68,66159,1,2,0:0:0:0:
360,64,66326,1,6,0:0:0:0:
368,56,66409,1,2,0:0:0:0:
376,48,66492,1,2,0:0:0:0:
192,44,66659,5,0,0:0:0:0:
352,72,66826,1,0,0:0:0:0:
160,76,66993,1,2,0:0:0:0:
384,40,67159,1,0,0:0:0:0:
128,104,67326,2,0,L|60:120,1,60,4|0,0:0|0:0,0:0:0:0:
320,100,67659,1,4,0:0:0:0:
192,44,67826,1,0,0:0:0:0:
136,148,67993,5,8,0:0:0:0:
276,84,68159,1,0,0:0:0:0:
144,192,68326,1,0,0:0:0:0:
236,64,68493,1,0,0:0:0:0:
152,236,68659,2,0,L|224:256,1,60,0|0,0:0|0:0,0:0:0:0:
112,220,68993,1,4,0:0:0:0:
72,204,69159,1,0,0:0:0:0:
32,188,69326,1,8,0:0:0:0:
148,348,69659,5,2,0:0:0:0:
156,340,69743,1,2,0:0:0:0:
164,332,69826,1,2,0:0:0:0:
172,324,69909,1,2,0:0:0:0:
180,316,69993,1,6,0:0:0:0:
256,340,70159,5,0,0:0:0:0:
264,312,70326,1,4,0:0:0:0:
272,280,70493,1,0,0:0:0:0:
280,248,70659,1,8,0:0:0:0:
360,324,70826,5,0,0:0:0:0:
320,152,70993,1,0,0:0:0:0:
432,180,71159,1,0,0:0:0:0:
296,160,71326,2,0,L|212:148,1,60
408,192,71659,1,4,0:0:0:0:
512,208,71826,1,0,0:0:0:0:
272,168,71993,5,8,0:0:0:0:
168,152,72160,1,0,0:0:0:0:
340,144,72326,1,8,0:0:0:0:
140,220,72493,1,0,0:0:0:0:
408,116,72659,1,4,0:0:0:0:
316,80,72826,5,0,0:0:0:0:
300,76,72909,1,0,0:0:0:0:
284,72,72993,2,0,L|224:72,1,60,4|0,0:0|0:0,0:0:0:0:
156,184,73326,2,0,L|80:184,1,60,8|0,0:0|0:0,0:0:0:0:
268,68,73659,1,0,0:0:0:0:
384,204,73826,1,0,0:0:0:0:
252,64,73993,6,0,L|332:32,1,60,4|0,0:0|0:0,0:0:0:0:
236,60,74243,1,0,0:0:0:0:
220,56,74326,2,0,L|156:80,1,60,4|0,0:0|0:0,0:0:0:0:
148,196,74659,1,8,0:0:0:0:
204,52,74826,1,0,0:0:0:0:
356,40,74993,1,0,0:0:0:0:
140,208,75159,1,0,0:0:0:0:
368,36,75326,5,4,0:0:0:0:
380,32,75659,1,4,0:0:0:0:
132,216,75826,1,8,0:0:0:0:
124,228,76159,1,4,0:0:0:0:
116,240,76493,1,8,0:0:0:0:
72,308,76659,2,0,L|36:308,7,30,2|2|2|2|2|2|2|2,0:0|0:0|0:0|0:0|0:0|0:0|0:0|0:0,0:0:0:0:
140,356,77326,5,4,0:0:0:0:
208,268,77493,2,0,L|245:268,1,37.5,8|0,0:0|0:0,0:0:0:0:
280,180,77659,1,2,0:0:0:0:
292,164,77743,1,2,0:0:0:0:
308,148,77826,1,2,0:0:0:0:
320,132,77909,1,2,0:0:0:0:
332,116,77993,6,0,P|400:120|424:132,1,75,4|0,0:0|0:0,0:0:0:0:
192,120,78326,2,0,L|136:56,1,75,0|0,0:0|0:0,0:0:0:0:
268,196,78659,1,8,0:0:0:0:
152,100,78826,1,0,0:0:0:0:
256,212,78993,1,0,0:0:0:0:
112,80,79160,1,0,0:0:0:0:
252,24,79326,2,0,P|312:28|336:24,1,75,4|0,0:0|0:0,0:0:0:0:
508,4,79659,2,0,P|464:24|428:76,1,112.5
428,172,79993,2,0,P|452:232|428:308,1,123.75000377655,8|0,0:0|0:0,0:0:0:0:
338,321,80326,1,2,0:0:0:0:
310,313,80409,1,2,0:0:0:0:
282,321,80492,1,2,0:0:0:0:
254,309,80575,1,2,0:0:0:0:
224,320,80659,6,0,P|180:304|144:260,1,89.9999972534181,4|0,0:0|0:0,0:0:0:0:
140,88,80993,2,0,L|44:68,1,89.9999972534181,4|0,0:0|0:0,0:0:0:0:
308,112,81326,2,0,P|339:80|354:38,1,89.9999972534181,8|0,0:0|0:0,0:0:0:0:
384,224,81659,2,0,L|432:300,1,89.9999972534181
496,384,81993,1,0,0:0:0:0:
476,228,82159,1,0,0:0:0:0:
352,172,82326,1,4,0:0:0:0:
488,204,82493,1,0,0:0:0:0:
320,120,82659,2,0,P|264:124|224:88,1,89.9999972534181,8|0,0:0|0:0,0:0:0:0:
504,180,82993,1,0,0:0:0:0:
288,64,83159,1,0,0:0:0:0:
136,172,83326,6,0,B|88:172|88:172|40:128,1,89.9999972534181,4|0,0:0|0:0,0:0:0:0:
320,120,83659,1,0,0:0:0:0:
112,108,83826,1,0,0:0:0:0:
296,56,83993,2,0,B|344:56|344:56|392:100,1,89.9999972534181,8|0,0:0|0:0,0:0:0:0:
144,188,84326,1,0,0:0:0:0:
280,72,84493,1,0,0:0:0:0:
152,204,84659,2,0,L|60:220,1,89.9999972534181,4|0,0:0|0:0,0:0:0:0:
264,88,84993,2,0,L|248:-4,1,89.9999972534181,0|0,0:0|0:0,0:0:0:0:
80,48,85326,1,8,0:0:0:0:
200,200,85493,5,0,0:0:0:0:
248,196,85659,1,0,0:0:0:0:
296,192,85826,1,0,0:0:0:0:
344,188,85993,2,0,L|432:208,1,89.9999972534181,4|0,0:0|0:0,0:0:0:0:
248,104,86326,1,0,0:0:0:0:
168,232,86493,2,0,L|80:248,1,89.9999972534181,0|8,0:0|0:0,0:0:0:0:
232,120,86826,1,0,0:0:0:0:
216,136,87159,2,0,B|188:152|188:152|152:144|152:144|140:104,1,89.9999972534181,0|0,0:0|0:0,0:0:0:0:
112,32,87493,5,0,0:0:0:0:
308,44,87659,1,4,0:0:0:0:
176,244,87826,1,0,0:0:0:0:
132,44,87993,1,8,0:0:0:0:
320,32,88159,2,0,L|392:56,1,44.999998626709
360,148,88326,1,2,0:0:0:0:
352,168,88409,1,2,0:0:0:0:
344,188,88493,1,2,0:0:0:0:
336,208,88576,1,2,0:0:0:0:
328,228,88659,6,0,P|288:248|224:232,1,89.9999972534181,4|0,0:0|0:0,0:0:0:0:
512,236,88993,1,4,0:0:0:0:
352,300,89159,1,0,0:0:0:0:
496,220,89326,2,0,L|508:124,1,89.9999972534181,8|0,0:0|0:0,0:0:0:0:
476,28,89659,1,0,0:0:0:0:
480,204,89826,1,0,0:0:0:0:
456,48,89993,2,0,P|416:16|376:12,1,89.9999972534181
456,96,90326,1,4,0:0:0:0:
460,144,90493,1,0,0:0:0:0:
464,188,90659,2,0,L|328:164,1,134.999995880127,8|0,0:0|0:0,0:0:0:0:
204,128,90993,1,0,0:0:0:0:
220,100,91076,1,0,0:0:0:0:
244,80,91159,1,0,0:0:0:0:
272,68,91243,1,0,0:0:0:0:
304,68,91326,6,0,L|404:104,1,89.9999972534181,4|0,0:0|0:0,0:0:0:0:
256,332,91659,2,0,L|148:328,1,89.9999972534181
64,128,91993,2,0,L|116:48,1,89.9999972534181,8|0,0:0|0:0,0:0:0:0:
396,64,92326,2,0,B|440:76|440:76|472:136,1,89.9999972534181
300,224,92659,5,0,0:0:0:0:
468,228,92826,1,0,0:0:0:0:
380,352,92993,1,4,0:0:0:0:
308,212,93159,1,0,0:0:0:0:
368,336,93326,2,0,L|272:320,1,89.9999972534181,8|0,0:0|0:0,0:0:0:0:
48,292,93659,2,0,L|136:264,1,89.9999972534181
288,204,93993,5,4,0:0:0:0:
184,108,94159,1,0,0:0:0:0:
296,184,94326,1,4,0:0:0:0:
288,8,94493,1,0,0:0:0:0:
172,92,94659,2,0,L|76:116,1,89.9999972534181,8|0,0:0|0:0,0:0:0:0:
308,16,94993,1,0,0:0:0:0:
272,196,95159,1,0,0:0:0:0:
328,24,95326,6,0,P|380:56|420:60,1,89.9999972534181
160,76,95659,1,4,0:0:0:0:
348,32,95826,1,0,0:0:0:0:
248,184,95993,2,0,L|152:152,1,89.9999972534181,8|0,0:0|0:0,0:0:0:0:
444,248,96326,1,0,0:0:0:0:
444,268,96409,1,0,0:0:0:0:
444,288,96493,1,0,0:0:0:0:
444,308,96576,1,0,0:0:0:0:
444,328,96659,6,0,B|392:360|392:360|336:320,1,89.9999972534181,4|0,0:0|0:0,0:0:0:0:
272,220,96993,1,4,0:0:0:0:
400,124,97159,1,0,0:0:0:0:
352,328,97326,1,8,0:0:0:0:
284,236,97493,1,0,0:0:0:0:
384,128,97659,1,0,0:0:0:0:
296,252,97826,1,0,0:0:0:0:
364,132,97993,2,0,B|416:100|416:100|472:140,1,89.9999972534181,0|4,0:0|0:0,0:0:0:0:
308,268,98326,1,4,0:0:0:0:
228,56,98493,1,0,0:0:0:0:
240,156,98659,2,0,P|176:164|148:104,1,134.999995880127,8|0,0:0|0:0,0:0:0:0:
52,156,98993,5,2,0:0:0:0:
64,192,99076,1,2,0:0:0:0:
88,224,99159,1,2,0:0:0:0:
120,248,99243,1,2,0:0:0:0:
156,264,99326,1,2,0:0:0:0:
176,268,99659,1,8,0:0:0:0:
388,72,99826,1,4,0:0:0:0:
400,56,100159,1,8,0:0:0:0:
412,40,100493,1,4,0:0:0:0:
344,112,101326,5,8,0:0:0:0:
256,192,101993,5,4,0:0:0:0:
148,96,102159,2,0,L|204:68,1,56.2500021457673
248,204,102493,1,2,0:0:0:0:
240,216,102826,2,0,L|304:184,1,56.2500021457673,2|0,0:0|0:0,0:0:0:0:
132,104,103159,1,2,0:0:0:0:
116,112,103326,5,2,0:0:0:0:
180,64,103493,1,2,0:0:0:0:
236,120,103659,1,2,0:0:0:0:
304,24,103826,1,2,0:0:0:0:
372,64,103993,1,2,0:0:0:0:
372,144,104159,1,2,0:0:0:0:
296,104,104326,1,2,0:0:0:0:
392,64,104493,1,2,0:0:0:0:
412,64,104576,6,0,L|432:56,2,14.0625005364418,2|0|2,0:0|0:0|0:0,0:0:0:0:
196,144,104993,1,0,0:0:0:0:
280,340,105326,1,2,0:0:0:0:
432,64,105659,2,0,L|496:48,1,56.2500021457673,0|2,0:0|0:0,0:0:0:0:
476,216,105993,5,2,0:0:0:0:
412,320,106159,1,2,0:0:0:0:
312,256,106326,1,2,0:0:0:0:
452,228,106493,1,2,0:0:0:0:
292,268,106659,2,0,L|220:276,1,56.2500021457673,2|2,0:0|0:0,0:0:0:0:
48,80,106993,2,0,L|120:72,1,56.2500021457673,2|2,0:0|0:0,0:0:0:0:
224,60,107326,5,2,0:0:0:0:
304,140,107493,1,2,0:0:0:0:
400,72,107659,1,2,0:0:0:0:
212,76,107826,1,2,0:0:0:0:
320,144,107993,1,2,0:0:0:0:
244,232,108159,1,2,0:0:0:0:
136,200,108326,1,2,0:0:0:0:
340,148,108493,1,2,0:0:0:0:
236,216,108659,5,2,0:0:0:0:
200,92,108826,1,2,0:0:0:0:
120,192,108993,2,0,L|64:252,1,56.2500021457673,2|2,0:0|0:0,0:0:0:0:
368,348,109326,2,0,L|424:288,1,56.2500021457673,0|2,0:0|0:0,0:0:0:0:
380,52,109659,2,0,L|324:112,1,56.2500021457673,0|2,0:0|0:0,0:0:0:0:
228,200,109993,5,10,0:0:0:0:
92,40,110326,1,8,0:0:0:0:
76,56,110493,1,8,0:0:0:0:
364,36,110826,1,8,0:0:0:0:
124,296,111159,1,8,0:0:0:0:
288,260,111326,6,0,L|232:312,1,56.2500021457673,6|2,0:0|0:0,0:0:0:0:
456,236,111659,2,0,L|400:288,1,56.2500021457673,6|2,0:0|0:0,0:0:0:0:
384,52,111993,2,0,L|332:104,1,56.2500021457673,10|2,0:0|0:0,0:0:0:0:
236,200,112326,1,2,0:0:0:0:
208,208,112409,1,2,0:0:0:0:
184,216,112493,1,2,0:0:0:0:
160,220,112576,1,2,0:0:0:0:
136,224,112659,6,0,P|96:192|88:136,1,89.9999972534181,4|0,0:0|0:0,0:0:0:0:
296,116,112993,2,0,L|400:92,1,89.9999972534181,4|0,0:0|0:0,0:0:0:0:
288,292,113326,2,0,P|256:332|200:340,1,89.9999972534181,8|0,0:0|0:0,0:0:0:0:
268,112,113659,1,0,0:0:0:0:
384,72,113826,1,0,0:0:0:0:
480,168,113993,6,0,L|380:192,1,89.9999972534181
272,276,114326,2,0,L|172:300,1,89.9999972534181,4|0,0:0|0:0,0:0:0:0:
88,164,114659,2,0,L|-12:188,1,89.9999972534181,8|0,0:0|0:0,0:0:0:0:
240,108,114993,1,0,0:0:0:0:
384,52,115159,1,0,0:0:0:0:
476,148,115326,6,0,P|432:176|372:176,1,89.9999972534181,4|0,0:0|0:0,0:0:0:0:
223,179,115659,2,0,P|230:223|256:260,1,89.9999972534181,4|0,0:0|0:0,0:0:0:0:
112,224,115993,2,0,P|105:180|80:144,1,89.9999972534181,8|0,0:0|0:0,0:0:0:0:
188,340,116326,2,0,P|256:384|336:332,1,179.999994506836
408,160,116826,5,0,0:0:0:0:
488,244,116993,1,4,0:0:0:0:
396,144,117159,1,0,0:0:0:0:
512,56,117326,1,8,0:0:0:0:
472,228,117493,1,0,0:0:0:0:
296,116,117659,1,0,0:0:0:0:
260,140,117826,1,0,0:0:0:0:
224,160,117993,6,0,L|112:168,1,89.9999972534181,4|0,0:0|0:0,0:0:0:0:
280,268,118326,1,4,0:0:0:0:
360,60,118493,1,0,0:0:0:0:
232,136,118659,6,0,L|120:144,1,89.9999972534181,8|0,0:0|0:0,0:0:0:0:
380,68,118993,1,0,0:0:0:0:
272,248,119160,1,0,0:0:0:0:
240,112,119326,6,0,L|128:120,1,89.9999972534181,4|0,0:0|0:0,0:0:0:0:
264,228,119659,1,4,0:0:0:0:
400,76,119826,1,0,0:0:0:0:
248,88,119993,6,0,L|136:96,1,89.9999972534181,8|0,0:0|0:0,0:0:0:0:
48,324,120326,5,0,0:0:0:0:
88,320,120493,1,0,0:0:0:0:
128,316,120659,1,4,0:0:0:0:
224,192,120826,1,0,0:0:0:0:
248,188,120993,1,4,0:0:0:0:
168,312,121159,1,0,0:0:0:0:
272,184,121326,1,8,0:0:0:0:
200,336,121659,5,8,0:0:0:0:
232,360,121825,1,8,0:0:0:0:
288,168,122159,5,8,0:0:0:0:
300,148,122325,1,8,0:0:0:0:
264,380,122493,1,8,0:0:0:0:
312,128,122659,1,8,0:0:0:0:
312,276,122993,5,10,0:0:0:0:
320,236,123076,1,2,0:0:0:0:
328,188,123159,1,2,0:0:0:0:
336,132,123243,1,2,0:0:0:0:
348,68,123326,5,14,0:0:0:0:
356,32,123659,1,8,0:0:0:0:
292,368,123826,5,8,0:0:0:0:
320,376,124159,1,8,0:0:0:0:
352,368,124493,1,12,0:0:0:0:
504,296,124659,6,0,L|408:288,1,89.9999972534181,2|2,0:0|0:0,0:0:0:0:
0,292,124993,6,0,L|96:272,1,97.4999955368044,2|2,0:0|0:0,0:0:0:0:
436,200,125326,6,0,L|324:160,1,104.999996795654,2|2,0:0|0:0,0:0:0:0:
108,128,125659,5,2,0:0:0:0:
160,104,125743,1,2,0:0:0:0:
220,76,125826,1,2,0:0:0:0:
288,44,125909,1,2,0:0:0:0:
356,12,125993,5,14,0:0:0:0:
376,0,126326,1,8,0:0:0:0:
0,264,126493,5,8,0:0:0:0:
44,296,126826,1,8,0:0:0:0:
96,284,127159,1,12,0:0:0:0:
320,236,127326,6,0,L|428:264,1,104.999996795654,2|2,0:0|0:0,0:0:0:0:
200,96,127659,2,0,L|92:68,1,104.999996795654,2|2,0:0|0:0,0:0:0:0:
420,80,127993,2,0,P|464:48|484:-12,1,104.999996795654,2|2,0:0|0:0,0:0:0:0:
496,212,128326,1,2,0:0:0:0:
512,244,128409,1,2,0:0:0:0:
512,280,128493,1,2,0:0:0:0:
504,316,128576,1,2,0:0:0:0:
480,344,128659,6,0,P|420:360|376:388,1,104.999996795654,4|0,0:0|0:0,0:0:0:0:
344,188,128993,2,0,L|368:76,1,104.999996795654,4|0,0:0|0:0,0:0:0:0:
328,296,129326,1,8,0:0:0:0:
328,156,129493,1,0,0:0:0:0:
312,300,129659,1,0,0:0:0:0:
312,124,129826,1,0,0:0:0:0:
252,212,129993,2,0,P|184:224|128:188,1,104.999996795654,0|0,0:0|0:0,0:0:0:0:
0,80,130326,6,0,P|52:48|176:56,1,157.499995193482,4|0,0:0|0:0,0:0:0:0:
296,88,130659,2,0,P|360:92|476:16,1,168.750006437302,8|0,0:0|0:0,0:0:0:0:
472,144,130993,1,0,0:0:0:0:
504,176,131076,1,0,0:0:0:0:
512,220,131159,1,0,0:0:0:0:
504,264,131243,1,0,0:0:0:0:
472,296,131326,6,0,P|424:328|336:320,1,104.999996795654,4|0,0:0|0:0,0:0:0:0:
56,188,131659,2,0,L|184:160,1,104.999996795654,4|0,0:0|0:0,0:0:0:0:
344,28,131993,2,0,P|376:76|368:168,1,104.999996795654,8|0,0:0|0:0,0:0:0:0:
336,308,132326,1,0,0:0:0:0:
228,216,132493,1,0,0:0:0:0:
308,100,132659,5,0,0:0:0:0:
200,188,132826,1,0,0:0:0:0:
336,268,132993,1,4,0:0:0:0:
440,168,133159,1,0,0:0:0:0:
336,228,133326,1,8,0:0:0:0:
200,148,133493,1,0,0:0:0:0:
324,64,133659,2,0,L|464:48,1,104.999996795654
200,108,133993,6,0,B|144:120|144:120|80:104,1,104.999996795654,4|0,0:0|0:0,0:0:0:0:
336,188,134326,1,4,0:0:0:0:
200,64,134493,1,0,0:0:0:0:
376,208,134659,2,0,B|396:264|396:264|380:324,1,104.999996795654,8|0,0:0|0:0,0:0:0:0:
204,344,134993,1,0,0:0:0:0:
336,268,135159,1,0,0:0:0:0:
168,336,135326,6,0,L|60:360,1,104.999996795654
200,152,135659,2,0,L|224:260,1,104.999996795654,4|0,0:0|0:0,0:0:0:0:
176,64,135993,1,8,0:0:0:0:
448,80,136159,1,0,0:0:0:0:
424,124,136326,1,0,0:0:0:0:
400,168,136493,1,0,0:0:0:0:
372,208,136659,6,0,P|312:224|244:216,1,104.999996795654,4|0,0:0|0:0,0:0:0:0:
472,124,136993,1,0,0:0:0:0:
384,304,137159,2,0,P|444:320|512:312,1,104.999996795654,0|8,0:0|0:0,0:0:0:0:
240,244,137493,1,0,0:0:0:0:
216,268,137826,1,0,0:0:0:0:
192,292,137993,6,0,B|140:312|140:312|104:252,1,104.999996795654,4|0,0:0|0:0,0:0:0:0:
32,76,138326,1,0,0:0:0:0:
168,232,138493,2,0,P|224:224|280:172,1,104.999996795654,4|0,0:0|0:0,0:0:0:0:
348,36,138826,1,2,0:0:0:0:
400,124,138993,1,2,0:0:0:0:
364,141,139076,1,2,0:0:0:0:
324,143,139159,1,2,0:0:0:0:
286,129,139243,1,2,0:0:0:0:
263,97,139326,6,0,P|169:58|144:73,1,112.500004291535,4|0,0:0|0:0,0:0:0:0:
28,172,139659,1,4,0:0:0:0:
192,128,139826,1,0,0:0:0:0:
140,240,139993,2,0,L|272:248,1,112.500004291535,8|0,0:0|0:0,0:0:0:0:
440,252,140326,1,0,0:0:0:0:
336,336,140493,1,0,0:0:0:0:
440,216,140659,6,0,P|376:192|360:120,1,112.500004291535,4|0,0:0|0:0,0:0:0:0:
416,32,140993,1,4,0:0:0:0:
272,144,141159,1,0,0:0:0:0:
440,64,141326,2,0,L|440:192,1,112.500004291535,8|0,0:0|0:0,0:0:0:0:
440,376,141659,1,0,0:0:0:0:
372,248,141826,1,0,0:0:0:0:
308,324,141993,6,0,P|248:272|248:216,1,112.500004291535,4|0,0:0|0:0,0:0:0:0:
14,127,142326,2,0,L|120:88,1,112.500004291535,4|0,0:0|0:0,0:0:0:0:
412,44,142659,2,0,P|456:80|472:152,1,112.500004291535,8|0,0:0|0:0,0:0:0:0:
280,308,142993,2,0,B|232:336|232:336|132:300,1,112.500004291535
48,244,143326,5,0,0:0:0:0:
220,260,143493,1,0,0:0:0:0:
148,112,143659,1,4,0:0:0:0:
308,56,143826,1,0,0:0:0:0:
164,120,143993,1,8,0:0:0:0:
232,248,144159,1,0,0:0:0:0:
68,256,144326,2,0,L|-8:356,1,112.500004291535,0|0,0:0|0:0,0:0:0:0:
200,348,144659,6,0,P|252:360|304:348,2,104.999996795654,4|0|4,0:0|0:0|0:0,0:0:0:0:
132,100,145159,1,0,0:0:0:0:
160,96,145326,2,0,L|268:156,1,104.999996795654,8|0,0:0|0:0,0:0:0:0:
400,216,145659,1,0,0:0:0:0:
464,128,145826,1,4,0:0:0:0:
328,312,145993,6,0,P|276:324|224:312,2,104.999996795654,4|0|4,0:0|0:0|0:0,0:0:0:0:
452,88,146493,1,0,0:0:0:0:
432,116,146659,2,0,L|324:128,1,104.999996795654,8|0,0:0|0:0,0:0:0:0:
184,260,146993,2,0,L|172:152,1,104.999996795654
156,32,147326,5,4,0:0:0:0:
53,190,147493,1,8,0:0:0:0:
211,293,147659,1,12,0:0:0:0:
314,134,147826,1,8,0:0:0:0:
160,52,147993,1,12,0:0:0:0:
164,72,148326,5,8,0:0:0:0:
196,276,148493,1,12,0:0:0:0:
157,32,148826,5,8,0:0:0:0:
304,156,148993,1,12,0:0:0:0:
180,298,149159,1,8,0:0:0:0:
35,175,149326,1,12,0:0:0:0:
136,144,149493,1,10,0:0:0:0:
164,236,149659,1,2,0:0:0:0:
168,252,149743,1,2,0:0:0:0:
172,268,149826,1,2,0:0:0:0:
176,284,149909,1,2,0:0:0:0:
180,298,149993,6,0,L|104:368,2,75,4|0|4,0:0|0:0|0:0,0:0:0:0:
260,216,150493,1,0,0:0:0:0:
320,256,150659,2,0,L|412:240,1,75,8|0,0:0|0:0,0:0:0:0:
128,124,151159,1,0,0:0:0:0:
84,184,151326,6,0,P|28:180|0:148,2,75,4|0|4,0:0|0:0|0:0,0:0:0:0:
204,152,151826,1,0,0:0:0:0:
264,192,151992,2,0,L|356:176,1,75,8|0,0:0|0:0,0:0:0:0:
24,284,152493,1,0,0:0:0:0:
92,304,152659,6,0,B|80:336|80:336|28:356,2,75,4|0|4,0:0|0:0|0:0,0:0:0:0:
148,84,153159,1,0,0:0:0:0:
208,124,153325,2,0,L|292:108,1,75,8|0,0:0|0:0,0:0:0:0:
376,92,153659,1,0,0:0:0:0:
396,156,153826,1,0,0:0:0:0:
420,220,153993,5,2,0:0:0:0:
300,232,154159,1,2,0:0:0:0:
228,320,154326,1,2,0:0:0:0:
112,360,154493,1,2,0:0:0:0:
24,232,154659,2,0,L|-8:276,3,37.5,2|2|2|2,0:0|0:0|0:0|0:0,0:0:0:0:
120,208,154993,2,0,P|208:212|296:128,1,168.750006437302,8|0,0:0|0:0,0:0:0:0:
376,72,155326,5,4,0:0:0:0:
512,0,155659,1,12,0:0:0:0:
256,316,155826,1,12,0:0:0:0:
512,372,156159,1,12,0:0:0:0:
64,92,156493,1,12,0:0:0:0:
56,120,157326,6,0,L|-8:104,3,56.2500021457673,2|2|2|2,0:0|0:0|0:0|0:0,0:0:0:0:
32,212,157659,2,0,P|108:200|152:116,1,168.750006437302,8|0,0:0|0:0,0:0:0:0:
180,36,157993,1,12,0:0:0:0:
512,0,158326,1,12,0:0:0:0:
368,384,158493,1,12,0:0:0:0:
24,196,158826,1,12,0:0:0:0:
308,48,159159,1,12,0:0:0:0:
376,0,159993,5,8,0:0:0:0:
256,192,160659,1,4,0:0:0:0:
256,192,163029,12,2,166537,0:0:0:0:
