osu file format v14

[General]
AudioFilename: Deemo - Evolution Era.mp3
AudioLeadIn: 0
PreviewTime: 128659
Countdown: 0
SampleSet: Soft
StackLeniency: 0.4
Mode: 0
LetterboxInBreaks: 0
StoryFireInFront: 0
EpilepsyWarning: 1
WidescreenStoryboard: 1

[Editor]
Bookmarks: 47993,77993
DistanceSpacing: 1.1
BeatDivisor: 4
GridSize: 4
TimelineZoom: 1.6

[Metadata]
Title:Evolution Era
TitleUnicode:Evolution Era
Artist:V.K
ArtistUnicode:V.K
Creator:FreeSongs
Version:Beginner
Source:Deemo
Tags:
BeatmapID:626359
BeatmapSetID:238434

[Difficulty]
HPDrainRate:3
CircleSize:3
OverallDifficulty:3
ApproachRate:4
SliderMultiplier:1.1
SliderTickRate:1

[Events]
//Background and Video events
0,0,"maxresdefault.jpg",0,0
//Break Periods
2,19193,20673
2,160859,161709
//Storyboard Layer 0 (Background)
//Storyboard Layer 1 (Fail)
//Storyboard Layer 2 (Pass)
//Storyboard Layer 3 (Foreground)
//Storyboard Sound Samples

[TimingPoints]
660,333.333333333333,4,2,1,100,1,0
660,-125,4,2,1,100,0,0
16659,-125,4,2,1,25,0,0
17993,-125,4,2,1,30,0,0
21159,-125,4,2,1,35,0,0
40326,-125,4,2,3,35,0,0
45326,-125,4,2,1,50,0,0
77993,-125,4,2,1,65,0,1
101993,-125,4,2,3,30,0,0
102159,-125,4,2,1,40,0,0
112659,-125,4,2,1,50,0,0
128659,-125,4,2,1,65,0,1
149326,-125,4,2,1,65,0,0
149993,-125,4,2,1,20,0,0
154993,-125,4,2,1,50,0,0
155326,-125,4,2,1,70,0,1
160659,-125,4,2,1,70,0,0
163029,334.133333333333,4,2,1,70,1,0

[HitObjects]
84,192,660,5,2,0:0:0:0:
376,192,1659,1,2,0:0:0:0:
376,192,3326,5,2,0:0:0:0:
212,92,3993,1,0,0:0:0:0:
160,172,4326,1,0,0:0:0:0:
452,184,5326,1,0,0:0:0:0:
492,272,5659,1,0,0:0:0:0:
448,360,5993,6,0,P|316:360|288:240,1,264,2|2,0:0|0:0,0:0:0:0:
284,250,8659,6,0,P|348:220|368:120,1,176,0|0,0:0|0:0,0:0:0:0:
276,152,9659,2,0,B|144:168|232:304|88:316,1,264,0|2,0:0|0:0,0:0:0:0:
8,268,10993,1,2,0:0:0:0:
92,220,11326,5,2,0:0:0:0:
372,296,12326,1,2,0:0:0:0:
372,296,13993,6,0,P|436:268|456:172,1,176,2|0,0:0|0:0,0:0:0:0:
364,200,14993,2,0,P|288:172|340:24,1,264,0|2,0:0|0:0,0:0:0:0:
424,44,16326,1,2,0:0:0:0:
356,112,16659,5,8,0:0:0:0:
480,376,17659,1,0,0:0:0:0:
256,60,18993,1,2,0:0:0:0:
164,260,21993,6,0,P|128:276|12:124,1,264,0|0,0:0|0:0,0:0:0:0:
380,40,24326,1,0,0:0:0:0:
448,108,24659,6,0,P|468:168|436:240,1,132,0|0,0:0|0:0,0:0:0:0:
380,304,25493,1,0,0:0:0:0:
332,168,25993,1,0,0:0:0:0:
236,276,26493,2,0,P|196:300|148:308,1,88,0|0,0:0|0:0,0:0:0:0:
12,300,27326,5,0,0:0:0:0:
128,36,28326,1,0,0:0:0:0:
128,36,29993,6,0,P|168:68|252:56,1,132,0|0,0:0|0:0,0:0:0:0:
328,12,30826,1,0,0:0:0:0:
472,36,31326,2,0,P|440:104|396:140,1,132,0|0,0:0|0:0,0:0:0:0:
300,152,32159,1,0,0:0:0:0:
164,200,32659,2,0,P|144:268|292:332,1,264,0|0,0:0|0:0,0:0:0:0:
248,248,35326,6,0,P|188:292|120:284,1,132,0|0,0:0|0:0,0:0:0:0:
168,200,36159,1,0,0:0:0:0:
264,92,36659,2,0,B|264:152|264:152|316:164|332:204,1,132,0|0,0:0|0:0,0:0:0:0:
344,284,37493,1,0,0:0:0:0:
440,176,37993,6,0,B|424:104|356:72|356:72|332:0|256:0,1,264,0|0,0:0|0:0,0:0:0:0:
256,192,40326,1,4,0:0:0:0:
256,192,41993,12,0,44326,0:0:0:0:
36,44,46326,5,4,0:0:0:0:
8,136,46659,2,0,P|16:188|48:224,1,88,8|0,0:0|0:0,0:0:0:0:
200,108,47659,1,4,0:0:0:0:
296,96,47993,2,0,L|400:80,1,88,8|0,0:0|0:0,0:0:0:0:
440,160,48659,6,0,P|440:204|412:252,1,88,4|0,0:0|0:0,0:0:0:0:
344,184,49326,1,8,0:0:0:0:
360,328,49826,1,0,0:0:0:0:
288,264,50159,2,0,L|152:264,1,132,4|8,0:0|0:0,0:0:0:0:
60,264,50993,1,2,0:0:0:0:
0,80,51659,6,0,L|104:104,1,88,0|8,0:0|0:0,0:0:0:0:
180,120,52326,2,0,L|324:92,1,132,0|0,0:0|0:0,0:0:0:0:
452,64,53326,1,8,0:0:0:0:
428,160,53659,1,0,0:0:0:0:
472,248,53993,6,0,P|440:304|408:316,1,88,4|4,0:0|0:0,0:0:0:0:
324,320,54659,2,0,P|268:288|256:256,1,88,8|0,0:0|0:0,0:0:0:0:
68,80,56993,6,0,L|168:104,2,88,0|8|0,0:0|0:0|0:0,0:0:0:0:
164,192,58159,2,0,P|236:144|244:88,1,132,0|8,0:0|0:0,0:0:0:0:
200,16,58993,1,0,0:0:0:0:
296,20,59326,6,0,L|444:24,2,132,4|0|4,0:0|0:0|0:0,0:0:0:0:
120,104,60993,2,0,P|68:180|104:268,1,176,4|6,0:0|0:0,0:0:0:0:
164,192,61993,2,0,L|256:192,2,88,4|0|8,0:0|0:0|0:0,0:0:0:0:
340,268,63326,1,0,0:0:0:0:
332,76,63993,2,0,P|384:98|405:129,1,88,8|0,0:0|0:0,0:0:0:0:
410,219,64659,5,4,0:0:0:0:
263,231,65159,2,0,L|328:154,2,88,8|8|12,0:0|0:0|0:0,0:0:0:0:
128,32,66659,6,0,L|8:180,1,176,8|4,0:0|0:0,0:0:0:0:
212,164,67993,1,8,0:0:0:0:
128,340,68659,2,0,P|212:360|304:336,1,176,0|8,0:0|0:0,0:0:0:0:
408,180,69993,5,6,0:0:0:0:
212,164,70659,1,8,0:0:0:0:
388,84,71326,2,0,P|444:88|504:192,1,176,0|8,0:0|0:0,0:0:0:0:
320,240,72659,6,0,L|228:256,1,88,4|4,0:0|0:0,0:0:0:0:
136,272,73326,1,8,0:0:0:0:
0,132,73993,2,0,L|92:116,1,88,4|4,0:0|0:0,0:0:0:0:
184,100,74660,1,8,0:0:0:0:
320,240,75326,1,4,0:0:0:0:
388,112,75826,2,0,L|432:32,1,88,8|4,0:0|0:0,0:0:0:0:
336,16,76493,2,0,P|172:52|72:4,1,264,8|8,0:0|0:0,0:0:0:0:
24,168,77993,6,0,P|20:228|120:288,1,176,4|8,0:0|0:0,0:0:0:0:
296,328,79326,2,0,P|336:352|364:384,2,88,4|0|8,0:0|0:0|0:0,0:0:0:0:
212,276,80326,1,2,0:0:0:0:
172,188,80659,2,0,P|192:116|284:80,1,176,4|8,0:0|0:0,0:0:0:0:
268,176,81659,2,0,P|303:228|424:224,1,176,0|4,0:0|0:0,0:0:0:0:
360,152,82659,1,8,0:0:0:0:
192,56,83326,6,0,L|136:236,1,176,4|8,0:0|0:0,0:0:0:0:
312,316,84659,1,4,0:0:0:0:
404,352,84993,2,0,L|508:380,2,88,0|8|0,0:0|0:0|0:0,0:0:0:0:
388,256,85993,2,0,P|368:216|388:120,1,132,4|4,0:0|0:0,0:0:0:0:
436,52,86826,1,8,0:0:0:0:
340,44,87159,2,0,L|200:32,1,132,4|4,0:0|0:0,0:0:0:0:
112,24,87993,2,0,B|32:32|12:80|12:80|52:120,1,176,8|4,0:0|0:0,0:0:0:0:
129,177,88993,5,4,0:0:0:0:
104,272,89326,2,0,L|76:368,1,88,8|0,0:0|0:0,0:0:0:0:
172,380,89993,2,0,P|224:380|296:284,1,176,0|8,0:0|0:0,0:0:0:0:
272,196,90993,1,0,0:0:0:0:
188,148,91326,2,0,P|176:196|192:248,2,88,4|0|8,0:0|0:0|0:0,0:0:0:0:
272,100,92326,2,0,P|320:100|392:4,1,176,0|4,0:0|0:0,0:0:0:0:
296,8,93326,2,0,B|224:8|192:60|192:60|144:24,1,176,8|4,0:0|0:0,0:0:0:0:
4,48,94493,6,0,L|32:192,1,132,8|4,0:0|0:0,0:0:0:0:
112,228,95326,2,0,B|172:228|212:228|212:228|252:244|252:244,2,132,4|8|4,0:0|0:0|0:0,0:0:0:0:
28,276,96659,2,0,B|64:324|112:324|112:324|200:324,1,176,4|8,0:0|0:0,0:0:0:0:
332,320,97826,2,0,L|400:244,1,88,0|4,0:0|0:0,0:0:0:0:
480,140,98659,1,8,0:0:0:0:
288,172,99326,6,0,P|248:144|232:48,1,132,2|4,0:0|0:0,0:0:0:0:
324,84,100159,1,8,0:0:0:0:
384,160,100493,2,0,P|368:228|232:248,1,220,4|8,0:0|0:0,0:0:0:0:
124,96,101993,6,0,L|-16:152,1,132,4|2,0:0|0:0,0:0:0:0:
192,176,103159,2,0,P|228:96|184:12,1,176,2|2,0:0|0:0,0:0:0:0:
112,248,104659,2,0,L|200:280,1,88,2|0,0:0|0:0,0:0:0:0:
288,308,105326,2,0,L|376:276,1,88,2|0,0:0|0:0,0:0:0:0:
460,244,105993,1,2,0:0:0:0:
440,52,106659,2,0,P|380:76|304:-4,1,176,2|2,0:0|0:0,0:0:0:0:
172,64,107826,6,0,B|212:120|212:184|212:184|180:148|120:140,1,220,2|2,0:0|0:0,0:0:0:0:
136,240,108993,2,0,P|216:276|300:224,1,176,2|0,0:0|0:0,0:0:0:0:
320,140,109993,2,0,B|392:168|392:252,1,132,10|8,0:0|0:0,0:0:0:0:
348,328,110826,2,0,L|440:352,1,88,8|8,0:0|0:0,0:0:0:0:
496,276,111493,1,2,0:0:0:0:
464,184,111826,1,2,0:0:0:0:
496,92,112159,2,0,P|440:56|368:60,1,132,2|4,0:0|0:0,0:0:0:0:
296,112,112993,6,0,L|208:92,1,88,4|8,0:0|0:0,0:0:0:0:
116,64,113659,1,0,0:0:0:0:
68,148,113993,2,0,P|60:216|76:248,2,88,0|4|8,0:0|0:0|0:0,0:0:0:0:
156,192,114993,1,0,0:0:0:0:
148,288,115326,2,0,P|104:324|64:332,2,88,4|4|8,0:0|0:0|0:0,0:0:0:0:
236,248,116326,2,0,L|424:276,1,176,0|4,0:0|0:0,0:0:0:0:
416,176,117326,2,0,L|504:148,1,88,8|0,0:0|0:0,0:0:0:0:
444,72,117993,6,0,P|352:64|300:-4,1,176,4|8,0:0|0:0,0:0:0:0:
224,60,118993,1,0,0:0:0:0:
148,120,119326,2,0,L|56:84,2,88,4|4|8,0:0|0:0|0:0,0:0:0:0:
240,156,120326,1,0,0:0:0:0:
164,216,120659,2,0,L|152:304,2,88,4|4|8,0:0|0:0|0:0,0:0:0:0:
236,344,121826,2,0,P|288:343|346:274,1,132,8|8,0:0|0:0,0:0:0:0:
253,249,122659,1,8,0:0:0:0:
408,136,123326,6,0,P|344:104|324:48,1,132,14|8,0:0|0:0,0:0:0:0:
420,40,124159,1,8,0:0:0:0:
420,40,124493,1,12,0:0:0:0:
60,284,125993,5,14,0:0:0:0:
88,140,126493,2,0,L|108:40,2,88,8|8|12,0:0|0:0|0:0,0:0:0:0:
484,192,128659,6,0,P|472:260|376:284,1,176,4|8,0:0|0:0,0:0:0:0:
224,168,129993,2,0,P|176:176|132:208,1,88,0|4,0:0|0:0,0:0:0:0:
212,264,130659,2,0,P|242:301|292:323,1,88,8|0,0:0|0:0,0:0:0:0:
300,224,131326,2,0,P|317:178|311:124,1,88,4|4,0:0|0:0,0:0:0:0:
288,48,131993,1,8,0:0:0:0:
208,100,132326,2,0,P|152:124|52:64,1,176,0|4,0:0|0:0,0:0:0:0:
144,28,133326,1,8,0:0:0:0:
96,216,133993,6,0,B|72:264|24:288|24:288|76:284|104:304,1,176,4|8,0:0|0:0,0:0:0:0:
184,336,134993,1,0,0:0:0:0:
272,380,135326,2,0,P|328:376|364:352,2,88,0|4|8,0:0|0:0|0:0,0:0:0:0:
292,284,136326,1,0,0:0:0:0:
292,284,136659,2,0,P|248:264|240:184,1,132,4|4,0:0|0:0,0:0:0:0:
292,108,137493,1,8,0:0:0:0:
376,156,137826,2,0,P|424:148|456:120,2,88,4|0|4,0:0|0:0|0:0,0:0:0:0:
380,60,138826,1,2,0:0:0:0:
240,28,139326,6,0,L|136:60,1,88,4|4,0:0|0:0,0:0:0:0:
64,84,139993,1,8,0:0:0:0:
136,148,140326,1,0,0:0:0:0:
120,244,140659,2,0,P|148:284|192:308,1,88,4|4,0:0|0:0,0:0:0:0:
276,280,141326,1,8,0:0:0:0:
360,328,141659,1,0,0:0:0:0:
440,276,141993,2,0,L|512:224,2,88,4|4|8,0:0|0:0|0:0,0:0:0:0:
352,236,142993,2,0,P|340:164|420:88,1,176,0|4,0:0|0:0,0:0:0:0:
432,184,143993,1,8,0:0:0:0:
288,52,144659,6,0,P|232:64|144:48,1,132,4|2,0:0|0:0,0:0:0:0:
24,108,145659,1,0,0:0:0:0:
116,140,145993,2,0,L|156:272,1,132,4|2,0:0|0:0,0:0:0:0:
280,192,146993,1,0,0:0:0:0:
340,268,147326,2,0,P|376:216|376:180,1,88,4|12,0:0|0:0,0:0:0:0:
332,108,147993,1,12,0:0:0:0:
456,184,148493,1,12,0:0:0:0:
408,48,148993,2,0,P|380:24|312:16,1,88,12|12,0:0|0:0,0:0:0:0:
200,156,149993,6,0,B|92:192|92:192|92:156,1,132,4|2,0:0|0:0,0:0:0:0:
324,236,151326,2,0,B|432:272|432:272|432:236,1,132,4|2,0:0|0:0,0:0:0:0:
200,328,152659,2,0,B|92:364|92:364|92:328,1,132,4|2,0:0|0:0,0:0:0:0:
208,132,153993,2,0,P|228:180|304:120,1,176,2|2,0:0|0:0,0:0:0:0:
260,44,154993,1,8,0:0:0:0:
164,48,155326,6,0,P|120:96|120:168,1,132,4|12,0:0|0:0,0:0:0:0:
144,252,156159,1,12,0:0:0:0:
48,232,156493,1,12,0:0:0:0:
272,328,157326,2,0,P|336:332|420:256,1,176,2|12,0:0|0:0,0:0:0:0:
424,116,158493,6,0,L|512:152,2,88,12|12|12,0:0|0:0|0:0,0:0:0:0:
200,28,159993,1,8,0:0:0:0:
300,192,160659,1,4,0:0:0:0:
256,192,163029,12,2,166537,0:0:0:0:
