osu file format v13

[General]
AudioFilename: Close to you V flower.mp3
AudioLeadIn: 0
PreviewTime: 152031
Countdown: 0
SampleSet: Soft
StackLeniency: 0.7
Mode: 0
LetterboxInBreaks: 1
WidescreenStoryboard: 0

[Editor]
Bookmarks: 1242,30926,41031,60768,69452,79557,87136,92189,107347,116820,132610,150294,223567,231146
DistanceSpacing: 1.5
BeatDivisor: 4
GridSize: 4
TimelineZoom: 1

[Metadata]
Title:Close to you
TitleUnicode:カバー
Artist:V Flower
ArtistUnicode:V Flower
Creator:Indeed
Version:Insane
Source:
Tags:vocaloid niki
BeatmapID:567465
BeatmapSetID:246358

[Difficulty]
HPDrainRate:7.5
CircleSize:4
OverallDifficulty:8
ApproachRate:9.2
SliderMultiplier:1.6
SliderTickRate:1

[Events]
//Background and Video events
0,0,"rumia_white_hair_anime_girl_sad_screaming_hd-wallpaper-1523555.jpg",0,0
//Break Periods
2,20820,30366
2,223609,230576
//Storyboard Layer 0 (Background)
//Storyboard Layer 1 (Fail)
//Storyboard Layer 2 (Pass)
//Storyboard Layer 3 (Foreground)
//Storyboard Sound Samples

[TimingPoints]
1252,315.789473684211,4,2,0,55,1,0
30936,-100,4,1,0,65,0,0
41673,-100,4,2,0,55,0,0
51778,-100,4,2,0,60,0,0
70399,-153.846153846153,4,2,0,60,0,0
71199,-100,4,2,0,60,0,0
71988,-83.3333333333333,4,1,0,80,0,1
87146,-83.3333333333333,4,1,0,80,0,0
92199,-83.3333333333333,4,1,0,80,0,1
112409,-100,4,1,0,75,0,0
122515,-100,4,2,0,65,0,0
151252,-153.846153846154,4,2,0,65,0,0
152041,-100,4,1,0,65,0,0
152830,-83.3333333333333,4,1,0,80,0,1
167988,-83.3333333333333,4,1,0,80,0,0
173041,-83.3333333333333,4,1,0,80,0,1
193252,-100,4,1,0,75,0,0
203357,-125,4,2,0,70,0,0
223567,-100,4,2,0,55,0,0
231146,-83.3333333333333,4,1,0,85,0,1
246304,-83.3333333333333,4,1,0,85,0,0
251357,-83.3333333333333,4,1,0,85,0,1
266515,-83.3333333333333,4,1,0,80,0,0
279778,-83.3333333333333,4,2,0,5,0,0

[HitObjects]
88,60,1252,6,0,P|140:92|184:96,1,80
268,104,1567,1,0,0:0:0:0:
368,52,1725,1,0,0:0:0:0:
444,136,1883,2,0,P|464:176|460:216,1,80
444,320,2199,2,0,P|396:304|376:276,1,80
284,220,2515,2,0,P|192:200|128:236,1,160
216,304,2988,1,0,0:0:0:0:
328,316,3146,2,0,P|380:296|400:256,1,80
452,180,3462,2,0,L|488:96,1,80
400,32,3778,6,0,P|352:64|308:64,1,80
220,60,4094,1,0,0:0:0:0:
220,60,4252,1,0,0:0:0:0:
116,20,4409,2,0,P|116:104|184:164,1,160
268,204,4883,1,0,0:0:0:0:
364,264,5041,2,0,P|396:304|396:336,1,80
284,344,5357,2,0,P|224:336|200:308,1,80
136,240,5673,2,0,L|72:168,1,80
76,68,5988,2,0,P|112:96|160:88,1,80
252,64,6304,6,0,B|292:48|292:48|336:68|412:48,1,160
480,136,6778,1,0,0:0:0:0:
452,244,6936,2,0,P|436:288|396:312,1,80
348,216,7252,2,0,L|276:168,1,80
172,144,7567,2,0,P|188:196|172:228,1,80
132,320,7883,1,0,0:0:0:0:
132,320,8041,1,0,0:0:0:0:
244,308,8199,2,0,L|344:296,1,80
432,336,8515,2,0,P|412:292|428:256,1,80
436,152,8830,6,0,P|432:108|404:76,1,80
308,32,9146,1,0,0:0:0:0:
308,32,9304,1,0,0:0:0:0:
228,108,9462,2,0,L|168:168,1,80
64,200,9778,2,0,P|116:272|200:264,1,160
284,228,10252,1,0,0:0:0:0:
376,292,10409,2,0,P|416:312|460:312,1,80
440,200,10725,2,0,L|456:116,1,80
392,28,11041,2,0,P|368:68|328:84,1,80
228,88,11357,6,0,P|164:96|100:168,1,160
68,272,11830,1,0,0:0:0:0:
172,320,11988,2,0,L|248:352,1,80
356,332,12304,2,0,P|316:296|308:272,1,80
292,164,12620,1,0,0:0:0:0:
292,164,12778,1,0,0:0:0:0:
244,64,12936,2,0,P|196:32|164:32,1,80
64,40,13252,2,0,P|92:104|116:116,1,80
72,216,13567,2,0,P|120:220|160:200,1,80
252,164,13883,6,0,B|344:124|344:124|380:128|416:120,1,160
512,84,14357,1,0,0:0:0:0:
480,192,14515,2,0,L|452:288,1,80
380,348,14830,2,0,P|352:300|352:264,1,80
356,164,15146,2,0,P|344:112|316:88,1,80
228,40,15462,1,0,0:0:0:0:
228,40,15620,1,0,0:0:0:0:
148,120,15778,2,0,L|88:188,1,80
80,292,16094,2,0,P|128:268|172:272,1,80
256,316,16409,6,0,P|304:336|348:332,1,80
444,324,16725,1,0,0:0:0:0:
444,324,16883,1,0,0:0:0:0:
440,212,17041,2,0,B|436:156|436:156|480:100|416:52,1,160
328,20,17515,1,0,0:0:0:0:
248,96,17673,2,0,L|184:160,1,80
144,256,17988,2,0,P|192:268|216:304,1,80
296,364,18304,2,0,P|340:368|372:344,1,80
476,316,18620,2,0,P|440:264|412:256,1,80
324,212,18936,5,0,0:0:0:0:
112,72,30936,6,0,P|152:108|184:116,1,80
288,124,31252,1,0,0:0:0:0:
328,124,31330,1,0,0:0:0:0:
368,136,31409,1,0,0:0:0:0:
400,156,31488,1,0,0:0:0:0:
420,188,31567,2,0,P|408:240|372:276,1,80,4|0,0:0|0:0,0:0:0:0:
308,336,31883,2,0,P|236:352|148:324,1,160
56,272,32357,1,0,0:0:0:0:
88,164,32515,6,0,L|112:72,1,80
196,16,32830,2,0,P|208:64|244:88,1,80
328,140,33146,1,0,0:0:0:0:
328,140,33304,1,0,0:0:0:0:
436,104,33462,2,0,P|416:212|368:248,1,160
344,264,33857,1,0,0:0:0:0:
300,272,33936,1,0,0:0:0:0:
252,272,34015,1,0,0:0:0:0:
212,264,34094,6,0,P|168:244|144:212,1,80,4|0,0:0|0:0,0:0:0:0:
48,172,34409,2,0,P|72:136|112:120,1,80
140,16,34725,2,0,L|288:104,1,160
376,152,35199,1,0,0:0:0:0:
416,256,35357,2,0,P|420:308|392:340,1,80
308,272,35673,2,0,L|220:236,1,80
124,228,35988,2,0,P|141:178|172:154,1,80
252,96,36304,1,0,0:0:0:0:
348,40,36462,1,0,0:0:0:0:
376,152,36620,6,0,L|400:256,1,80,4|0,0:0|0:0,0:0:0:0:
308,304,36936,2,0,P|288:260|236:252,1,80
156,292,37252,2,0,P|152:200|196:152,1,160
288,92,37725,1,0,0:0:0:0:
192,36,37883,2,0,P|148:24|96:32,1,80
16,80,38199,1,0,0:0:0:0:
112,136,38357,1,0,0:0:0:0:
36,216,38515,1,0,0:0:0:0:
120,288,38673,1,0,0:0:0:0:
220,336,38830,6,0,L|304:372,1,80
392,312,39146,2,0,P|344:288|328:256,1,80,4|0,0:0|0:0,0:0:0:0:
276,168,39462,1,0,0:0:0:0:
276,168,39620,1,0,0:0:0:0:
352,88,39778,2,0,P|292:60|252:68,1,80,4|0,0:0|0:0,0:0:0:0:
168,44,40094,2,0,P|172:96|196:136,1,80
228,224,40409,2,0,L|264:300,1,80,4|0,0:0|0:0,0:0:0:0:
176,368,40725,2,0,P|144:328|112:320,1,80
12,280,41041,5,0,0:0:0:0:
20,240,41120,1,0,0:0:0:0:
36,204,41199,1,0,0:0:0:0:
68,180,41278,1,0,0:0:0:0:
104,168,41357,1,0,0:0:0:0:
144,168,41436,1,0,0:0:0:0:
180,184,41515,1,0,0:0:0:0:
220,196,41594,1,0,0:0:0:0:
256,212,41673,6,0,P|304:224|344:212,1,80,4|0,0:0|0:0,0:0:0:0:
432,164,41988,1,0,0:0:0:0:
432,164,42146,1,0,0:0:0:0:
480,64,42304,2,0,P|380:64|336:108,1,160
264,188,42778,1,0,0:0:0:0:
188,108,42936,2,0,L|120:56,1,80
16,84,43252,2,0,P|36:132|24:172,1,80
28,272,43567,2,0,P|64:312|92:316,1,80
200,324,43883,2,0,P|196:280|160:240,1,80
128,148,44199,6,0,B|168:124|168:124|220:116|272:80,1,160
364,20,44673,1,0,0:0:0:0:
412,120,44830,2,0,L|456:196,1,80
452,304,45146,2,0,P|416:272|368:272,1,80
272,272,45462,1,0,0:0:0:0:
272,272,45620,1,0,0:0:0:0:
164,296,45778,2,0,P|160:252|180:216,1,80
244,132,46094,2,0,P|272:104|284:56,1,80,0|0,0:0|0:0,0:0:0:0:
172,44,46409,2,0,L|80:0,1,80
28,96,46725,6,0,P|60:124|64:168,1,80
52,272,47041,1,0,0:0:0:0:
52,272,47199,1,0,0:0:0:0:
144,336,47357,2,0,P|184:352|236:348,1,80
332,328,47673,2,0,B|316:256|240:252|240:252|228:212,1,160
220,112,48146,1,0,0:0:0:0:
320,60,48304,2,0,P|372:60|404:84,1,80
452,172,48620,2,0,L|504:252,1,80
456,344,48936,2,0,P|400:304|372:312,1,80
280,308,49252,6,0,P|200:272|180:192,1,160
176,96,49725,1,0,0:0:0:0:
76,48,49883,2,0,P|64:96|76:140,1,80
84,236,50199,1,0,0:0:0:0:
84,236,50357,1,0,0:0:0:0:
128,340,50515,2,0,P|168:320|184:276,1,80
220,184,50830,2,0,P|240:140|272:120,1,80
364,64,51146,2,0,L|440:24,1,80
500,120,51462,2,0,P|460:148|448:180,1,80
416,284,51778,6,0,P|400:328|364:340,1,80
308,244,52094,1,0,0:0:0:0:
216,180,52252,1,0,0:0:0:0:
124,116,52409,2,0,L|56:60,1,80
16,168,52725,2,0,P|40:196|32:248,1,80
104,328,53041,2,0,L|160:260,1,80
216,180,53357,1,0,0:0:0:0:
316,132,53515,1,0,0:0:0:0:
388,44,53673,2,0,P|420:72|432:112,1,80
436,220,53988,5,0,0:0:0:0:
428,260,54067,1,0,0:0:0:0:
408,296,54146,1,0,0:0:0:0:
376,320,54225,1,0,0:0:0:0:
340,332,54304,2,0,P|284:328|256:300,1,80
180,240,54620,2,0,P|128:216|92:220,1,80
112,328,54936,1,0,0:0:0:0:
8,228,55094,1,0,0:0:0:0:
60,120,55252,6,0,L|104:36,1,80
212,88,55567,1,0,0:0:0:0:
308,16,55725,1,0,0:0:0:0:
308,16,55883,2,0,P|336:72|328:108,1,80
304,204,56199,2,0,P|292:256|304:300,1,80
376,372,56515,1,0,0:0:0:0:
420,260,56673,1,0,0:0:0:0:
464,148,56830,6,0,L|492:60,1,80
380,16,57146,2,0,P|352:56|312:64,1,80
204,76,57462,1,0,0:0:0:0:
88,40,57620,1,0,0:0:0:0:
48,152,57778,2,0,P|52:200|72:232,1,80
104,332,58094,2,0,P|144:316|168:268,1,80
184,176,58409,1,0,0:0:0:0:
168,64,58567,1,0,0:0:0:0:
280,60,58725,2,0,P|328:48|360:52,1,80
480,56,59041,2,0,L|424:136,1,80
324,172,59357,6,0,P|356:208|360:244,1,80
360,360,59673,1,0,0:0:0:0:
472,316,59830,1,0,0:0:0:0:
444,200,59988,2,0,P|415:172|407:133,1,80
344,32,60304,2,0,P|272:24|244:36,1,80
152,64,60620,1,0,0:0:0:0:
32,48,60778,5,0,0:0:0:0:
32,48,60857,1,0,0:0:0:0:
32,48,60936,2,0,P|32:104|56:136,1,80
96,232,61252,1,0,0:0:0:0:
176,320,61409,1,0,0:0:0:0:
256,232,61567,1,0,0:0:0:0:
336,320,61725,5,0,0:0:0:0:
336,320,61804,1,0,0:0:0:0:
336,320,61883,2,0,P|396:308|412:288,1,80,4|0,0:0|0:0,0:0:0:0:
456,188,62199,2,0,L|480:104,1,80
404,16,62515,2,0,P|384:56|348:76,1,80
236,92,62830,1,0,0:0:0:0:
132,36,62988,1,0,0:0:0:0:
88,148,63146,2,0,L|56:228,1,80
28,340,63462,5,0,0:0:0:0:
72,340,63541,1,0,0:0:0:0:
116,328,63620,1,0,0:0:0:0:
156,308,63699,1,0,0:0:0:0:
188,276,63778,2,0,P|208:228|212:172,1,80
236,92,64094,2,0,P|272:44|304:32,1,80
356,136,64409,2,0,L|432:200,1,80
512,264,64725,1,0,0:0:0:0:
512,264,64883,1,0,0:0:0:0:
412,328,65041,6,0,P|352:344|308:340,1,80
216,328,65357,2,0,P|236:272|280:256,1,80
360,208,65673,1,0,0:0:0:0:
220,180,65830,1,0,0:0:0:0:
404,116,65988,1,0,0:0:0:0:
436,232,66146,1,0,0:0:0:0:
320,72,66304,1,0,0:0:0:0:
152,132,66462,1,0,0:0:0:0:
72,224,66620,2,0,P|52:272|56:316,1,80
172,292,66936,6,0,L|248:316,1,80
368,320,67252,2,0,P|328:276|328:240,1,80
312,140,67567,1,0,0:0:0:0:
312,140,67725,1,0,0:0:0:0:
364,32,67883,2,0,P|316:20|272:28,1,80
132,128,68199,1,0,0:0:0:0:
264,76,68357,1,0,0:0:0:0:
80,32,68515,1,0,0:0:0:0:
240,164,68673,1,0,0:0:0:0:
144,232,68830,6,0,L|72:288,1,80
196,320,69146,2,0,P|232:308|296:324,1,80
396,312,69462,2,0,P|448:236|424:156,1,160
436,8,69936,2,0,P|355:53|342:135,1,160
184,204,70409,2,0,P|267:242|336:208,1,155.999992858887
156,64,71199,1,0,0:0:0:0:
156,64,71278,1,0,0:0:0:0:
156,64,71357,2,0,P|84:44|68:48,1,80
88,164,71673,2,0,L|64:264,1,80
164,328,71988,6,0,P|224:344|280:328,1,95.9999970703126,4|0,0:0|0:0,0:0:0:0:
396,296,72304,1,0,0:0:0:0:
220,236,72462,1,0,0:0:0:0:
348,152,72620,2,0,L|304:56,1,95.9999970703126
164,16,72936,2,0,P|152:72|120:92,1,95.9999970703126
48,248,73252,2,0,P|96:268|144:256,1,95.9999970703126
280,176,73567,5,0,0:0:0:0:
396,296,73725,1,0,0:0:0:0:
420,144,73883,2,0,P|452:180|468:236,1,95.9999970703126
460,360,74199,2,0,P|408:328|396:280,1,95.9999970703126
348,144,74515,2,0,P|332:68|300:48,1,95.9999970703126
180,24,74830,1,0,0:0:0:0:
180,24,74988,1,0,0:0:0:0:
48,84,75146,6,0,P|88:140|128:152,1,95.9999970703126
252,192,75462,1,0,0:0:0:0:
348,296,75620,1,0,0:0:0:0:
152,288,75778,1,0,0:0:0:0:
360,208,75936,1,0,0:0:0:0:
472,120,76094,5,0,0:0:0:0:
444,84,76173,1,0,0:0:0:0:
408,64,76252,1,0,0:0:0:0:
364,56,76330,1,0,0:0:0:0:
320,60,76409,2,0,P|264:72|228:104,1,95.9999970703126
96,140,76725,2,0,P|116:188|160:220,1,95.9999970703126
272,292,77041,1,4,0:0:0:0:
208,128,77199,1,0,0:0:0:0:
412,328,77357,6,0,P|420:276|396:224,1,95.9999970703126
440,96,77673,2,0,P|388:88|340:108,1,95.9999970703126
208,128,77988,1,0,0:0:0:0:
360,216,78145,1,0,0:0:0:0:
184,236,78303,1,0,0:0:0:0:
360,216,78461,1,0,0:0:0:0:
212,336,78620,2,0,P|164:344|116:316,1,95.9999970703126
48,196,78936,2,0,L|0:104,1,95.9999970703126
144,28,79252,2,0,P|184:60|232:64,1,95.9999970703126
380,4,79567,6,0,P|412:56|408:100,1,95.9999970703126
368,232,79883,2,0,P|352:288|364:340,1,95.9999970703126
500,296,80199,1,0,0:0:0:0:
360,324,80357,1,0,0:0:0:0:
244,240,80515,2,0,L|180:160,1,95.9999970703126
72,44,80830,2,0,P|64:100|24:128,1,95.9999970703126
0,268,81146,1,0,0:0:0:0:
128,348,81304,1,0,0:0:0:0:
244,240,81462,5,0,0:0:0:0:
220,104,81620,1,0,0:0:0:0:
348,36,81778,1,0,0:0:0:0:
392,56,81857,1,0,0:0:0:0:
424,92,81936,1,0,0:0:0:0:
448,132,82015,1,0,0:0:0:0:
456,180,82094,2,0,P|452:240|424:280,1,95.9999970703126,4|0,0:0|0:0,0:0:0:0:
296,320,82409,6,0,L|240:236,1,95.9999970703126
100,240,82725,2,0,P|136:188|136:152,1,95.9999970703126
0,96,83041,1,0,0:0:0:0:
216,176,83199,1,0,0:0:0:0:
304,36,83357,2,0,P|360:36|396:68,1,95.9999970703126
300,180,83673,2,0,L|256:280,1,95.9999970703126
92,328,83988,2,0,L|140:224,1,95.9999970703126
80,92,84304,2,0,L|184:140,1,95.9999970703126
284,240,84620,6,0,P|320:192|320:140,1,95.9999970703126
348,16,84936,1,0,0:0:0:0:
488,100,85094,1,0,0:0:0:0:
416,228,85252,2,0,L|360:328,1,95.9999970703126
208,324,85567,2,0,P|228:264|212:224,1,95.9999970703126
84,160,85883,2,0,P|64:220|80:260,1,95.9999970703126
272,184,86199,2,0,L|356:136,1,95.9999970703126
468,96,86515,5,0,0:0:0:0:
432,64,86594,1,0,0:0:0:0:
388,48,86673,1,0,0:0:0:0:
340,48,86752,1,0,0:0:0:0:
292,60,86830,2,0,P|244:84|208:132,1,95.9999970703126
140,208,87146,1,0,0:0:0:0:
140,208,87304,2,2,P|228:252|320:224,1,191.999994140625
92,40,87936,1,0,0:0:0:0:
92,40,88094,2,2,P|44:140|64:228,1,191.999994140625
328,320,88725,5,0,0:0:0:0:
432,220,88883,1,0,0:0:0:0:
364,92,89041,2,0,P|320:56|304:12,1,95.9999970703126
180,92,89357,2,0,L|136:208,1,95.9999970703126
92,316,89673,1,0,0:0:0:0:
92,316,89830,2,2,P|208:332|272:284,1,191.999994140625
448,68,90462,1,0,0:0:0:0:
448,68,90620,2,2,L|260:148,1,191.999994140625
8,260,91252,5,0,0:0:0:0:
132,188,91409,1,0,0:0:0:0:
128,44,91567,1,0,0:0:0:0:
176,32,91646,1,0,0:0:0:0:
224,36,91725,1,0,0:0:0:0:
268,52,91804,1,0,0:0:0:0:
304,84,91883,2,0,P|332:132|336:184,1,95.9999970703126
360,336,92199,6,0,L|264:276,1,95.9999970703126,4|0,0:0|0:0,0:0:0:0:
132,188,92515,1,0,0:0:0:0:
128,300,92673,1,0,0:0:0:0:
12,112,92830,2,0,P|52:68|92:56,1,95.9999970703126
232,108,93146,2,0,L|332:148,1,95.9999970703126
480,32,93462,2,0,P|452:84|460:128,1,95.9999970703126
452,284,93778,1,0,0:0:0:0:
348,140,93936,1,0,0:0:0:0:
352,324,94094,1,0,0:0:0:0:
488,204,94252,1,0,0:0:0:0:
348,240,94409,6,0,L|220:276,1,95.9999970703126
96,340,94725,2,0,P|80:276|92:240,1,95.9999970703126
164,96,95041,1,0,0:0:0:0:
256,268,95199,1,0,0:0:0:0:
324,152,95357,2,0,P|376:172|424:164,1,95.9999970703126
512,56,95673,2,0,P|460:36|412:44,1,95.9999970703126
260,80,95988,2,0,L|156:96,1,95.9999970703126
20,64,96304,2,0,P|16:120|32:160,1,95.9999970703126
100,284,96620,5,0,0:0:0:0:
144,308,96699,1,0,0:0:0:0:
188,324,96778,1,0,0:0:0:0:
236,332,96857,1,0,0:0:0:0:
284,332,96936,2,0,P|336:316|368:284,1,95.9999970703126
476,184,97252,2,0,P|424:152|384:152,1,95.9999970703126,4|0,0:0|0:0,0:0:0:0:
204,196,97567,1,0,0:0:0:0:
360,80,97725,1,0,0:0:0:0:
396,228,97883,1,0,0:0:0:0:
248,132,98041,1,0,0:0:0:0:
128,24,98199,6,0,P|92:68|88:112,1,95.9999970703126
64,252,98515,1,0,0:0:0:0:
188,328,98673,1,0,0:0:0:0:
344,304,98830,2,0,P|324:248|284:224,1,95.9999970703126
120,192,99146,2,0,L|204:120,1,95.9999970703126
292,8,99462,2,0,P|324:48|388:60,1,95.9999970703126
500,116,99778,6,0,P|512:168|476:216,1,95.9999970703126
404,336,100094,1,0,0:0:0:0:
404,176,100252,1,0,0:0:0:0:
500,288,100409,1,0,0:0:0:0:
332,256,100567,1,0,0:0:0:0:
196,308,100725,2,0,L|88:348,1,95.9999970703126
28,212,101041,2,0,P|76:180|88:140,1,95.9999970703126
40,20,101357,2,0,P|104:8|144:20,1,95.9999970703126
248,116,101673,5,0,0:0:0:0:
356,24,101830,1,0,0:0:0:0:
464,120,101988,1,0,0:0:0:0:
352,212,102146,1,0,0:0:0:0:
452,312,102304,2,0,P|404:348|354:347,1,95.9999970703126,4|0,0:0|0:0,0:0:0:0:
216,328,102620,2,0,L|116:300,1,95.9999970703126
24,176,102936,2,0,P|80:172|120:132,1,95.9999970703126
220,40,103252,2,0,P|276:40|304:64,1,95.9999970703126,0|0,0:0|0:0,0:0:0:0:
392,180,103567,5,0,0:0:0:0:
232,144,103725,1,0,0:0:0:0:
432,320,103883,2,0,L|328:280,1,95.9999970703126
204,324,104199,2,0,P|216:260|200:232,1,95.9999970703126
64,188,104515,2,0,P|52:252|68:280,1,95.9999970703126
204,236,104830,2,0,L|272:164,1,95.9999970703126
288,24,105146,1,0,0:0:0:0:
392,180,105304,1,0,0:0:0:0:
404,36,105462,6,0,P|456:44|496:80,1,95.9999970703126
480,216,105778,2,0,P|468:268|432:300,1,95.9999970703126
320,184,106094,2,0,L|228:144,1,95.9999970703126
164,320,106409,2,0,P|136:264|96:248,1,95.9999970703126
52,152,106725,1,0,0:0:0:0:
164,320,106883,1,0,0:0:0:0:
216,88,107041,1,0,0:0:0:0:
32,244,107199,1,0,0:0:0:0:
116,84,107357,5,0,0:0:0:0:
116,84,107515,2,2,P|184:176|260:176,1,191.999994140625
496,20,108146,1,0,0:0:0:0:
496,20,108304,2,2,L|424:200,1,191.999994140625
164,324,108936,2,0,P|140:268|144:220,1,95.9999970703126
60,116,109252,2,0,P|116:88|172:92,1,95.9999970703126
292,104,109567,1,0,0:0:0:0:
292,104,109725,1,0,0:0:0:0:
368,228,109883,5,0,0:0:0:0:
368,228,110041,2,2,B|304:252|304:252|240:232|168:260,1,191.999994140625
20,16,110673,1,0,0:0:0:0:
20,16,110830,2,2,P|88:104|180:92,1,191.999994140625
296,48,111304,1,0,0:0:0:0:
428,104,111462,2,0,L|520:156,1,95.9999970703126
372,192,111778,2,0,L|432:280,1,95.9999970703126
284,248,112094,2,0,L|304:348,1,95.9999970703126
184,324,112409,6,0,P|144:276|108:264,1,80
12,248,112725,1,0,0:0:0:0:
12,248,112883,1,0,0:0:0:0:
88,156,113041,2,0,L|148:96,1,80
240,24,113357,2,0,P|228:76|244:116,1,80
216,220,113673,2,0,P|300:208|344:144,1,160
372,36,114146,1,0,0:0:0:0:
460,120,114304,2,0,P|480:160|476:208,1,80
408,292,114620,2,0,P|389:257|388:217,1,80
332,108,114936,6,0,L|256:48,1,80
160,4,115252,2,0,P|152:52|120:84,1,80
36,148,115567,1,0,0:0:0:0:
36,148,115725,1,0,0:0:0:0:
92,252,115883,2,0,L|144:328,1,80
256,340,116199,2,0,P|232:284|244:244,1,80
256,148,116515,1,0,0:0:0:0:
256,192,116830,12,0,119988,0:0:0:0:
96,72,120304,5,0,0:0:0:0:
208,120,120462,1,0,0:0:0:0:
308,52,120620,2,0,P|368:48|408:68,1,80
444,160,120936,2,0,L|472:252,1,80
392,332,121252,2,0,P|376:292|336:264,1,80
236,308,121567,2,0,P|228:216|272:168,1,160
368,100,122041,1,0,0:0:0:0:
256,52,122199,2,0,P|212:44|176:56,1,80
60,52,122515,6,0,P|64:96|84:124,1,80,4|0,0:0|0:0,0:0:0:0:
152,224,122830,1,0,0:0:0:0:
152,224,122988,1,0,0:0:0:0:
184,340,123146,2,0,P|224:324|248:296,1,80
296,184,123462,2,0,P|328:88|388:68,1,160
496,68,123936,1,0,0:0:0:0:
480,188,124094,2,0,L|468:276,1,80
388,356,124409,2,0,P|372:308|340:288,1,80
232,272,124725,2,0,P|192:252|172:216,1,80
76,152,125041,6,0,P|140:108|236:128,1,160
328,168,125515,1,0,0:0:0:0:
432,232,125673,2,0,P|452:192|452:156,1,80
416,44,125988,2,0,P|380:60|348:100,1,80
316,204,126304,2,0,P|304:248|276:280,1,80
180,336,126620,1,0,0:0:0:0:
180,336,126778,1,0,0:0:0:0:
92,256,126936,2,0,L|28:200,1,80
56,84,127252,2,0,P|80:132|108:144,1,80
212,192,127567,6,0,P|256:200|288:180,1,80
364,92,127883,1,0,0:0:0:0:
364,92,128041,1,0,0:0:0:0:
468,32,128199,2,0,P|488:84|484:120,1,80
472,228,128515,2,0,P|428:304|356:332,1,160
244,340,128988,1,0,0:0:0:0:
136,292,129146,2,0,L|56:256,1,80
40,140,129462,2,0,P|88:152|136:128,1,80
160,32,129778,2,0,P|112:20|64:44,1,80
116,144,130094,6,0,B|176:128|176:128|256:148|304:128,1,160
388,104,130567,1,0,0:0:0:0:
456,204,130725,2,0,P|468:248|460:284,1,80
344,252,131041,2,0,L|252:252,1,80
180,340,131357,2,0,P|160:296|128:272,1,80
28,224,131673,1,0,0:0:0:0:
28,224,131830,1,0,0:0:0:0:
116,140,131988,2,0,L|180:80,1,80
284,32,132304,2,0,P|272:76|284:112,1,80
332,216,132620,6,0,P|352:256|356:296,1,80
236,284,132936,1,0,0:0:0:0:
236,284,133094,1,0,0:0:0:0:
212,168,133252,2,0,L|196:80,1,80
96,24,133567,2,0,P|92:120|44:168,1,160
148,232,134041,1,0,0:0:0:0:
236,284,134199,2,0,L|316:332,1,80
384,232,134515,2,0,L|472:236,1,80
456,116,134830,5,0,0:0:0:0:
432,88,134909,1,0,0:0:0:0:
400,64,134988,1,0,0:0:0:0:
360,52,135067,1,0,0:0:0:0:
320,48,135146,2,0,P|280:52|232:80,1,80,0|0,0:0|0:0,0:0:0:0:
224,188,135462,1,0,0:0:0:0:
116,68,135620,1,0,0:0:0:0:
32,152,135778,6,0,P|76:180|116:184,1,80
224,188,136094,2,0,P|272:188|308:204,1,80
404,264,136409,2,0,L|480:312,1,80
356,340,136725,1,0,0:0:0:0:
244,296,136883,1,0,0:0:0:0:
124,320,137041,2,0,P|120:264|136:232,1,80
164,128,137357,5,0,0:0:0:0:
180,92,137436,1,0,0:0:0:0:
208,64,137515,1,0,0:0:0:0:
244,48,137594,1,0,0:0:0:0:
284,40,137673,2,0,P|336:40|380:56,1,80
308,156,137988,2,0,L|296:240,1,80
356,340,138304,2,0,P|384:300|420:284,1,80
512,220,138620,1,0,0:0:0:0:
512,220,138778,1,0,0:0:0:0:
428,136,138936,6,0,L|368:76,1,80
264,20,139252,2,0,P|260:64|232:96,1,80
160,180,139567,2,0,P|136:216|132:256,1,80
224,328,139883,2,0,P|248:292|252:252,1,80
252,216,140120,1,0,0:0:0:0:
256,176,140199,2,0,P|272:128|296:104,1,80
384,28,140515,1,0,0:0:0:0:
384,28,140673,1,0,0:0:0:0:
428,140,140830,2,0,L|464:232,1,80
392,316,141146,6,0,P|372:280|336:268,1,80
240,340,141462,2,0,P|212:252|248:188,1,160
320,104,141936,1,0,0:0:0:0:
208,56,142094,2,0,L|120:24,1,80
28,84,142409,1,0,0:0:0:0:
52,116,142488,1,0,0:0:0:0:
64,156,142567,1,0,0:0:0:0:
60,196,142646,1,0,0:0:0:0:
52,236,142725,2,0,P|48:284|72:320,1,80,4|0,0:0|0:0,0:0:0:0:
176,352,143041,6,0,L|232:276,1,80
288,184,143357,1,0,0:0:0:0:
348,288,143515,1,0,0:0:0:0:
288,184,143673,1,0,0:0:0:0:
408,188,143830,1,0,0:0:0:0:
484,96,143988,2,0,P|436:72|408:72,1,80
304,16,144304,2,0,P|288:76|300:112,1,80
320,212,144620,2,0,L|352:300,1,80
240,340,144936,5,0,0:0:0:0:
224,304,145015,1,0,0:0:0:0:
208,268,145094,1,0,0:0:0:0:
192,232,145173,1,0,0:0:0:0:
176,196,145252,2,0,L|140:112,1,80,4|0,0:0|0:0,0:0:0:0:
68,28,145567,2,0,P|60:72|28:108,1,80
32,220,145883,2,0,P|44:268|68:292,1,80
184,304,146199,2,0,P|172:256|148:232,1,80
148,112,146515,2,0,L|224:76,1,80
328,28,146830,6,0,P|332:76|360:116,1,80
460,216,147146,1,0,0:0:0:0:
304,168,147304,1,0,0:0:0:0:
424,40,147462,1,0,0:0:0:0:
396,272,147620,1,0,0:0:0:0:
396,272,147699,1,0,0:0:0:0:
396,272,147778,2,0,P|340:300|316:300,1,80,4|0,0:0|0:0,0:0:0:0:
212,348,148094,6,0,P|216:292|200:264,1,80
140,172,148409,1,0,0:0:0:0:
140,172,148567,1,0,0:0:0:0:
48,96,148725,2,0,P|84:64|124:56,1,80
288,144,149041,1,0,0:0:0:0:
180,24,149199,1,0,0:0:0:0:
140,172,149357,1,0,0:0:0:0:
268,56,149515,1,0,0:0:0:0:
388,64,149673,6,0,P|428:76|464:104,1,80
368,176,149988,2,0,L|324:256,1,80
256,344,150304,2,0,B|244:304|244:304|260:224|260:224|248:184,1,160
183,34,150778,2,0,B|222:51|222:51|273:114|273:114|311:131,1,160
496,96,151252,2,0,B|467:126|467:126|391:154|391:154|359:187,1,155.999992858887
236,260,152041,1,0,0:0:0:0:
128,308,152199,2,0,P|84:320|44:308,1,80
88,196,152515,2,0,L|88:108,1,80
212,40,152830,6,0,P|264:64|312:60,1,95.9999970703126,4|0,0:0|0:0,0:0:0:0:
444,44,153146,1,0,0:0:0:0:
288,148,153304,1,0,0:0:0:0:
416,184,153462,2,0,L|392:296,1,95.9999970703126
268,344,153778,2,0,P|260:288|228:256,1,95.9999970703126
92,224,154094,2,0,P|100:280|132:312,1,95.9999970703126
236,260,154409,1,0,0:0:0:0:
320,136,154567,1,0,0:0:0:0:
184,68,154725,2,0,L|92:20,1,95.9999970703126
124,152,155041,2,0,P|156:184|168:232,1,95.9999970703126
268,348,155357,6,0,P|312:320|340:280,1,95.9999970703126
396,132,155673,1,0,0:0:0:0:
260,236,155830,1,0,0:0:0:0:
416,240,155988,1,0,0:0:0:0:
288,140,156146,1,0,0:0:0:0:
196,40,156304,2,0,P|152:80|148:132,1,95.9999970703126
80,252,156620,2,0,P|136:272|184:256,1,95.9999970703126
336,212,156936,1,0,0:0:0:0:
336,212,157094,1,0,0:0:0:0:
452,128,157252,5,0,0:0:0:0:
416,96,157330,1,0,0:0:0:0:
372,76,157409,1,0,0:0:0:0:
324,64,157488,1,0,0:0:0:0:
276,64,157567,2,0,P|224:76|180:104,1,95.9999970703126
32,176,157883,2,0,P|44:220|88:256,1,95.9999970703126,4|0,0:0|0:0,0:0:0:0:
216,292,158199,1,0,0:0:0:0:
144,164,158357,1,0,0:0:0:0:
348,272,158515,2,0,L|448:256,1,95.9999970703126
504,112,158830,6,0,P|448:108|404:76,1,95.9999970703126
248,12,159146,1,0,0:0:0:0:
320,156,159304,1,0,0:0:0:0:
352,0,159462,1,0,0:0:0:0:
220,108,159620,1,0,0:0:0:0:
96,72,159778,2,0,L|4:48,1,95.9999970703126
84,200,160094,2,0,P|136:212|164:252,1,95.9999970703126
244,368,160409,6,0,P|292:332|308:292,1,95.9999970703126
320,156,160725,2,0,P|340:92|372:64,1,95.9999970703126
468,164,161041,1,0,0:0:0:0:
360,72,161199,1,0,0:0:0:0:
220,36,161357,2,0,P|160:32|116:48,1,95.9999970703126
84,180,161673,2,0,P|144:184|188:168,1,95.9999970703126
320,156,161988,1,0,0:0:0:0:
452,64,162146,1,0,0:0:0:0:
428,264,162304,5,0,0:0:0:0:
276,96,162462,1,0,0:0:0:0:
172,320,162620,1,0,0:0:0:0:
128,296,162699,1,0,0:0:0:0:
88,268,162778,1,0,0:0:0:0:
60,232,162857,1,0,0:0:0:0:
40,188,162936,2,0,P|32:120|48:84,1,95.9999970703126,4|0,0:0|0:0,0:0:0:0:
180,140,163252,6,0,L|288:140,1,95.9999970703126
440,144,163567,1,0,0:0:0:0:
300,64,163725,1,0,0:0:0:0:
392,284,163883,2,0,P|372:328|328:356,1,95.9999970703126
260,236,164199,2,0,L|176:168,1,95.9999970703126
72,44,164515,2,0,P|120:68|176:64,1,95.9999970703126
336,60,164830,2,0,P|400:60|436:80,1,95.9999970703126
492,204,165146,1,0,0:0:0:0:
368,148,165304,1,0,0:0:0:0:
364,268,165462,6,0,L|268:312,1,95.9999970703126
132,328,165778,2,0,P|168:272|168:240,1,95.9999970703126
136,104,166094,1,0,0:0:0:0:
72,248,166252,1,0,0:0:0:0:
256,24,166409,2,0,P|284:72|280:128,1,95.9999970703126
328,248,166725,2,0,L|244:188,1,95.9999970703126
136,104,167041,2,0,P|76:80|40:88,1,95.9999970703126
68,228,167357,5,0,0:0:0:0:
152,348,167515,1,0,0:0:0:0:
228,228,167673,1,0,0:0:0:0:
308,348,167830,1,0,0:0:0:0:
444,296,167988,1,0,0:0:0:0:
444,296,168146,2,2,P|476:188|456:104,1,191.999994140625
176,52,168778,1,0,0:0:0:0:
176,52,168936,2,2,B|220:92|220:92|296:80|352:128,1,191.999994140625
144,328,169567,5,0,0:0:0:0:
48,224,169725,1,0,0:0:0:0:
180,164,169883,2,0,L|268:120,1,95.9999970703126
396,60,170199,2,0,P|384:116|396:160,1,95.9999970703126
420,296,170515,1,0,0:0:0:0:
420,296,170673,2,2,P|308:244|244:280,1,191.999994140625
60,56,171304,1,0,0:0:0:0:
60,56,171462,2,2,L|224:168,1,191.999994140625
476,36,172094,5,0,0:0:0:0:
476,36,172252,1,0,0:0:0:0:
476,180,172409,1,0,0:0:0:0:
472,224,172488,1,0,0:0:0:0:
436,260,172567,1,0,0:0:0:0:
392,268,172646,1,0,0:0:0:0:
348,264,172725,1,0,0:0:0:0:
304,256,172804,1,0,0:0:0:0:
260,256,172883,1,0,0:0:0:0:
216,264,172962,1,0,0:0:0:0:
176,276,173041,2,4,P|132:292|68:344,1,95.9999970703126
32,168,173357,6,0,L|104:92,1,95.9999970703126
252,8,173673,2,0,P|272:68|312:108,1,95.9999970703126
384,224,173988,1,0,0:0:0:0:
392,64,174146,1,0,0:0:0:0:
264,304,174304,2,0,P|220:328|156:308,1,95.9999970703126
200,180,174620,2,0,L|184:72,1,95.9999970703126
36,24,174936,2,0,P|28:76|-8:116,1,95.9999970703126
52,240,175252,2,0,P|80:288|128:308,1,95.9999970703126
264,304,175567,5,0,0:0:0:0:
200,180,175725,1,0,0:0:0:0:
112,304,175883,1,0,0:0:0:0:
264,304,176041,1,0,0:0:0:0:
388,224,176199,2,0,L|484:164,1,95.9999970703126
412,20,176515,2,0,P|360:56|320:56,1,95.9999970703126
184,52,176830,2,0,P|132:52|88:72,1,95.9999970703126
16,192,177146,1,0,0:0:0:0:
152,148,177304,1,0,0:0:0:0:
112,304,177462,5,0,0:0:0:0:
252,340,177620,1,0,0:0:0:0:
324,216,177778,1,0,0:0:0:0:
184,184,177936,1,0,0:0:0:0:
276,72,178094,2,0,P|316:36|356:24,1,95.9999970703126,4|0,0:0|0:0,0:0:0:0:
400,160,178409,2,0,L|464:248,1,95.9999970703126
388,364,178725,2,0,P|352:316|320:300,1,95.9999970703126
184,252,179041,1,0,0:0:0:0:
28,268,179199,1,0,0:0:0:0:
104,124,179357,2,0,L|152:32,1,95.9999970703126
312,36,179673,6,0,P|308:88|328:136,1,95.9999970703126
400,268,179988,1,0,0:0:0:0:
252,200,180146,1,0,0:0:0:0:
420,168,180304,1,0,0:0:0:0:
296,288,180462,1,0,0:0:0:0:
160,320,180620,2,0,L|56:356,1,95.9999970703126
108,212,180936,2,0,P|148:172|160:128,1,95.9999970703126
40,56,181252,1,0,0:0:0:0:
160,136,181409,1,0,0:0:0:0:
280,56,181567,6,0,P|332:44|380:60,1,95.9999970703126
420,192,181883,2,0,P|374:204|327:192,1,95.9999970703126
160,136,182199,1,0,0:0:0:0:
40,56,182357,1,0,0:0:0:0:
136,208,182515,1,0,0:0:0:0:
8,124,182673,1,0,0:0:0:0:
40,264,182830,2,0,P|68:304|120:324,1,95.9999970703126
252,336,183146,6,4,L|368:296,1,95.9999970703126
468,216,183462,2,0,P|408:196|376:160,1,95.9999970703126
284,68,183778,1,0,0:0:0:0:
464,112,183936,1,0,0:0:0:0:
140,68,184094,2,0,P|64:84|36:104,1,95.9999970703126
128,212,184409,2,0,L|164:312,1,95.9999970703126
296,352,184725,2,0,L|263:261,1,95.9999970703126
320,128,185041,2,0,L|220:164,1,95.9999970703126
56,216,185357,1,0,0:0:0:0:
200,232,185515,1,0,0:0:0:0:
16,80,185673,6,0,P|60:60|120:64,1,95.9999970703126
244,104,185988,1,0,0:0:0:0:
200,232,186146,1,0,0:0:0:0:
356,276,186304,2,0,P|412:280|456:260,1,95.9999970703126
388,124,186620,2,0,L|372:24,1,95.9999970703126
196,68,186936,2,0,P|172:112|128:144,1,95.9999970703126
8,208,187252,1,0,0:0:0:0:
8,208,187409,1,0,0:0:0:0:
112,308,187567,5,0,0:0:0:0:
160,316,187646,1,0,0:0:0:0:
208,316,187725,1,0,0:0:0:0:
256,304,187804,1,0,0:0:0:0:
300,284,187883,2,0,P|340:248|360:204,1,95.9999970703126
404,72,188199,1,0,0:0:0:0:
404,72,188357,2,2,P|296:40|224:72,1,191.999994140625
112,308,188988,1,0,0:0:0:0:
112,308,189146,2,2,L|272:184,1,191.999994140625
20,36,189778,6,0,L|96:96,1,95.9999970703126
236,60,190094,2,0,P|244:112|284:152,1,95.9999970703126
380,236,190409,1,0,0:0:0:0:
380,236,190567,1,0,0:0:0:0:
268,324,190725,1,0,0:0:0:0:
268,324,190883,2,2,P|176:268|76:288,1,191.999994140625
340,120,191515,1,0,0:0:0:0:
340,120,191673,2,2,B|388:148|388:148|440:92|412:16,1,191.999994140625
128,44,192304,6,0,L|36:20,1,95.9999970703126
104,148,192620,2,0,L|4:164,1,95.9999970703126
112,264,192936,2,0,L|28:320,1,95.9999970703126
148,348,193252,2,0,P|204:332|248:340,1,80
344,352,193567,1,0,0:0:0:0:
344,352,193725,1,0,0:0:0:0:
436,276,193883,2,0,P|464:216|464:176,1,80
496,88,194199,2,0,P|412:96|348:164,1,160
316,260,194673,1,0,0:0:0:0:
196,252,194830,6,0,P|152:236|116:212,1,80
8,184,195146,2,0,P|28:140|56:120,1,80
140,36,195462,2,0,P|168:72|172:112,1,80
180,224,195778,1,0,0:0:0:0:
180,224,195936,1,0,0:0:0:0:
288,172,196094,2,0,L|384:116,1,80
468,88,196409,2,0,P|460:152|476:180,1,80
488,284,196725,5,0,0:0:0:0:
488,284,196883,1,0,0:0:0:0:
376,328,197041,2,0,P|324:336|284:332,1,80
244,224,197357,2,0,P|296:216|336:220,1,80
256,192,197673,12,0,200515,0:0:0:0:
408,60,200830,5,4,0:0:0:0:
408,60,200988,1,0,0:0:0:0:
372,176,201146,2,0,P|344:220|308:236,1,80
232,312,201462,2,0,P|204:268|204:228,1,80
208,120,201778,1,4,0:0:0:0:
208,120,201936,1,0,0:0:0:0:
108,52,202094,2,0,L|28:8,1,80
20,132,202409,2,0,P|40:168|32:216,1,80
24,324,202725,5,4,0:0:0:0:
24,324,202883,1,0,0:0:0:0:
144,316,203041,2,0,P|204:304|232:280,1,80
340,276,203357,2,0,P|312:224|296:212,1,64
232,164,203673,1,0,0:0:0:0:
232,164,203830,1,0,0:0:0:0:
136,148,203988,2,0,P|180:84|244:76,1,128
320,84,204462,1,0,0:0:0:0:
416,104,204620,6,0,L|480:124,1,64
424,208,204936,2,0,L|472:264,1,64
428,344,205252,2,0,L|380:292,1,64
324,224,205567,1,0,0:0:0:0:
324,224,205725,1,0,0:0:0:0:
280,140,205883,2,0,P|244:160|232:188,1,64
216,276,206199,2,0,P|184:340|128:360,1,128
36,360,206673,1,0,0:0:0:0:
60,268,206830,2,0,L|76:196,1,64
92,112,207146,6,0,L|104:44,1,64
200,32,207462,1,0,0:0:0:0:
200,32,207620,1,0,0:0:0:0:
248,116,207778,2,0,L|284:168,1,64
344,244,208094,1,0,0:0:0:0:
344,244,208252,1,0,0:0:0:0:
388,328,208409,6,0,P|432:284|432:216,1,128
408,128,208883,1,0,0:0:0:0:
336,64,209041,2,0,L|280:20,1,64
228,100,209357,2,0,P|228:136|208:164,1,64
152,232,209673,1,0,0:0:0:0:
60,256,209830,1,0,0:0:0:0:
52,160,209988,2,0,L|40:88,1,64
96,16,210304,2,0,P|120:56|140:72,1,64
212,124,210620,2,0,P|256:152|268:176,1,64
312,244,210936,5,0,0:0:0:0:
312,244,211094,1,0,0:0:0:0:
372,320,211252,2,0,P|408:344|440:348,1,64
436,252,211567,2,0,L|460:192,1,64
464,96,211883,2,0,B|428:72|432:32|432:32|392:48|368:40,1,128
288,60,212357,1,0,0:0:0:0:
200,100,212515,2,0,L|140:132,1,64
200,208,212830,2,0,L|156:260,1,64
244,304,213146,2,0,L|240:368,1,64
328,328,213462,6,0,P|360:264|416:232,1,128
500,212,213936,1,0,0:0:0:0:
444,132,214094,2,0,L|400:84,1,64
316,36,214409,2,0,P|312:76|292:104,1,64
228,160,214725,1,0,0:0:0:0:
228,160,214883,1,0,0:0:0:0:
144,116,215041,2,0,L|76:80,1,64
0,44,215357,1,0,0:0:0:0:
0,44,215515,1,0,0:0:0:0:
8,140,215673,2,0,L|16:204,1,64
76,280,215988,6,0,P|96:248|124:232,1,64
204,192,216304,1,0,0:0:0:0:
204,192,216462,1,0,0:0:0:0:
300,180,216620,2,0,P|348:168|364:160,1,64
456,176,216936,2,0,P|432:96|392:72,1,128
304,48,217409,1,0,0:0:0:0:
208,44,217567,2,0,L|128:44,1,64
56,84,217883,2,0,P|100:120|108:152,1,64
140,212,218199,1,0,0:0:0:0:
140,212,218357,1,0,0:0:0:0:
136,308,218515,6,0,P|204:288|232:240,1,128
240,144,218988,1,0,0:0:0:0:
312,80,219146,2,0,L|368:32,1,64
456,52,219462,2,0,P|440:84|444:120,1,64
456,208,219778,1,0,0:0:0:0:
456,208,219936,1,0,0:0:0:0:
420,296,220094,2,0,P|396:336|376:348,1,64
332,264,220409,2,0,L|272:224,1,64
224,148,220725,2,0,L|176:200,1,64
112,264,221041,5,4,0:0:0:0:
112,264,221199,1,0,0:0:0:0:
64,180,221357,2,0,P|56:140|60:100,1,64
120,44,221673,2,0,P|168:20|192:24,1,64
272,40,221988,1,4,0:0:0:0:
272,40,222146,1,0,0:0:0:0:
344,100,222304,2,0,L|400:148,1,64
392,240,222620,2,0,P|352:212|312:216,1,64
240,204,222936,6,0,L|168:208,1,64,4|0,0:0|0:0,0:0:0:0:
104,272,223252,2,0,L|184:296,1,64
168,180,231146,6,0,P|228:236|264:240,1,95.9999970703126,4|0,0:0|0:0,0:0:0:0:
312,88,231462,2,0,L|384:12,1,95.9999970703126
464,176,231778,2,0,P|452:224|468:272,1,95.9999970703126
300,328,232094,1,0,0:0:0:0:
465,267,232252,1,0,0:0:0:0:
160,304,232409,2,0,P|100:272|76:220,1,95.9999970703126
0,116,232725,2,0,P|48:96|96:100,1,95.9999970703126
240,136,233041,2,0,L|340:168,1,95.9999970703126
492,116,233357,2,0,P|444:84|428:44,1,95.9999970703126
260,28,233673,5,0,0:0:0:0:
236,192,233830,1,0,0:0:0:0:
352,60,233988,1,0,0:0:0:0:
180,104,234146,1,0,0:0:0:0:
344,168,234304,2,0,L|420:240,1,95.9999970703126
320,352,234620,2,0,P|272:316|224:308,1,95.9999970703126
72,344,234936,2,0,P|64:292|84:244,1,95.9999970703126
180,104,235252,1,0,0:0:0:0:
164,300,235409,1,0,0:0:0:0:
336,76,235567,2,0,P|352:128|336:184,1,95.9999970703126
352,304,235883,5,0,0:0:0:0:
304,316,235962,1,0,0:0:0:0:
256,320,236041,1,0,0:0:0:0:
204,312,236120,1,0,0:0:0:0:
164,300,236199,2,0,P|120:272|96:228,1,95.9999970703126,4|0,0:0|0:0,0:0:0:0:
28,108,236515,2,0,P|80:88|120:96,1,95.9999970703126
272,168,236830,1,0,0:0:0:0:
120,96,236988,1,0,0:0:0:0:
292,60,237146,2,0,L|392:36,1,95.9999970703126
464,156,237462,6,0,P|420:184|396:232,1,95.9999970703126
308,356,237778,2,0,P|264:316|252:276,1,95.9999970703126
212,132,238094,2,0,L|180:32,1,95.9999970703126
40,16,238409,2,0,P|44:68|24:116,1,95.9999970703126
12,248,238725,2,0,P|28:304|60:340,1,95.9999970703126
144,232,239041,1,0,0:0:0:0:
232,344,239199,1,0,0:0:0:0:
292,204,239357,2,0,L|392:184,1,95.9999970703126
476,60,239673,6,0,P|412:56|364:16,1,95.9999970703126
224,24,239988,2,0,L|276:120,1,95.9999970703126
344,232,240304,1,0,0:0:0:0:
200,156,240462,1,0,0:0:0:0:
212,288,240620,2,0,P|160:300|104:296,1,95.9999970703126
52,168,240936,1,0,0:0:0:0:
84,132,241015,1,0,0:0:0:0:
124,108,241094,1,0,0:0:0:0:
172,96,241173,1,0,0:0:0:0:
220,92,241252,2,0,P|268:96|312:120,1,95.9999970703126,4|0,0:0|0:0,0:0:0:0:
440,180,241567,6,0,L|428:76,1,95.9999970703126
276,20,241883,2,0,P|276:84|248:120,1,95.9999970703126
176,244,242199,1,0,0:0:0:0:
260,108,242357,1,0,0:0:0:0:
44,300,242515,2,0,P|28:236|40:200,1,95.9999970703126
36,64,242830,2,0,P|88:68|128:96,1,95.9999970703126
236,184,243146,2,0,L|320:248,1,95.9999970703126
472,324,243462,2,0,P|448:268|448:224,1,95.9999970703126
324,92,243778,5,0,0:0:0:0:
504,136,243936,1,0,0:0:0:0:
332,200,244094,1,0,0:0:0:0:
428,48,244252,1,0,0:0:0:0:
284,24,244409,2,0,P|248:68|252:124,1,95.9999970703126
292,280,244725,2,0,L|212:220,1,95.9999970703126
96,80,245041,2,0,P|80:136|40:172,1,95.9999970703126
0,292,245357,2,0,P|60:304|120:284,1,95.9999970703126
252,336,245673,5,0,0:0:0:0:
392,308,245830,1,0,0:0:0:0:
296,200,245988,5,0,0:0:0:0:
436,160,246146,1,0,0:0:0:0:
380,56,246304,1,0,0:0:0:0:
380,56,246462,2,2,P|288:44|192:92,1,191.999994140625
52,332,247094,1,0,0:0:0:0:
52,332,247252,2,2,B|144:264|144:264|184:256|224:228,1,191.999994140625
496,168,247883,6,0,P|416:160|376:144,1,95.9999970703126
284,68,248199,2,0,P|256:116|256:164,1,95.9999970703126
276,300,248515,1,0,0:0:0:0:
276,300,248673,1,0,0:0:0:0:
160,216,248830,1,0,0:0:0:0:
160,216,248988,2,2,P|88:144|96:44,1,191.999994140625
364,152,249620,1,0,0:0:0:0:
364,152,249778,2,2,P|436:224|428:324,1,191.999994140625
148,300,250409,6,0,P|96:272|80:228,1,95.9999970703126
100,96,250725,2,0,P|136:64|152:60,3,47.9999985351563,0|0|0|0,0:0|0:0|0:0|0:0,0:0:0:0:
180,52,251041,1,0,0:0:0:0:
228,52,251120,1,0,0:0:0:0:
272,68,251199,1,0,0:0:0:0:
304,104,251278,1,0,0:0:0:0:
320,148,251357,2,0,P|332:196|384:240,1,95.9999970703126,4|0,0:0|0:0,0:0:0:0:
264,360,251673,2,0,P|252:312|200:268,1,95.9999970703126
104,212,251988,1,0,0:0:0:0:
168,356,252146,1,0,0:0:0:0:
240,160,252304,6,0,L|352:116,1,95.9999970703126
464,36,252620,2,0,P|460:92|476:132,1,95.9999970703126
488,280,252936,1,0,0:0:0:0:
372,168,253094,1,0,0:0:0:0:
268,72,253252,2,0,P|244:120|244:176,1,95.9999970703126
236,324,253567,2,0,L|176:236,1,95.9999970703126
24,168,253883,1,0,0:0:0:0:
204,136,254041,1,0,0:0:0:0:
84,268,254199,1,0,0:0:0:0:
104,88,254357,1,0,0:0:0:0:
192,228,254515,6,0,P|240:220|288:188,1,95.9999970703126
332,60,254830,2,0,P|396:80|420:116,1,95.9999970703126
500,216,255146,1,0,0:0:0:0:
328,156,255304,1,0,0:0:0:0:
372,284,255462,2,0,L|280:328,1,95.9999970703126
104,328,255778,2,0,P|132:280|132:232,1,95.9999970703126
32,136,256094,5,0,0:0:0:0:
56,96,256173,1,0,0:0:0:0:
92,64,256252,1,0,0:0:0:0:
136,44,256330,1,0,0:0:0:0:
184,36,256409,2,0,P|240:36|284:60,1,95.9999970703126,4|0,0:0|0:0,0:0:0:0:
452,76,256725,2,0,P|436:132|400:168,1,95.9999970703126
300,252,257041,1,0,0:0:0:0:
344,76,257199,1,0,0:0:0:0:
164,176,257357,6,0,L|64:124,1,95.9999970703126
116,288,257673,2,0,B|164:304|192:356,1,95.9999970703126
300,252,257988,2,0,L|384:180,1,95.9999970703126
496,88,258304,2,0,P|436:52|388:56,1,95.9999970703126
240,24,258620,2,0,P|240:80|264:120,1,95.9999970703126
372,220,258936,1,0,0:0:0:0:
328,56,259094,1,0,0:0:0:0:
228,196,259252,2,0,L|116:172,1,95.9999970703126
8,112,259567,2,0,P|-8:164|4:212,1,95.9999970703126
100,308,259883,5,0,0:0:0:0:
132,176,260041,1,0,0:0:0:0:
244,284,260199,2,0,L|348:264,1,95.9999970703126
496,292,260515,2,0,P|456:240|456:200,1,95.9999970703126
420,44,260830,2,0,P|399:86|358:110,1,95.9999970703126
208,60,261146,1,0,0:0:0:0:
172,92,261225,1,0,0:0:0:0:
152,136,261304,1,0,0:0:0:0:
148,184,261383,1,0,0:0:0:0:
156,232,261462,6,0,P|192:280|228:296,1,95.9999970703126,4|0,0:0|0:0,0:0:0:0:
396,336,261778,2,0,P|396:268|372:228,1,95.9999970703126
288,104,262094,1,0,0:0:0:0:
384,244,262252,1,0,0:0:0:0:
232,236,262409,2,0,L|196:324,1,95.9999970703126
96,220,262725,2,0,P|112:160|100:116,1,95.9999970703126
28,4,263041,1,0,0:0:0:0:
16,164,263199,1,0,0:0:0:0:
168,40,263357,6,0,L|264:76,1,95.9999970703126
408,168,263673,2,0,P|396:108|412:64,1,95.9999970703126
284,172,263988,2,0,P|288:232|272:268,1,95.9999970703126
92,332,264304,1,0,0:0:0:0:
276,352,264462,1,0,0:0:0:0:
152,212,264620,1,0,0:0:0:0:
348,304,264778,1,0,0:0:0:0:
276,264,264936,2,0,L|344:192,1,95.9999970703126
480,104,265252,2,0,P|420:52|392:48,1,95.9999970703126
236,40,265567,6,0,L|128:40,1,95.9999970703126
28,132,265883,1,0,0:0:0:0:
128,236,266041,1,0,0:0:0:0:
240,144,266199,1,0,0:0:0:0:
140,40,266357,1,0,0:0:0:0:
240,144,266515,1,0,0:0:0:0:
240,144,266673,2,2,P|344:184|376:264,1,191.999994140625
92,312,267304,1,0,0:0:0:0:
92,312,267462,2,2,L|292:232,1,191.999994140625
472,36,268094,5,0,0:0:0:0:
332,60,268252,1,0,0:0:0:0:
188,64,268409,2,0,P|200:124|244:160,1,95.9999970703126
368,168,268725,2,0,P|352:220|312:252,1,95.9999970703126
184,284,269041,1,0,0:0:0:0:
184,284,269199,2,2,B|172:188|84:188|92:104,1,191.999994140625
328,284,269830,1,0,0:0:0:0:
328,284,269988,2,2,B|340:188|428:188|420:104,1,191.999994140625
140,48,270620,6,0,L|40:40,1,95.9999970703126
128,160,270936,2,0,L|24:192,1,95.9999970703126
160,264,271252,2,0,L|92:344,1,95.9999970703126
240,320,271567,2,0,P|292:284|344:280,1,95.9999970703126
468,288,271883,1,0,0:0:0:0:
324,280,272041,1,0,0:0:0:0:
440,148,272199,2,0,P|380:64|288:40,1,191.999994140625
152,36,272673,1,0,0:0:0:0:
88,164,272830,2,0,L|44:260,1,95.9999970703126
192,228,273146,6,0,P|200:152|232:116,1,95.9999970703126
348,96,273462,2,0,P|340:172|308:208,1,95.9999970703126
244,304,273778,1,0,0:0:0:0:
244,304,273936,1,0,0:0:0:0:
380,256,274094,2,0,B|436:228|436:228|424:144|464:96,1,191.999994140625
328,40,274567,1,0,0:0:0:0:
184,56,274725,2,0,P|208:124|248:140,1,95.9999970703126
364,176,275041,1,0,0:0:0:0:
364,176,275199,1,0,0:0:0:0:
360,320,275357,6,0,P|288:304|268:280,1,95.9999970703126
180,180,275673,1,0,0:0:0:0:
180,180,275830,1,0,0:0:0:0:
256,192,275988,12,0,279778,0:0:0:0:
