osu file format v12

[General]
AudioFilename: Hatsune Miku - Miku Sabbath.mp3
AudioLeadIn: 0
PreviewTime: 89078
Countdown: 0
SampleSet: Normal
StackLeniency: 0.4
Mode: 0
LetterboxInBreaks: 1
WidescreenStoryboard: 1

[Editor]
DistanceSpacing: 1
BeatDivisor: 4
GridSize: 8
TimelineZoom: 1.6

[Metadata]
Title:Miku Sabbath
TitleUnicode:Miku Sabbath
Artist:UtsuP
ArtistUnicode:鬱P
Creator:Hakurai
Version:SK Tiny Terror
Source:Vocaloid
Tags:hatsune miku sabbath vocaloid metal vocametal vocarock utsup
BeatmapID:430951
BeatmapSetID:134528

[Difficulty]
HPDrainRate:7
CircleSize:4
OverallDifficulty:7
ApproachRate:8
SliderMultiplier:1.4
SliderTickRate:1

[Events]
//Background and Video events
0,0,"Hagane miku.jpg",0,0
//Break Periods
2,111857,118486
//Storyboard Layer 0 (Background)
//Storyboard Layer 1 (Fail)
//Storyboard Layer 2 (Pass)
//Storyboard Layer 3 (Foreground)
//Storyboard Sound Samples
//Background Colour Transformations
3,100,163,162,255

[TimingPoints]
28289,315.78947368421,4,1,0,50,1,0
68078,-100,4,1,0,30,0,0
83867,-100,4,1,0,15,0,0
84499,-100,4,1,0,20,0,0
84973,-100,4,1,0,25,0,0
85762,-100,4,1,0,30,0,0
86552,-100,4,1,0,35,0,0
87183,-100,4,1,0,40,0,0
87657,-100,4,1,0,45,0,0
88288,-50,4,1,0,50,0,0
88920,-100,4,1,0,50,0,0
108499,-200,4,1,0,5,0,0
111657,-100,4,1,0,5,0,0
119236,-100,4,1,0,50,0,0
129341,-133.333333333333,4,2,0,15,0,0
133525,-133.333333333333,4,1,0,25,0,0
134315,-133.333333333333,4,2,0,15,0,0
149552,-100,4,1,0,50,0,1
157131,-100,4,1,0,50,0,0
159657,-100,4,1,0,50,0,1
167236,-100,4,1,0,50,0,0
169131,-100,4,1,0,50,0,1
169762,-100,4,1,0,50,0,0
230394,-100,4,2,0,10,0,0

[Colours]
Combo1 : 206,206,206
Combo2 : 70,91,94
Combo3 : 255,255,255
Combo4 : 168,152,169

[HitObjects]
251,118,27657,5,8,3:0:0:0:
40,192,28289,6,0,L|104:112,1,70
144,176,28604,2,0,L|216:136,1,70
232,208,28920,2,0,L|312:192,1,70
312,264,29236,2,0,L|392:296,1,70
440,256,29552,5,0,0:0:0:0:
440,256,29710,1,0,0:0:0:0:
408,192,29867,1,0,0:0:0:0:
408,192,30025,1,0,0:0:0:0:
440,128,30183,1,0,0:0:0:0:
440,128,30341,1,0,0:0:0:0:
400,72,30499,1,0,0:0:0:0:
400,72,30657,1,0,0:0:0:0:
344,112,30815,6,0,L|208:48,1,140
160,96,31289,1,0,0:0:0:0:
112,45,31446,2,0,P|88:101|96:125,1,70
88,177,31762,2,0,L|87:270,1,70
133,299,32078,2,0,L|150:313,11,17.5
223,352,32710,5,0,0:0:0:0:
283,316,32867,2,0,P|320:304|357:328,1,70
411,343,33183,1,0,0:0:0:0:
411,343,33341,1,0,0:0:0:0:
398,274,33499,6,0,L|361:207,1,70
293,213,33815,2,0,L|266:143,1,70
198,160,34131,2,0,L|176:92,1,70
112,64,34446,1,0,0:0:0:0:
57,108,34604,1,0,0:0:0:0:
57,108,34683,1,0,0:0:0:0:
57,108,34762,1,0,0:0:0:0:
61,177,34920,6,0,P|74:268|58:320,1,140
116,356,35394,1,0,0:0:0:0:
184,369,35552,1,0,0:0:0:0:
254,369,35710,1,0,0:0:0:0:
296,314,35867,2,0,L|317:281,2,35
235,277,36183,6,0,P|232:221|246:200,1,70
294,171,36499,2,0,P|306:203|302:238,1,70
294,171,36815,2,0,L|454:194,1,140
467,181,37210,1,0,0:0:0:0:
481,149,37288,1,0,0:0:0:0:
476,114,37367,1,0,0:0:0:0:
458,83,37446,1,0,0:0:0:0:
321,52,37762,5,0,0:0:0:0:
321,52,37920,1,0,0:0:0:0:
234,110,38078,1,0,0:0:0:0:
234,110,38236,1,0,0:0:0:0:
132,81,38394,1,0,0:0:0:0:
132,81,38473,1,0,0:0:0:0:
132,81,38552,1,0,0:0:0:0:
100,143,38710,6,0,P|116:206|107:232,1,70
45,202,39025,2,0,L|74:360,1,140
134,310,39499,2,0,L|184:243,1,70
245,263,39815,2,0,L|279:196,1,70
325,149,40131,1,0,0:0:0:0:
325,149,40288,1,0,0:0:0:0:
394,142,40446,6,0,L|423:220,2,70
431,69,40920,2,0,P|456:92|462:127,1,70
468,197,41236,1,0,0:0:0:0:
468,197,41394,1,0,0:0:0:0:
425,252,41552,1,0,0:0:0:0:
425,252,41710,1,0,0:0:0:0:
415,320,41867,6,0,B|373:345|321:343|280:317,1,140
259,292,42262,1,0,0:0:0:0:
227,277,42341,1,0,0:0:0:0:
192,285,42420,1,0,0:0:0:0:
162,303,42499,1,0,0:0:0:0:
138,328,42578,1,0,0:0:0:0:
57,260,42815,5,0,0:0:0:0:
32,194,42973,1,0,0:0:0:0:
63,131,43131,1,0,0:0:0:0:
131,120,43288,1,0,0:0:0:0:
178,171,43446,5,0,0:0:0:0:
234,212,43604,1,0,0:0:0:0:
301,193,43762,1,0,0:0:0:0:
334,131,43920,2,0,L|385:66,3,70
447,77,44552,1,0,0:0:0:0:
472,142,44710,5,0,0:0:0:0:
472,142,44788,1,0,0:0:0:0:
472,142,44867,1,0,0:0:0:0:
457,210,45025,2,0,P|413:284|434:346,1,140
424,332,45499,2,0,L|349:321,1,70
288,298,45815,1,0,0:0:0:0:
288,298,45973,1,0,0:0:0:0:
234,349,46131,6,0,L|156:350,1,70
50,295,46446,2,0,L|120:295,1,70
233,239,46762,2,0,L|163:239,1,70
94,185,47078,1,0,0:0:0:0:
114,112,47236,6,0,L|74:72,6,35
166,61,47867,5,0,0:0:0:0:
166,61,48025,1,0,0:0:0:0:
206,118,48183,1,0,0:0:0:0:
206,118,48341,1,0,0:0:0:0:
273,98,48499,6,0,P|356:79|406:110,1,140
413,177,48973,2,0,B|430:178|393:192|350:154,2,70
463,128,49446,2,0,P|482:177|432:250,1,140
330,293,50078,1,0,0:0:0:0:
198,244,50394,1,0,0:0:0:0:
178,105,50710,1,0,0:0:0:0:
60,181,51025,5,0,0:0:0:0:
60,181,51104,1,0,0:0:0:0:
60,181,51183,1,0,0:0:0:0:
60,251,51341,2,0,L|60:325,1,70
122,352,51657,2,0,L|90:389,2,35
192,357,51973,6,0,B|241:360|273:322|273:322|325:322,1,140
366,269,52446,1,0,0:0:0:0:
375,199,52604,2,0,L|398:123,2,70
273,101,53236,1,0,0:0:0:0:
156,179,53552,6,0,P|167:232|158:258,1,70
96,221,53867,2,0,P|88:154|133:104,1,140
203,111,54341,2,0,P|241:100|262:66,1,70
258,76,54657,1,0,0:0:0:0:
314,34,54815,2,0,P|253:5|195:39,1,140
136,76,55288,1,0,0:0:0:0:
84,123,55446,1,0,0:0:0:0:
88,263,55762,1,0,0:0:0:0:
220,308,56078,6,0,L|197:339,2,35
268,256,56394,1,0,0:0:0:0:
268,256,56552,1,0,0:0:0:0:
320,302,56710,1,0,0:0:0:0:
320,302,56867,1,0,0:0:0:0:
360,244,57025,1,0,0:0:0:0:
360,244,57183,1,0,0:0:0:0:
408,193,57341,5,0,0:0:0:0:
431,166,57420,1,0,0:0:0:0:
440,132,57499,1,0,0:0:0:0:
440,96,57578,1,0,0:0:0:0:
426,63,57657,1,0,0:0:0:0:
397,43,57736,1,0,0:0:0:0:
306,96,57973,6,0,L|232:128,1,70
182,86,58288,2,0,L|116:64,1,70
52,96,58604,6,0,P|61:133|44:172,1,70
48,232,58920,2,0,L|76:374,1,140
110,308,59394,2,0,L|127:226,1,70
170,185,59710,1,0,0:0:0:0:
219,233,59867,1,0,0:0:0:0:
358,225,60183,1,0,0:0:0:0:
407,94,60499,1,0,0:0:0:0:
283,27,60815,1,0,0:0:0:0:
171,112,61131,6,0,L|129:125,2,35
162,211,61446,2,0,L|180:181,2,35
220,250,61762,2,0,L|214:286,2,35
290,245,62078,2,0,L|321:230,2,35
341,336,62394,2,0,L|324:306,2,35
392,287,62710,6,0,L|440:223,1,70
470,105,63025,2,0,L|428:161,1,70
326,182,63341,2,0,L|374:125,1,70
336,64,63657,6,0,P|304:40|264:48,1,70
288,112,63973,2,0,P|208:96|192:40,1,140
120,32,64604,5,0,0:0:0:0:
56,64,64762,1,0,0:0:0:0:
40,136,64920,1,0,0:0:0:0:
112,120,65236,2,0,P|104:168|16:208,2,140
29,209,66025,2,0,L|48:280,1,70
112,304,66341,6,0,L|160:328,2,35
104,232,66657,1,0,0:0:0:0:
168,208,66815,1,0,0:0:0:0:
168,208,66894,1,0,0:0:0:0:
168,208,66973,1,0,0:0:0:0:
240,208,67131,1,0,0:0:0:0:
280,152,67288,1,0,0:0:0:0:
336,104,67446,2,0,L|392:80,6,35
368,168,68078,5,0,0:0:0:0:
368,168,68157,1,0,0:0:0:0:
368,168,68236,1,0,0:0:0:0:
416,216,68394,1,0,0:0:0:0:
456,272,68552,2,0,P|416:288|376:280,1,70
256,336,69025,5,0,0:0:0:0:
120,288,69341,1,0,0:0:0:0:
48,168,69657,2,0,L|48:80|48:8,1,140
185,55,70288,2,0,L|199:46,4,17.5
152,115,70604,5,0,0:0:0:0:
224,194,70920,1,0,0:0:0:0:
309,201,71236,2,0,L|165:273,2,140
296,61,72183,1,0,0:0:0:0:
432,92,72499,1,0,0:0:0:0:
456,229,72815,2,0,L|457:248,4,17.5
408,177,73131,5,0,0:0:0:0:
411,316,73446,1,0,0:0:0:0:
311,280,73762,2,0,P|225:248|181:264,1,140
112,269,74236,1,0,0:0:0:0:
73,211,74394,2,0,P|115:149|97:68,1,140
234,147,75025,1,0,0:0:0:0:
314,79,75341,2,0,L|321:60,4,17.5
338,144,75657,5,0,0:0:0:0:
475,168,75973,1,0,0:0:0:0:
483,307,76288,2,0,P|406:276|336:302,1,140
353,289,76762,2,0,L|278:288,1,70
221,254,77078,1,0,0:0:0:0:
193,318,77236,2,0,P|150:285|156:243,1,70
139,202,77552,1,0,0:0:0:0:
85,73,77867,2,0,L|59:55,4,17.5
155,75,78183,5,0,0:0:0:0:
286,27,78499,1,0,0:0:0:0:
386,124,78815,2,0,P|402:203|351:246,1,140
290,240,79288,2,0,P|300:207|325:183,1,70
311,113,79604,2,0,L|226:111,1,70
187,65,79920,1,0,0:0:0:0:
122,36,80078,1,0,0:0:0:0:
63,163,80394,6,0,L|47:153,4,17.5
87,228,80710,1,0,0:0:0:0:
191,320,81025,1,0,0:0:0:0:
322,272,81341,2,0,P|391:242|443:288,1,140
380,316,81815,2,0,P|346:341|301:340,1,70
264,304,82131,1,0,0:0:0:0:
272,232,82288,2,0,B|336:216|296:136|376:120,1,140
240,45,82920,2,0,L|238:22,4,17.5
247,115,83236,5,0,0:0:0:0:
127,41,83552,1,0,0:0:0:0:
34,133,83867,1,0,0:0:0:0:
42,202,84025,1,0,0:0:0:0:
74,263,84183,1,0,0:0:0:0:
130,304,84341,1,0,0:0:0:0:
196,325,84499,1,0,0:0:0:0:
266,325,84657,1,0,0:0:0:0:
335,328,84815,1,0,0:0:0:0:
399,300,84973,1,0,0:0:0:0:
433,239,85131,5,0,0:0:0:0:
442,170,85288,1,0,0:0:0:0:
422,102,85446,1,0,0:0:0:0:
367,57,85604,1,0,0:0:0:0:
297,46,85762,1,0,0:0:0:0:
229,63,85920,1,0,0:0:0:0:
183,116,86078,1,0,0:0:0:0:
183,186,86236,1,0,0:0:0:0:
209,250,86394,1,0,0:0:0:0:
268,286,86552,1,0,0:0:0:0:
333,260,86710,5,0,0:0:0:0:
333,260,86867,1,0,0:0:0:0:
349,192,87025,1,0,0:0:0:0:
349,192,87183,1,0,0:0:0:0:
297,144,87341,1,0,0:0:0:0:
297,144,87499,1,0,0:0:0:0:
241,187,87657,1,0,0:0:0:0:
241,187,87973,1,0,0:0:0:0:
180,265,88288,5,0,0:0:0:0:
240,88,88446,1,0,0:0:0:0:
299,270,88604,1,0,0:0:0:0:
148,153,88762,1,0,0:0:0:0:
319,155,88920,1,0,0:0:0:0:
256,192,89078,12,0,89867,0:0:0:0:
43,106,90025,6,0,P|77:78|108:71,1,70
160,102,90341,2,0,P|138:129|106:141,1,70
105,211,90657,1,0,0:0:0:0:
117,279,90815,1,0,0:0:0:0:
167,327,90973,2,0,B|215:305|262:357|308:316,1,140
264,261,91446,5,0,0:0:0:0:
264,261,91604,1,0,0:0:0:0:
199,233,91762,2,0,P|255:192|331:234,1,140
379,181,92236,1,0,0:0:0:0:
441,145,92394,2,0,P|450:178|441:212,2,70
393,93,92867,1,0,0:0:0:0:
322,92,93025,2,0,P|276:148|196:130,1,140
249,83,93499,5,0,0:0:0:0:
249,83,93657,1,0,0:0:0:0:
204,28,93815,2,0,P|176:66|173:108,1,70
154,155,94131,1,0,0:0:0:0:
102,201,94288,2,0,L|177:346,1,140
232,296,94762,5,0,0:0:0:0:
281,345,94920,1,0,0:0:0:0:
340,307,95078,1,0,0:0:0:0:
309,244,95236,2,0,P|351:233|393:257,1,70
403,264,95552,2,0,L|426:113,1,140
290,84,96183,6,0,P|210:102|149:78,1,140
59,316,96815,2,0,P|80:250|60:185,1,140
96,111,97446,2,0,L|198:208,1,140
247,258,97920,1,0,0:0:0:0:
289,124,98236,5,0,0:0:0:0:
373,38,98394,1,0,0:0:0:0:
484,105,98552,1,0,0:0:0:0:
456,218,98710,1,0,0:0:0:0:
343,226,98867,1,0,0:0:0:0:
364,292,99025,6,0,B|330:339|283:359|215:344,1,140
264,281,99499,2,0,B|248:236|201:211|141:223,1,140
128,288,99973,1,0,0:0:0:0:
76,240,100131,5,0,0:0:0:0:
76,240,100288,1,0,0:0:0:0:
106,177,100446,1,0,0:0:0:0:
93,108,100604,2,0,B|126:84|161:129|196:121|196:121|247:117,1,140
278,69,101078,1,0,0:0:0:0:
385,158,101394,6,0,P|421:169|466:150,1,70
464,230,101710,2,0,L|437:320,1,70
383,333,102025,1,0,0:0:0:0:
347,272,102183,1,0,0:0:0:0:
296,320,102341,1,0,0:0:0:0:
228,302,102499,6,0,L|93:257,1,140
118,191,102973,1,0,0:0:0:0:
72,137,103131,2,0,B|111:92|162:140|193:132|199:85,1,140
239,45,103604,1,0,0:0:0:0:
375,76,103920,6,0,L|419:133,1,70
466,182,104236,2,0,P|454:224|470:247,1,70
401,270,104552,1,0,0:0:0:0:
437,329,104710,2,0,L|299:371,1,140
167,334,105341,6,0,P|122:248|156:194,1,140
167,144,105815,1,0,0:0:0:0:
167,144,105973,2,0,P|211:195|190:259,1,140
133,217,106446,1,0,0:0:0:0:
133,217,106604,2,0,L|291:210,1,140
351,94,107236,5,0,0:0:0:0:
405,33,107552,2,0,L|362:173,2,140
458,190,108499,1,0,0:0:0:0:
428,279,108815,6,0,B|343:405|263:307|263:307|235:307|236:266|236:266|236:231|259:232|259:232|289:231|288:266|288:266|291:306|164:419|83:269,1,630
472,316,119236,6,0,B|434:270|386:358|344:320,1,140
278,295,119710,1,0,0:0:0:0:
208,226,119867,1,0,0:0:0:0:
247,91,120183,1,0,0:0:0:0:
382,128,120499,1,0,0:0:0:0:
382,128,120815,5,0,0:0:0:0:
346,128,120894,1,0,0:0:0:0:
310,127,120973,1,0,0:0:0:0:
275,129,121052,1,0,0:0:0:0:
239,129,121131,1,0,0:0:0:0:
112,188,121446,1,0,0:0:0:0:
174,313,121762,1,0,0:0:0:0:
174,313,122078,5,0,0:0:0:0:
209,313,122157,1,0,0:0:0:0:
244,313,122236,1,0,0:0:0:0:
279,313,122315,1,0,0:0:0:0:
314,313,122394,1,0,0:0:0:0:
407,208,122710,1,0,0:0:0:0:
331,90,123025,1,0,0:0:0:0:
222,178,123341,5,0,0:0:0:0:
283,211,123499,1,0,0:0:0:0:
303,277,123657,1,0,0:0:0:0:
273,340,123815,1,0,0:0:0:0:
206,360,123973,1,0,0:0:0:0:
150,317,124131,1,0,0:0:0:0:
135,248,124288,6,0,B|72:253|78:181|20:174,1,140
37,106,124762,1,0,0:0:0:0:
87,57,124920,1,0,0:0:0:0:
227,55,125236,1,0,0:0:0:0:
257,191,125552,1,0,0:0:0:0:
257,191,125867,5,0,0:0:0:0:
256,224,125946,1,0,0:0:0:0:
256,256,126025,1,0,0:0:0:0:
256,288,126104,1,0,0:0:0:0:
256,320,126183,1,0,0:0:0:0:
391,354,126499,1,0,0:0:0:0:
391,213,126815,1,0,0:0:0:0:
391,213,127131,5,0,0:0:0:0:
392,176,127210,1,0,0:0:0:0:
392,144,127288,1,0,0:0:0:0:
392,112,127367,1,0,0:0:0:0:
392,80,127446,1,0,0:0:0:0:
261,28,127762,1,0,0:0:0:0:
133,85,128078,1,0,0:0:0:0:
79,214,128394,6,0,P|118:258|126:290,1,70
96,333,128710,2,0,P|137:338|172:317,1,70
206,272,129025,1,0,0:0:0:0:
254,322,129183,1,0,0:0:0:0:
343,315,129341,6,0,B|324:280|365:253|347:208,1,105.000004005432
354,107,129973,2,0,P|294:77|248:92,1,105.000004005432
185,158,130604,2,0,L|185:281,1,105.000004005432
97,321,131236,2,0,P|105:273|114:206,1,105.000004005432
91,114,131867,5,0,0:0:0:0:
168,43,132183,1,0,0:0:0:0:
271,58,132499,2,0,B|246:101|292:131|262:184,1,105.000004005432
271,213,132973,1,0,0:0:0:0:
311,246,133131,2,0,P|352:265|416:248,1,105.000004005432
311,353,133604,5,0,0:0:0:0:
230,297,133762,1,0,0:0:0:0:
130,308,133920,1,0,0:0:0:0:
60,235,134078,1,0,0:0:0:0:
56,125,134236,1,0,0:0:0:0:
138,73,134394,6,0,P|186:103|239:89,1,105.000004005432
253,79,134788,2,0,L|314:81,2,52.5000020027161
260,157,135341,2,0,B|260:233|296:203|291:272,1,105.000004005432
290,307,135815,1,0,0:0:0:0:
254,345,135973,2,0,L|133:343,1,105.000004005432
79,264,136604,1,0,0:0:0:0:
27,172,136920,6,0,B|52:156|52:119|78:113|107:86,1,105.000004005432
129,67,137394,1,0,0:0:0:0:
179,80,137552,2,0,L|301:79,1,105.000004005432
382,42,138183,1,0,0:0:0:0:
431,59,138341,1,0,0:0:0:0:
475,87,138499,2,0,L|473:214,1,105.000004005432
313,328,139446,6,0,P|246:342|202:313,1,105.000004005432
216,273,139920,1,0,0:0:0:0:
254,236,140078,2,0,L|255:119,1,105.000004005432
203,38,140710,1,0,0:0:0:0:
102,68,141025,1,0,0:0:0:0:
60,164,141341,2,0,P|71:213|53:273,1,105.000004005432
127,343,141973,2,0,L|232:343,1,105.000004005432
258,343,142367,5,0,0:0:0:0:
282,335,142446,1,0,0:0:0:0:
306,319,142525,1,0,0:0:0:0:
322,303,142604,2,0,L|391:212,1,105.000004005432
396,167,143078,1,0,0:0:0:0:
373,119,143236,2,0,P|317:131|282:105,2,105.000004005432
171,59,144499,6,0,L|172:178,1,105.000004005432
170,216,144973,1,0,0:0:0:0:
187,265,145131,2,0,L|269:345,1,105.000004005432
356,292,145762,1,0,0:0:0:0:
427,215,146078,6,0,P|404:148|437:109,1,105.000004005432
456,86,146552,1,0,0:0:0:0:
423,44,146710,2,0,L|313:21,2,105.000004005432
377,138,147657,2,0,L|299:218,1,105.000004005432
205,249,148288,1,0,0:0:0:0:
106,63,148920,6,0,B|106:97|88:116|88:116|120:115|120:115|90:138|90:138|120:138|120:138|105:168|105:197,1,210.000008010865
256,192,149710,12,0,152078,0:0:0:0:
248,76,152394,6,0,L|212:149,1,70
146,142,152710,2,0,P|187:202|263:196,1,140
317,189,153183,1,0,0:0:0:0:
373,230,153341,2,0,L|286:342,2,140
440,210,154131,1,0,0:0:0:0:
451,141,154288,2,0,P|418:117|409:79,1,70
256,192,154604,12,0,157131,0:0:0:0:
62,128,157446,6,0,P|116:73|187:77,1,140
227,119,157920,1,0,0:0:0:0:
265,176,158078,2,0,P|233:188|199:183,1,70
130,167,158394,2,0,P|162:246|226:251,1,140
201,325,158867,5,0,0:0:0:0:
331,321,159025,1,0,0:0:0:0:
397,297,159183,1,0,0:0:0:0:
439,241,159341,2,0,L|437:76,1,140
373,70,159815,6,0,P|344:63|320:79,3,35
305,73,160131,1,0,0:0:0:0:
275,91,160210,1,0,0:0:0:0:
267,124,160288,1,0,0:0:0:0:
263,193,160446,1,0,0:0:0:0:
266,262,160604,6,0,P|237:269|213:253,2,35
313,313,160920,1,0,0:0:0:0:
313,313,160999,1,0,0:0:0:0:
313,313,161078,1,0,0:0:0:0:
383,313,161236,1,0,0:0:0:0:
425,257,161394,6,0,L|446:225,3,35
456,192,161710,1,0,0:0:0:0:
456,160,161788,1,0,0:0:0:0:
456,128,161867,1,0,0:0:0:0:
456,56,162025,1,0,0:0:0:0:
248,80,162499,6,0,L|104:152,1,140
88,208,162973,1,0,0:0:0:0:
160,208,163131,2,0,P|120:280|64:272,2,140
232,224,163920,1,0,0:0:0:0:
280,272,164078,2,0,L|352:152,1,140
400,96,164552,2,0,P|448:80|472:88,2,70
192,96,165341,6,0,L|120:72,1,70
64,40,165657,2,0,L|64:184,1,140
80,208,166052,2,0,P|128:224|168:288,1,105
216,304,166446,1,0,0:0:0:0:
288,312,166604,1,0,0:0:0:0:
352,336,166762,2,0,P|352:288|336:256,1,70
318,132,167078,2,0,P|311:166|320:200,1,70
384,168,167394,5,0,0:0:0:0:
384,168,167552,1,0,0:0:0:0:
424,112,167710,1,0,0:0:0:0:
424,112,167867,1,0,0:0:0:0:
408,40,168025,2,0,L|320:40,1,70
272,72,168341,2,0,L|192:72,2,70
315,127,168815,1,0,0:0:0:0:
286,190,168973,1,0,0:0:0:0:
253,252,169131,5,0,0:0:0:0:
179,339,169288,1,0,0:0:0:0:
151,224,169446,1,0,0:0:0:0:
253,252,169604,1,0,0:0:0:0:
256,192,169762,12,0,170710,0:0:0:0:
469,278,170867,6,0,P|435:306|404:313,1,70
352,282,171183,2,0,P|374:255|406:243,1,70
407,173,171499,1,0,0:0:0:0:
395,105,171657,1,0,0:0:0:0:
345,57,171815,2,0,B|297:79|250:27|204:68,1,140
248,123,172288,5,0,0:0:0:0:
248,123,172446,1,0,0:0:0:0:
313,151,172604,2,0,P|257:192|181:150,1,140
133,203,173078,1,0,0:0:0:0:
71,239,173236,2,0,P|62:206|71:172,2,70
119,291,173709,1,0,0:0:0:0:
190,292,173867,2,0,P|236:236|316:254,1,140
263,301,174341,5,0,0:0:0:0:
263,301,174499,1,0,0:0:0:0:
308,356,174657,2,0,P|336:318|339:276,1,70
358,229,174973,1,0,0:0:0:0:
410,183,175130,2,0,L|335:38,1,140
280,88,175604,5,0,0:0:0:0:
231,39,175762,1,0,0:0:0:0:
172,77,175920,1,0,0:0:0:0:
203,140,176078,2,0,P|161:151|119:127,1,70
109,120,176394,2,0,L|86:271,1,140
222,300,177025,6,0,P|302:282|363:306,1,140
453,68,177657,2,0,P|432:134|452:199,1,140
416,273,178288,2,0,L|314:176,1,140
265,126,178762,1,0,0:0:0:0:
223,260,179078,5,0,0:0:0:0:
139,346,179236,1,0,0:0:0:0:
28,279,179394,1,0,0:0:0:0:
56,166,179552,1,0,0:0:0:0:
169,158,179709,1,0,0:0:0:0:
148,92,179867,6,0,B|182:45|229:25|297:40,1,140
248,103,180341,2,0,B|264:148|311:173|371:161,1,140
384,96,180815,1,0,0:0:0:0:
436,144,180973,5,0,0:0:0:0:
436,144,181130,1,0,0:0:0:0:
406,207,181288,1,0,0:0:0:0:
419,276,181446,2,0,B|386:300|351:255|316:263|316:263|265:267,1,140
234,315,181920,1,0,0:0:0:0:
127,226,182236,6,0,P|91:215|46:234,1,70
48,154,182552,2,0,L|75:64,1,70
129,51,182867,1,0,0:0:0:0:
165,112,183025,1,0,0:0:0:0:
216,64,183183,1,0,0:0:0:0:
284,82,183341,6,0,L|419:127,1,140
394,193,183815,1,0,0:0:0:0:
440,247,183973,2,0,B|401:292|350:244|319:252|313:299,1,140
273,339,184446,1,0,0:0:0:0:
137,308,184762,6,0,L|93:251,1,70
46,202,185078,2,0,P|58:160|42:137,1,70
111,114,185394,1,0,0:0:0:0:
75,55,185552,2,0,L|213:13,1,140
345,50,186183,6,0,P|390:136|356:190,1,140
345,240,186657,1,0,0:0:0:0:
345,240,186815,2,0,P|301:189|322:125,1,140
379,167,187288,1,0,0:0:0:0:
379,167,187446,2,0,L|221:174,1,140
174,297,188078,5,0,0:0:0:0:
52,227,188394,2,0,L|95:87,2,140
162,141,189341,5,0,0:0:0:0:
249,82,189499,1,0,0:0:0:0:
251,187,189657,1,0,0:0:0:0:
162,240,189815,1,0,0:0:0:0:
195,301,189973,6,0,P|251:313|328:363,1,140
362,299,190446,1,0,0:0:0:0:
416,254,190604,2,0,L|416:168,1,70
412,113,190920,1,0,0:0:0:0:
277,73,191236,5,0,0:0:0:0:
277,73,191394,1,0,0:0:0:0:
227,122,191552,2,0,L|175:175,1,70
134,226,191867,2,0,P|138:305|202:321,1,140
249,291,192341,1,0,0:0:0:0:
300,338,192499,6,0,L|348:274,1,70
387,227,192815,2,0,P|427:221|466:241,2,70
340,174,193288,1,0,0:0:0:0:
277,143,193446,1,0,0:0:0:0:
208,159,193604,1,0,0:0:0:0:
148,195,193762,2,0,L|69:311,1,140
42,172,194394,6,0,L|121:56,1,140
187,36,194867,1,0,0:0:0:0:
232,88,195025,2,0,P|273:121|309:121,1,70
420,159,195341,2,0,P|391:140|357:139,1,70
311,193,195657,1,0,0:0:0:0:
276,255,195815,2,0,P|309:266|342:255,2,70
230,308,196288,6,0,B|180:274|129:369|84:288,1,140
39,270,196762,1,0,0:0:0:0:
23,201,196920,2,0,L|117:93,1,140
179,123,197394,1,0,0:0:0:0:
244,96,197552,2,0,P|237:163|177:193,1,140
182,262,198025,2,0,L|268:259,1,70
303,211,198341,5,0,0:0:0:0:
303,211,198499,1,0,0:0:0:0:
325,144,198657,2,0,L|395:113,3,70
456,98,199288,1,0,0:0:0:0:
467,167,199446,5,0,0:0:0:0:
467,167,199604,1,0,0:0:0:0:
414,270,199762,1,0,0:0:0:0:
414,270,199920,1,0,0:0:0:0:
363,318,200078,2,0,L|55:315,1,280
55,250,200867,5,0,0:0:0:0:
44,180,201025,1,0,0:0:0:0:
69,114,201183,1,0,0:0:0:0:
136,93,201341,2,0,L|220:71,1,70
213,145,201657,2,0,L|359:146,1,140
413,109,202131,1,0,0:0:0:0:
443,171,202288,5,0,0:0:0:0:
443,171,202446,1,0,0:0:0:0:
430,240,202604,2,0,P|380:237|350:272,1,70
277,269,202920,2,0,P|330:312|399:308,2,140
217,231,203710,5,0,0:0:0:0:
217,231,203867,1,0,0:0:0:0:
151,255,204025,2,0,P|147:207|169:169,1,70
154,187,204341,2,0,L|216:125,1,70
267,107,204657,1,0,0:0:0:0:
336,118,204815,2,0,B|394:69|421:162|481:112,2,140
348,257,205762,1,0,0:0:0:0:
318,320,205920,6,0,L|260:271,1,70
198,298,206236,2,0,L|213:220,1,70
146,200,206552,1,0,0:0:0:0:
135,130,206710,2,0,P|179:73|249:75,2,140
204,136,207499,1,0,0:0:0:0:
243,193,207657,6,0,L|392:194,1,140
304,310,208288,2,0,L|386:190,1,140
440,322,208920,2,0,L|376:182,1,140
381,194,209552,1,0,0:0:0:0:
290,88,209867,5,0,0:0:0:0:
150,97,210183,1,0,0:0:0:0:
150,97,210341,1,0,0:0:0:0:
108,153,210499,2,0,L|108:252,1,70
118,292,210815,2,0,P|189:263|269:288,1,140
309,310,211288,1,0,0:0:0:0:
371,278,211446,6,0,L|420:226,1,70
373,172,211762,2,0,L|314:113,1,70
267,80,212078,1,0,0:0:0:0:
267,80,212236,1,0,0:0:0:0:
210,122,212394,2,0,P|130:126|104:80,1,140
35,92,212867,5,0,0:0:0:0:
34,162,213025,2,0,L|32:244,1,70
55,298,213341,1,0,0:0:0:0:
55,298,213499,1,0,0:0:0:0:
124,289,213657,2,0,L|220:270,1,70
224,338,213973,2,0,L|423:238,1,210
385,178,214604,6,0,L|331:118,1,70
267,119,214920,2,0,P|231:129|190:108,1,70
140,83,215236,1,0,0:0:0:0:
140,83,215394,1,0,0:0:0:0:
73,104,215552,2,0,L|51:183,1,70
67,240,215867,5,0,0:0:0:0:
130,270,216025,1,0,0:0:0:0:
196,291,216183,2,0,L|336:338,1,140
385,294,216657,1,0,0:0:0:0:
385,294,216815,1,0,0:0:0:0:
426,237,216973,6,0,L|427:167,2,70
496,239,217446,1,0,0:0:0:0:
496,239,217604,1,0,0:0:0:0:
499,169,217762,2,0,L|467:88,1,70
410,71,218078,2,0,L|332:46,1,70
285,89,218394,5,0,0:0:0:0:
285,89,218552,1,0,0:0:0:0:
321,148,218710,2,0,P|236:141|218:78,1,140
197,69,219104,1,0,0:0:0:0:
162,61,219183,1,0,0:0:0:0:
130,77,219262,1,0,0:0:0:0:
44,229,219657,6,0,L|122:260,1,70
122,324,219973,2,0,L|196:323,1,70
244,276,220288,1,0,0:0:0:0:
244,276,220446,1,0,0:0:0:0:
285,332,220604,2,0,P|315:300|321:269,1,70
321,204,220920,2,0,L|321:130,1,70
309,64,221236,2,0,P|208:44|161:70,1,140
224,110,221710,6,0,P|184:130|139:120,1,70
100,91,222025,1,0,0:0:0:0:
100,91,222183,1,0,0:0:0:0:
46,135,222341,2,0,L|45:211,1,70
55,274,222657,2,0,L|106:336,1,70
164,302,222973,5,0,0:0:0:0:
210,354,223131,2,0,L|353:302,1,140
397,264,223604,1,0,0:0:0:0:
397,264,223762,1,0,0:0:0:0:
432,203,223920,1,0,0:0:0:0:
418,134,224078,2,0,L|430:98,5,35
324,89,224710,6,0,L|252:143,1,70
269,201,225025,2,0,L|268:286,1,70
221,324,225341,1,0,0:0:0:0:
153,306,225499,1,0,0:0:0:0:
115,246,225657,2,0,P|63:201|68:134,1,140
126,174,226131,2,0,L|193:145,1,70
253,115,226446,1,0,0:0:0:0:
298,62,226604,6,0,L|376:40,1,70
435,53,226920,2,0,L|487:105,1,70
495,172,227236,2,0,L|494:247,1,70
447,295,227552,1,0,0:0:0:0:
447,295,227710,1,0,0:0:0:0:
381,317,227867,6,0,P|296:298|230:325,1,140
151,219,228341,2,0,P|161:252|190:272,1,70
223,209,228657,1,0,0:0:0:0:
284,175,228815,2,0,L|347:131,1,70
410,123,229131,2,0,L|453:122,5,35
351,74,229762,5,0,0:0:0:0:
210,72,230078,1,0,0:0:0:0:
256,192,230394,12,0,234341,0:0:0:0:
