osu file format v12

[General]
AudioFilename: Hatsune Miku - Miku Sabbath.mp3
AudioLeadIn: 0
PreviewTime: 89078
Countdown: 0
SampleSet: Normal
StackLeniency: 0.4
Mode: 0
LetterboxInBreaks: 1
WidescreenStoryboard: 1

[Editor]
DistanceSpacing: 2
BeatDivisor: 4
GridSize: 8
TimelineZoom: 2.1

[Metadata]
Title:Miku Sabbath
TitleUnicode:Miku Sabbath
Artist:UtsuP
ArtistUnicode:鬱P
Creator:Hakurai
Version:Monstrosity
Source:Vocaloid
Tags:hatsune miku sabbath vocaloid metal vocametal vocarock utsup
BeatmapID:337374
BeatmapSetID:134528

[Difficulty]
HPDrainRate:6
CircleSize:4
OverallDifficulty:7
ApproachRate:9
SliderMultiplier:2.1
SliderTickRate:1

[Events]
//Background and Video events
0,0,"Hagane miku.jpg",0,0
//Break Periods
2,109331,117374
//Storyboard Layer 0 (Background)
//Storyboard Layer 1 (Fail)
//Storyboard Layer 2 (Pass)
//Storyboard Layer 3 (Foreground)
//Storyboard Sound Samples
//Background Colour Transformations
3,100,163,162,255

[TimingPoints]
28289,315.78947368421,4,1,0,50,1,0
28289,-100,4,1,0,50,0,0
47236,-156.25,4,1,0,50,0,0
47788,-100,4,1,0,50,0,0
48499,-133.333333333333,4,2,0,50,0,0
51025,-100,4,1,0,50,0,0
53552,-133.333333333333,4,2,0,50,0,0
56075,-100,4,1,0,50,0,0
58604,-133.333333333333,4,2,0,50,0,0
61131,-100,4,1,0,50,0,0
63657,-133.333333333333,4,2,0,50,0,0
66188,-100,4,1,0,50,0,0
67446,-156.25,4,1,0,50,0,0
67999,-100,4,1,0,50,0,0
68710,-133.333333333333,4,2,0,50,0,0
83867,-100,4,1,0,50,0,0
89078,-100,4,1,0,50,0,1
109131,-100,4,1,0,50,0,0
117973,-100,4,1,0,50,0,0
149552,-100,4,1,0,50,0,1
152078,-80,4,1,0,50,0,1
154288,-100,4,1,0,50,0,1
156973,-80,4,1,0,50,0,1
159657,-100,4,1,0,50,0,1
162183,-80,4,1,0,50,0,1
169131,-100,4,1,0,50,0,0
190446,-80,4,1,0,50,0,1
199446,-100,4,1,0,50,0,1
200395,-80,4,1,0,50,0,1
207816,-100,4,1,0,50,0,1
208288,-80,4,1,0,50,0,1
209553,-100,4,1,0,50,0,1
210184,-100,4,1,0,50,0,0
229132,-156.25,4,1,0,50,0,0
229684,-100,4,1,0,50,0,0

[Colours]
Combo1 : 206,206,206
Combo2 : 70,91,94
Combo3 : 255,255,255
Combo4 : 168,152,169

[HitObjects]
415,102,28289,6,0,B|375:142|375:142|311:158,1,105,0|0,0:0|0:0,0:0:0:0:
136,192,28604,2,0,B|100:155|100:155|96:104,1,105,0|0,0:0|0:0,0:0:0:0:
268,73,28920,2,0,L|349:148,1,105,0|0,0:0|0:0,0:0:0:0:
259,308,29236,1,8,0:0:0:0:
339,172,29394,1,8,0:0:0:0:
184,264,29552,6,0,B|208:216|208:216|208:160,1,105,0|0,0:0|0:0,0:0:0:0:
352,96,29867,1,0,0:0:0:0:
256,224,30025,2,0,B|204:235|204:235|160:208,1,105,0|0,0:0|0:0,0:0:0:0:
40,120,30341,1,0,0:0:0:0:
200,91,30499,2,8,B|248:115|248:115|280:179,1,105,8|8,0:0|0:0,0:0:0:0:
360,288,30815,5,0,0:0:0:0:
472,176,30973,1,0,0:0:0:0:
320,144,31131,1,0,0:0:0:0:
232,272,31289,2,0,B|176:248|176:248|144:216,1,105,0|0,0:0|0:0,0:0:0:0:
8,296,31604,1,0,0:0:0:0:
168,288,31762,2,8,B|224:272|224:272|257:235,1,105,8|8,0:0|0:0,0:0:0:0:
304,88,32078,6,0,B|319:97|303:87|303:87|305:105|305:105|290:95|290:95|291:113|291:113|276:104|276:104|277:121|277:121|262:112|262:112|264:130|264:130|249:120|249:120|250:138|250:138|235:128|235:128|236:146|236:146|221:137|221:137|223:154|223:154|207:145|207:145|209:163|209:163|194:153|194:153|195:171|195:171|184:168,1,315,0|0,0:0|0:0,0:0:0:0:
344,224,32711,5,0,0:0:0:0:
184,224,32869,1,0,0:0:0:0:
176,192,32948,1,8,0:0:0:0:
168,160,33027,1,0,0:0:0:0:
334,71,33183,1,8,0:0:0:0:
448,200,33342,6,0,B|433:255|433:255|376:296,1,105,0|0,0:0|0:0,0:0:0:0:
240,320,33658,2,0,B|183:309|183:309|144:272,1,105,0|0,0:0|0:0,0:0:0:0:
264,168,33974,2,0,B|306:201|306:201|320:256,1,105,0|0,0:0|0:0,0:0:0:0:
200,352,34290,1,8,0:0:0:0:
354,268,34448,2,0,B|378:220|378:220|378:156,1,105,8|0,0:0|0:0,0:0:0:0:
276,50,34763,5,0,0:0:0:0:
104,104,34921,2,0,B|72:146|72:146|71:202,1,105,0|0,0:0|0:0,0:0:0:0:
112,352,35237,2,0,B|141:302|141:302|160:232,1,105,0|0,0:0|0:0,0:0:0:0:
256,136,35553,2,0,L|320:88,2,52.5,8|0|8,0:0|0:0|0:0,0:0:0:0:
120,224,35869,6,0,B|72:248|72:248|8:248,1,105,0|0,0:0|0:0,0:0:0:0:
16,96,36184,2,0,B|64:75|64:75|116:76,1,105,0|0,0:0|0:0,0:0:0:0:
208,208,36500,2,0,B|216:248|216:248|256:304,1,105,0|0,0:0|0:0,0:0:0:0:
360,184,36816,1,8,0:0:0:0:
272,48,36974,1,8,0:0:0:0:
104,68,37132,5,0,0:0:0:0:
112,104,37210,1,0,0:0:0:0:
128,144,37290,1,0,0:0:0:0:
152,176,37369,1,0,0:0:0:0:
184,200,37448,1,0,0:0:0:0:
384,216,37763,6,0,B|355:252|355:252|296:272,1,105,8|0,0:0|0:0,0:0:0:0:
136,144,38079,2,0,B|128:193|128:193|149:247,1,105,8|0,0:0|0:0,0:0:0:0:
264,64,38395,5,0,0:0:0:0:
216,216,38553,1,0,0:0:0:0:
310,128,38711,2,0,B|360:101|360:101|388:61,1,105,0|0,0:0|0:0,0:0:0:0:
510,178,39027,2,0,B|470:218|470:218|422:234,1,105,0|0,0:0|0:0,0:0:0:0:
198,298,39342,2,0,B|252:305|252:305|302:298,1,105,8|8,0:0|0:0,0:0:0:0:
511,279,39658,5,0,0:0:0:0:
361,176,39816,2,0,B|306:165|306:165|257:176,1,105,0|0,0:0|0:0,0:0:0:0:
359,41,40132,1,0,0:0:0:0:
216,192,40290,2,0,B|160:176|160:176|109:173,1,105,0|0,0:0|0:0,0:0:0:0:
32,248,40606,2,0,B|56:296|56:296|96:328,1,105,8|8,0:0|0:0,0:0:0:0:
251,162,40921,6,0,B|198:161|198:161|150:182,1,105,0|0,0:0|0:0,0:0:0:0:
31,249,41237,1,0,0:0:0:0:
202,310,41395,1,0,0:0:0:0:
148,144,41553,1,0,0:0:0:0:
344,272,41711,2,0,L|400:304,2,52.5,0|0|8,0:0|0:0|0:0,0:0:0:0:
300,111,42027,5,8,0:0:0:0:
428,160,42184,2,0,L|484:140,1,52.5,8|0,0:0|0:0,0:0:0:0:
440,240,42342,2,0,L|512:240,1,52.5,8|0,0:0|0:0,0:0:0:0:
432,320,42500,2,0,L|500:336,1,52.5,8|0,0:0|0:0,0:0:0:0:
216,192,42816,6,0,L|112:192,1,105,8|0,0:0|0:0,0:0:0:0:
288,192,43132,2,0,L|392:192,1,105,8|0,0:0|0:0,0:0:0:0:
256,104,43448,5,0,0:0:0:0:
256,264,43606,1,0,0:0:0:0:
104,208,43763,2,0,P|88:152|112:104,1,105,0|0,0:0|0:0,0:0:0:0:
256,72,44079,2,0,P|288:104|304:160,1,105,0|0,0:0|0:0,0:0:0:0:
416,48,44395,2,0,P|352:40|312:48,1,105,8|8,0:0|0:0,0:0:0:0:
176,128,44711,6,0,L|128:152,2,52.5,0|0|0,0:0|0:0|0:0,0:0:0:0:
320,64,45027,1,0,0:0:0:0:
264,208,45184,2,0,P|240:248|176:272,1,105,0|0,0:0|0:0,0:0:0:0:
120,128,45500,2,0,P|144:96|208:72,1,105,0|8,0:0|0:0,0:0:0:0:
344,136,45816,5,8,0:0:0:0:
368,288,45974,2,0,L|392:344,2,52.5,0|0|0,0:0|0:0|0:0,0:0:0:0:
224,216,46290,2,0,P|184:176|176:112,1,105,0|0,0:0|0:0,0:0:0:0:
312,56,46606,2,0,P|328:88|320:160,1,105,0|0,0:0|0:0,0:0:0:0:
256,288,46921,1,8,0:0:0:0:
104,240,47079,1,8,0:0:0:0:
200,112,47237,6,0,B|204:112|204:112|216:120|216:120|228:104|228:104|240:120|240:120|252:104|252:104|264:120|264:120|276:104|276:104|288:120|288:120|300:104|300:104|312:120|312:120|324:104|324:104|336:120|336:120|344:104|344:104|356:120,1,236.250009012223,0|0,0:0|0:0,0:0:0:0:
360,184,47869,6,0,L|432:272,1,105,8|0,0:0|0:0,0:0:0:0:
268,268,48184,2,0,L|196:184,1,105,8|0,0:0|0:0,0:0:0:0:
260,88,48500,5,0,0:0:0:0:
152,140,48658,1,0,0:0:0:0:
144,256,48816,2,0,P|112:284|64:296,1,78.7500030040742,0|0,0:0|0:0,0:0:0:0:
20,140,49132,2,0,P|36:88|72:68,1,78.7500030040742,0|0,0:0|0:0,0:0:0:0:
172,80,49448,1,8,0:0:0:0:
128,213,49606,1,8,0:0:0:0:
72,100,49763,6,0,L|16:40,1,78.7500030040742,0|0,0:0|0:0,0:0:0:0:
156,184,50079,2,0,L|212:244,1,78.7500030040742,0|0,0:0|0:0,0:0:0:0:
260,132,50395,1,8,0:0:0:0:
264,252,50553,1,8,0:0:0:0:
372,204,50711,2,0,L|372:120,1,78.7500030040742,0|8,0:0|0:0,0:0:0:0:
240,108,51027,5,0,0:0:0:0:
200,100,51106,1,0,0:0:0:0:
156,104,51184,1,0,0:0:0:0:
88,284,51342,1,0,0:0:0:0:
68,128,51500,2,8,L|48:80,2,52.5,0|0|0,0:0|0:0|0:0,0:0:0:0:
180,240,51816,5,0,0:0:0:0:
336,272,51974,1,8,0:0:0:0:
464,180,52132,1,8,0:0:0:0:
472,148,52211,1,0,0:0:0:0:
471,115,52290,1,0,0:0:0:0:
398,306,52448,1,0,0:0:0:0:
301,165,52606,5,0,0:0:0:0:
187,271,52763,1,0,0:0:0:0:
148,152,52921,1,8,0:0:0:0:
132,124,53000,1,0,0:0:0:0:
104,96,53079,1,8,0:0:0:0:
72,80,53158,1,0,0:0:0:0:
36,68,53236,1,8,0:0:0:0:
20,224,53395,1,8,0:0:0:0:
148,308,53553,6,0,P|184:328|232:324,1,78.7500030040742,0|0,0:0|0:0,0:0:0:0:
336,300,53869,2,0,L|336:212,1,78.7500030040742,0|0,0:0|0:0,0:0:0:0:
240,292,54184,1,0,0:0:0:0:
285,162,54342,1,0,0:0:0:0:
408,224,54499,2,0,L|448:148,1,78.7500030040742,8|8,0:0|0:0,0:0:0:0:
349,160,54816,5,0,0:0:0:0:
219,243,54974,1,0,0:0:0:0:
368,267,55132,1,0,0:0:0:0:
248,152,55290,1,0,0:0:0:0:
248,152,55448,2,0,P|216:129|176:120,1,78.7500030040742,8|8,0:0|0:0,0:0:0:0:
121,241,55763,1,8,0:0:0:0:
32,148,55921,1,8,0:0:0:0:
50,299,56079,5,0,0:0:0:0:
85,326,56158,1,0,0:0:0:0:
129,335,56237,1,0,0:0:0:0:
281,334,56395,2,0,P|333:326|377:290,1,105,0|0,0:0|0:0,0:0:0:0:
265,189,56711,1,8,0:0:0:0:
368,48,56869,2,0,P|316:40|264:52,1,105,8|0,0:0|0:0,0:0:0:0:
108,32,57184,1,0,0:0:0:0:
264,88,57342,5,0,0:0:0:0:
288,112,57421,1,0,0:0:0:0:
308,140,57500,1,0,0:0:0:0:
328,168,57579,1,0,0:0:0:0:
340,200,57658,1,0,0:0:0:0:
48,55,57974,6,0,B|36:104|73:100|68:152,1,105,8|0,0:0|0:0,0:0:0:0:
48,328,58290,2,0,B|73:283|43:269|68:232,1,105,8|0,0:0|0:0,0:0:0:0:
176,184,58606,5,0,0:0:0:0:
224,292,58763,1,0,0:0:0:0:
392,216,58921,2,0,B|373:249|373:249|340:272,1,78.7500030040742,0|0,0:0|0:0,0:0:0:0:
280,172,59237,2,0,B|261:138|261:138|260:96,1,78.7500030040742,8|8,0:0|0:0,0:0:0:0:
361,38,59553,2,0,B|398:51|398:51|421:86,1,78.7500030040742,0|0,0:0|0:0,0:0:0:0:
376,206,59869,5,0,0:0:0:0:
305,108,60027,2,0,B|281:133|281:133|238:144,1,78.7500030040742,0|8,0:0|0:0,0:0:0:0:
180,228,60342,1,8,0:0:0:0:
88,132,60500,2,0,B|68:168|68:168|68:228,1,78.7500030040742,0|8,0:0|0:0,0:0:0:0:
152,284,60816,2,0,B|192:268|192:268|216:228,1,78.7500030040742,8|8,0:0|0:0,0:0:0:0:
307,121,61132,5,0,0:0:0:0:
313,150,61211,1,0,0:0:0:0:
314,176,61290,1,0,0:0:0:0:
248,308,61448,2,0,P|204:336|144:344,1,105,0|0,0:0|0:0,0:0:0:0:
52,224,61763,5,8,0:0:0:0:
36,192,61842,1,0,0:0:0:0:
28,156,61921,1,8,0:0:0:0:
28,120,62000,1,0,0:0:0:0:
36,84,62079,1,0,0:0:0:0:
200,28,62237,5,0,0:0:0:0:
284,164,62395,2,0,L|332:184,2,52.5,0|0|0,0:0|0:0|0:0,0:0:0:0:
148,84,62711,1,0,0:0:0:0:
140,240,62869,1,0,0:0:0:0:
264,140,63027,2,0,L|308:92,4,52.5,8|0|8|0|0,0:0|0:0|0:0|0:0|0:0,0:0:0:0:
220,292,63500,1,8,0:0:0:0:
336,264,63658,6,0,P|382:239|414:200,1,78.7500030040742,8|0,0:0|0:0,0:0:0:0:
361,98,63974,2,0,L|347:181,1,78.7500030040742,0|0,0:0|0:0,0:0:0:0:
336,264,64290,1,8,0:0:0:0:
208,192,64448,2,0,P|180:164|136:144,1,78.7500030040742,8|0,0:0|0:0,0:0:0:0:
40,92,64763,2,0,P|32:52|40:8,1,78.7500030040742,0|0,0:0|0:0,0:0:0:0:
164,68,65079,5,0,0:0:0:0:
68,220,65236,1,8,0:0:0:0:
232,148,65394,1,8,0:0:0:0:
68,116,65553,1,8,0:0:0:0:
192,244,65711,1,8,0:0:0:0:
332,240,65869,2,0,P|372:224|396:196,1,78.7500030040742,0|0,0:0|0:0,0:0:0:0:
428,76,66184,6,0,L|464:32,2,39.3750015020371,0|0|0,0:0|0:0|0:0,0:0:0:0:
312,84,66500,2,0,P|264:92|216:120,1,105,0|0,0:0|0:0,0:0:0:0:
60,88,66816,2,0,L|24:48,2,52.5,8|0|8,0:0|0:0|0:0,0:0:0:0:
192,172,67132,1,0,0:0:0:0:
64,264,67290,1,0,0:0:0:0:
232,320,67448,6,0,B|236:320|236:320|248:328|248:328|260:312|260:312|272:328|272:328|284:312|284:312|296:328|296:328|308:312|308:312|320:328|320:328|332:312|332:312|344:328|344:328|356:312|356:312|368:328|368:328|376:312|376:312|388:328,1,236.250009012223,0|0,0:0|0:0,0:0:0:0:
396,264,68079,6,0,B|397:207|397:207|422:163,1,105,8|0,0:0|0:0,0:0:0:0:
444,132,68316,1,0,0:0:0:0:
431,100,68395,2,0,B|403:52|403:52|355:32,1,105,8|0,0:0|0:0,0:0:0:0:
244,40,68711,6,0,B|205:32|205:32|166:37,1,78.7500030040742,0|0,0:0|0:0,0:0:0:0:
160,156,69027,1,8,0:0:0:0:
92,252,69184,2,0,B|52:260|52:260|0:248,1,78.7500030040742,0|0,0:0|0:0,0:0:0:0:
88,156,69500,1,8,0:0:0:0:
172,240,69658,2,0,L|225:297,1,78.7500030040742,0|0,0:0|0:0,0:0:0:0:
320,228,69974,2,0,L|266:170,1,78.7500030040742,0|0,0:0|0:0,0:0:0:0:
164,108,70290,2,0,L|134:81,4,39.3750015020371,8|0|8|0|8,0:0|0:0|0:0|0:0|0:0,0:0:0:0:
316,216,70763,5,8,0:0:0:0:
264,92,70921,2,0,P|236:56|204:32,1,78.7500030040742,0|0,0:0|0:0,0:0:0:0:
392,152,71237,1,8,0:0:0:0:
300,232,71395,1,0,0:0:0:0:
384,312,71553,1,0,0:0:0:0:
464,216,71711,1,8,0:0:0:0:
300,232,71869,1,8,0:0:0:0:
272,116,72027,6,0,L|244:36,1,78.7500030040742,8|0,0:0|0:0,0:0:0:0:
132,68,72342,2,0,L|164:156,1,78.7500030040742,0|0,0:0|0:0,0:0:0:0:
268,192,72658,1,0,0:0:0:0:
180,272,72816,5,8,0:0:0:0:
172,272,72895,1,0,0:0:0:0:
168,280,72974,1,0,0:0:0:0:
160,280,73053,1,8,0:0:0:0:
156,288,73132,1,8,0:0:0:0:
104,164,73290,5,8,0:0:0:0:
216,128,73448,2,0,L|300:128,1,78.7500030040742,0|0,0:0|0:0,0:0:0:0:
216,220,73763,2,0,L|304:220,1,78.7500030040742,0|0,0:0|0:0,0:0:0:0:
380,176,74079,1,8,0:0:0:0:
264,128,74237,2,0,B|256:100|256:100|280:64|280:64|264:40|264:40,1,78.7500030040742,0|0,0:0|0:0,0:0:0:0:
264,220,74553,2,0,B|272:248|272:248|248:284|248:284|264:308|264:308,1,78.7500030040742,8|0,0:0|0:0,0:0:0:0:
116,168,74869,5,0,0:0:0:0:
76,280,75027,1,0,0:0:0:0:
188,312,75184,1,0,0:0:0:0:
228,200,75342,2,0,L|280:172,4,39.3750015020371,8|0|8|0|8,0:0|0:0|0:0|0:0|0:0,0:0:0:0:
276,308,75816,5,8,0:0:0:0:
392,300,75974,1,0,0:0:0:0:
336,196,76132,1,8,0:0:0:0:
456,196,76290,1,0,0:0:0:0:
414,99,76448,2,0,B|394:139|394:139|398:179,1,78.7500030040742,8|0,0:0|0:0,0:0:0:0:
372,316,76763,2,0,B|340:344|340:344|284:344,1,78.7500030040742,0|0,0:0|0:0,0:0:0:0:
272,240,77079,1,8,0:0:0:0:
144,224,77237,6,0,L|116:180,2,39.3750015020371,0|0|0,0:0|0:0|0:0,0:0:0:0:
128,92,77553,2,0,L|100:136,2,39.3750015020371,8|0|0,0:0|0:0|0:0,0:0:0:0:
240,44,77869,5,8,0:0:0:0:
252,44,77948,1,0,0:0:0:0:
252,32,78027,1,0,0:0:0:0:
268,36,78106,1,8,0:0:0:0:
272,24,78184,1,8,0:0:0:0:
372,96,78342,5,8,0:0:0:0:
328,208,78500,2,0,B|304:248|304:248|272:268,1,78.7500030040742,0|0,0:0|0:0,0:0:0:0:
244,152,78815,1,8,0:0:0:0:
152,228,78974,2,0,B|201:230|201:230|252:208,1,78.7500030040742,0|0,0:0|0:0,0:0:0:0:
348,204,79290,1,8,0:0:0:0:
392,92,79448,1,0,0:0:0:0:
266,75,79606,2,0,B|283:112|283:112|313:135,1,78.7500030040742,0|0,0:0|0:0,0:0:0:0:
312,264,79921,6,0,B|322:224|322:224|308:156,1,78.7500030040742,8|8,0:0|0:0,0:0:0:0:
208,176,80237,1,8,0:0:0:0:
88,184,80395,2,0,L|24:188,4,39.3750015020371,8|0|8|0|8,0:0|0:0|0:0|0:0|0:0,0:0:0:0:
248,184,80869,5,8,0:0:0:0:
352,116,81027,2,0,B|360:96|384:108|400:96|424:72|412:56,1,78.7500030040742,0|0,0:0|0:0,0:0:0:0:
424,208,81342,2,0,B|434:208|410:232|394:244|370:232|362:252,1,78.7500030040742,8|0,0:0|0:0,0:0:0:0:
244,284,81658,1,8,0:0:0:0:
96,216,81816,1,0,0:0:0:0:
130,330,81974,1,8,0:0:0:0:
208,184,82132,6,0,B|208:152|240:152|260:136|264:108,1,78.7500030040742,0|0,0:0|0:0,0:0:0:0:
259,47,82448,2,0,L|279:7,2,39.3750015020371,8|0|0,0:0|0:0|0:0,0:0:0:0:
207,154,82763,1,0,0:0:0:0:
312,216,82921,5,8,0:0:0:0:
324,216,83000,1,0,0:0:0:0:
328,228,83079,1,0,0:0:0:0:
340,228,83158,1,8,0:0:0:0:
344,236,83237,1,8,0:0:0:0:
404,324,83395,5,8,0:0:0:0:
452,204,83553,1,0,0:0:0:0:
400,84,83711,1,0,0:0:0:0:
244,68,83869,6,0,P|184:64|120:88,1,105,0|8,0:0|0:0,0:0:0:0:
68,94,84106,1,8,0:0:0:0:
108,162,84184,2,0,P|160:163|209:183,1,105,8|0,0:0|0:0,0:0:0:0:
368,220,84500,2,0,B|339:261|339:261|277:271,1,105,8|8,0:0|0:0,0:0:0:0:
100,167,84816,2,0,B|123:125|123:125|180:95,1,105,0|8,0:0|0:0,0:0:0:0:
315,199,85132,6,0,B|358:227|358:227|427:215,1,105,8|8,0:0|0:0,0:0:0:0:
464,151,85369,1,8,0:0:0:0:
478,79,85448,2,0,B|438:33|438:33|375:16,1,105,8|8,0:0|0:0,0:0:0:0:
296,80,85763,2,0,B|281:120|281:120|300:196,1,105,8|8,0:0|0:0,0:0:0:0:
208,350,86079,2,0,B|246:311|246:311|244:260,1,105,8|8,0:0|0:0,0:0:0:0:
384,192,86395,5,0,0:0:0:0:
205,82,86553,1,8,0:0:0:0:
157,276,86711,1,0,0:0:0:0:
343,146,86869,1,8,0:0:0:0:
154,133,87027,1,8,0:0:0:0:
193,322,87184,1,8,0:0:0:0:
289,120,87342,1,8,0:0:0:0:
255,326,87500,1,0,0:0:0:0:
192,128,87658,6,0,P|144:96|120:36,1,105,8|0,0:0|0:0,0:0:0:0:
320,256,87974,2,0,P|368:288|384:348,1,105,8|0,0:0|0:0,0:0:0:0:
220,224,88290,6,0,P|200:212|152:216,1,52.5,2|0,0:0|0:0,0:0:0:0:
320,192,88448,2,0,P|340:180|384:188,1,52.5,2|0,0:0|0:0,0:0:0:0:
220,136,88606,2,0,P|200:124|148:132,1,52.5,2|0,0:0|0:0,0:0:0:0:
308,112,88763,2,0,P|328:100|376:108,1,52.5,2|0,0:0|0:0,0:0:0:0:
224,43,88920,1,0,0:0:0:0:
88,92,89078,5,0,0:0:0:0:
76,120,89158,1,0,0:0:0:0:
64,156,89237,1,0,0:0:0:0:
60,188,89316,1,0,0:0:0:0:
60,224,89395,1,0,0:0:0:0:
196,312,89553,6,0,P|248:324|328:320,1,105,8|0,0:0|0:0,0:0:0:0:
436,244,89869,2,0,P|396:264|332:252,1,105,0|0,0:0|0:0,0:0:0:0:
204,172,90184,1,0,0:0:0:0:
312,56,90342,1,0,0:0:0:0:
344,64,90421,1,0,0:0:0:0:
376,84,90500,1,0,0:0:0:0:
396,112,90579,1,0,0:0:0:0:
416,144,90658,1,8,0:0:0:0:
216,104,90816,5,8,0:0:0:0:
304,268,90974,2,0,P|328:296|396:328,2,105,8|0|0,0:0|0:0|0:0,0:0:0:0:
148,144,91448,6,0,P|108:108|28:92,1,105,0|0,0:0|0:0,0:0:0:0:
40,64,91684,1,0,0:0:0:0:
72,48,91763,2,0,P|120:32|200:36,1,105,0|8,0:0|0:0,0:0:0:0:
204,28,92000,1,0,0:0:0:0:
239,31,92079,2,0,P|291:32|341:48,1,105,8|0,0:0|0:0,0:0:0:0:
432,176,92395,5,0,0:0:0:0:
272,212,92553,2,0,P|220:228|144:208,1,105,0|0,0:0|0:0,0:0:0:0:
268,76,92869,2,0,L|268:24,2,52.5,0|0|0,0:0|0:0|0:0,0:0:0:0:
224,264,93184,1,8,0:0:0:0:
384,160,93342,1,8,0:0:0:0:
264,40,93500,2,0,L|152:40,1,105,8|8,0:0|0:0,0:0:0:0:
48,152,93816,6,0,L|160:152,1,105,8|0,0:0|0:0,0:0:0:0:
180,168,94053,1,0,0:0:0:0:
212,180,94132,2,0,P|264:176|304:136,1,105,0|0,0:0|0:0,0:0:0:0:
416,36,94448,1,0,0:0:0:0:
352,180,94606,2,0,P|312:220|240:232,1,105,8|0,0:0|0:0,0:0:0:0:
236,240,94842,1,0,0:0:0:0:
196,256,94921,2,0,P|148:272|104:332,1,105,0|0,0:0|0:0,0:0:0:0:
56,136,95237,6,0,B|72:80|72:80|68:16,1,105,0|0,0:0|0:0,0:0:0:0:
228,32,95553,2,0,B|212:88|212:88|212:136,1,105,0|0,0:0|0:0,0:0:0:0:
256,288,95869,2,0,P|304:264|332:208,1,105,8|8,0:0|0:0,0:0:0:0:
404,80,96184,2,0,L|440:40,4,52.5,0|0|0|0|0,0:0|0:0|0:0|0:0|0:0,0:0:0:0:
276,172,96658,5,0,0:0:0:0:
404,300,96816,1,0,0:0:0:0:
428,128,96974,2,0,B|408:76|408:76|348:44,1,105,0|8,0:0|0:0,0:0:0:0:
168,56,97290,2,0,B|128:84|128:84|72:84,1,105,0|0,0:0|0:0,0:0:0:0:
60,240,97606,1,8,0:0:0:0:
192,156,97763,2,0,P|188:100|152:40,1,105,0|0,0:0|0:0,0:0:0:0:
312,120,98079,2,0,P|334:167|337:219,1,105,0|0,0:0|0:0,0:0:0:0:
200,312,98394,6,0,L|144:328,1,52.5,10|0,0:0|0:0,0:0:0:0:
180,232,98553,2,0,L|116:232,1,52.5,10|0,0:0|0:0,0:0:0:0:
180,144,98711,2,0,L|124:144,1,52.5,10|0,0:0|0:0,0:0:0:0:
200,64,98869,2,0,L|144:48,1,52.5,10|0,0:0|0:0,0:0:0:0:
272,24,99025,1,6,0:0:0:0:
456,108,99184,5,0,0:0:0:0:
468,148,99263,1,0,0:0:0:0:
472,188,99342,1,0,0:0:0:0:
472,232,99421,1,0,0:0:0:0:
456,264,99499,1,0,0:0:0:0:
296,312,99658,5,8,0:0:0:0:
328,168,99816,2,0,B|352:128|352:128|400:96,1,105,0|0,0:0|0:0,0:0:0:0:
244,84,100132,2,0,B|208:120|208:120|148:128,1,105,0|0,0:0|0:0,0:0:0:0:
144,224,100446,1,0,0:0:0:0:
316,232,100606,1,0,0:0:0:0:
356,80,100763,2,0,B|396:56|396:56|456:56,2,105,8|8|8,0:0|0:0|0:0,0:0:0:0:
292,184,101237,5,0,0:0:0:0:
260,208,101316,1,0,0:0:0:0:
228,216,101395,2,0,B|192:228|176:200|140:200|120:232,1,105,0|0,0:0|0:0,0:0:0:0:
40,352,101711,1,0,0:0:0:0:
220,292,101869,1,0,0:0:0:0:
112,176,102025,2,0,B|83:127|83:127|96:80,1,105,0|8,0:0|0:0,0:0:0:0:
272,72,102342,5,0,0:0:0:0:
296,104,102421,1,0,0:0:0:0:
304,144,102500,1,0,0:0:0:0:
200,264,102658,1,0,0:0:0:0:
376,176,102816,6,0,B|384:156|412:176|432:184|460:132,1,105,0|8,0:0|0:0,0:0:0:0:
444,96,103053,1,8,0:0:0:0:
412,76,103132,2,0,B|392:100|352:88|368:68|368:36|336:36,1,105,8|8,0:0|0:0,0:0:0:0:
308,32,103369,1,0,0:0:0:0:
264,40,103448,2,0,B|232:64|216:56|196:44|184:68|180:104|148:120,1,105,0|0,0:0|0:0,0:0:0:0:
56,204,103763,2,0,L|16:244,2,52.5,8|0|8,0:0|0:0|0:0,0:0:0:0:
220,128,104079,6,0,P|272:140|320:124,1,105,0|0,0:0|0:0,0:0:0:0:
236,252,104395,1,0,0:0:0:0:
264,68,104553,1,0,0:0:0:0:
424,42,104711,2,0,B|474:47|474:47|512:85,1,105,8|0,0:0|0:0,0:0:0:0:
270,116,105027,1,0,0:0:0:0:
448,196,105184,1,0,0:0:0:0:
316,288,105342,1,0,0:0:0:0:
280,288,105421,1,0,0:0:0:0:
248,272,105500,1,0,0:0:0:0:
104,148,105658,6,8,B|76:132|104:104|80:84|52:68|24:84,1,105,8|8,0:0|0:0,0:0:0:0:
32,232,105974,2,0,B|52:252|-24:264|52:296|-4:328,1,105,8|8,0:0|0:0,0:0:0:0:
160,252,106290,2,0,B|164:212|196:220|236:228|252:196,1,105,0|0,0:0|0:0,0:0:0:0:
288,224,106527,1,0,0:0:0:0:
320,256,106604,2,0,P|351:297|367:347,1,105,0|0,0:0|0:0,0:0:0:0:
452,268,106921,6,0,P|452:224|496:164,1,105,8|0,0:0|0:0,0:0:0:0:
444,48,107237,2,0,B|424:76|400:92|344:96,1,105,0|0,0:0|0:0,0:0:0:0:
216,116,107553,2,0,B|191:86|233:83|250:60|277:41|255:6,1,105,8|0,0:0|0:0,0:0:0:0:
112,32,107869,1,0,0:0:0:0:
60,184,108027,1,8,0:0:0:0:
208,280,108184,5,0,0:0:0:0:
244,296,108263,1,0,0:0:0:0:
280,308,108342,1,8,0:0:0:0:
316,312,108421,1,0,0:0:0:0:
352,296,108500,1,8,0:0:0:0:
364,140,108658,6,0,B|344:120|332:164|304:180|272:160,1,105,8|0,0:0|0:0,0:0:0:0:
244,144,108895,1,0,0:0:0:0:
212,124,108974,2,0,B|180:104|152:120|140:164|120:144,1,105,8|0,0:0|0:0,0:0:0:0:
0,164,117974,6,0,B|92:252|16:-24|200:208|252:128|128:-28|272:52,1,315,8|8,0:0|0:0,0:0:0:0:
272,64,118527,1,8,0:0:0:0:
280,100,118606,2,0,B|316:132|232:164|296:216,1,105,8|0,0:0|0:0,0:0:0:0:
400,308,118921,2,0,B|425:267|383:226|400:196,1,105,8|0,0:0|0:0,0:0:0:0:
72,160,119553,6,0,B|95:206|95:206|141:234,1,105,0|0,0:0|0:0,0:0:0:0:
290,232,119869,1,8,0:0:0:0:
422,69,120184,1,0,0:0:0:0:
201,46,120500,1,0,0:0:0:0:
211,281,120816,6,0,L|204:229,1,52.5,0|0,0:0|0:0,0:0:0:0:
298,275,120973,2,0,L|345:241,1,52.5,0|0,0:0|0:0,0:0:0:0:
273,223,121131,1,8,0:0:0:0:
339,52,121446,1,8,0:0:0:0:
165,177,121763,1,0,0:0:0:0:
438,54,122079,6,0,L|387:44,1,52.5,0|0,0:0|0:0,0:0:0:0:
497,153,122236,2,0,L|486:101,1,52.5,0|0,0:0|0:0,0:0:0:0:
436,104,122394,1,8,0:0:0:0:
316,367,122711,5,0,0:0:0:0:
316,367,123027,1,0,0:0:0:0:
165,272,123342,6,0,L|151:208,1,52.5,8|0,0:0|0:0,0:0:0:0:
227,190,123499,2,0,L|211:259,1,52.5,8|0,0:0|0:0,0:0:0:0:
289,211,123658,2,0,L|241:157,1,52.5,8|0,0:0|0:0,0:0:0:0:
277,95,123816,2,0,L|232:40,1,52.5,8|0,0:0|0:0,0:0:0:0:
144,92,123974,2,0,L|195:104,1,52.5,8|0,0:0|0:0,0:0:0:0:
286,158,124132,1,8,0:0:0:0:
434,106,124606,6,0,L|414:225,1,105,0|0,0:0|0:0,0:0:0:0:
182,276,124921,1,8,0:0:0:0:
182,276,125237,1,0,0:0:0:0:
247,48,125553,1,0,0:0:0:0:
40,65,125869,6,0,L|2:22,1,52.5,0|0,0:0|0:0,0:0:0:0:
13,95,126025,2,0,L|19:158,1,52.5,0|0,0:0|0:0,0:0:0:0:
86,94,126183,1,8,0:0:0:0:
160,270,126499,1,8,0:0:0:0:
82,67,126816,1,0,0:0:0:0:
364,135,127132,6,0,L|320:165,1,52.5,0|0,0:0|0:0,0:0:0:0:
292,204,127290,2,0,L|256:131,1,52.5,0|0,0:0|0:0,0:0:0:0:
272,103,127448,1,8,0:0:0:0:
419,321,127763,1,0,0:0:0:0:
419,321,128079,1,0,0:0:0:0:
233,266,128395,6,0,L|259:328,1,52.5,8|0,0:0|0:0,0:0:0:0:
155,273,128553,2,0,L|108:237,1,52.5,8|0,0:0|0:0,0:0:0:0:
88,343,128711,2,0,L|98:289,1,52.5,8|0,0:0|0:0,0:0:0:0:
190,239,128869,2,0,L|166:286,1,52.5,8|0,0:0|0:0,0:0:0:0:
145,175,129027,2,0,L|141:119,1,52.5,8|0,0:0|0:0,0:0:0:0:
235,146,129184,1,8,0:0:0:0:
325,355,129658,6,0,B|355:366|345:311|350:276|385:304|415:281,1,105,0|0,0:0|0:0,0:0:0:0:
428,97,129974,1,8,0:0:0:0:
101,314,130132,1,8,0:0:0:0:
249,44,130606,6,0,B|192:128|291:165|239:245,1,210,0|0,0:0|0:0,0:0:0:0:
95,89,131079,1,0,0:0:0:0:
368,101,131236,1,8,0:0:0:0:
368,101,131394,1,8,0:0:0:0:
508,281,131552,2,0,B|460:312|460:312|399:317,1,105
225,240,131867,2,0,B|273:209|273:209|334:204,1,105
147,316,132183,2,0,B|99:347|99:347|38:352,1,105,0|0,0:0|0:0,0:0:0:0:
8,143,132499,5,8,0:0:0:0:
8,143,132657,1,8,0:0:0:0:
226,240,132816,1,0,0:0:0:0:
320,112,132974,1,0,0:0:0:0:
320,112,133053,1,0,0:0:0:0:
320,112,133132,2,0,L|320:216,1,105,0|0,0:0|0:0,0:0:0:0:
158,356,133448,1,0,0:0:0:0:
233,164,133606,6,0,L|203:114,1,52.5,8|0,0:0|0:0,0:0:0:0:
139,115,133763,2,0,L|103:153,1,52.5,8|0,0:0|0:0,0:0:0:0:
158,214,133921,2,0,L|225:260,1,52.5,8|0,0:0|0:0,0:0:0:0:
170,141,134079,2,0,L|120:154,1,52.5,8|0,0:0|0:0,0:0:0:0:
79,234,134237,1,8,0:0:0:0:
455,239,134711,6,0,B|455:238|440:289|440:289|395:322,1,105,0|0,0:0|0:0,0:0:0:0:
115,173,135025,2,0,B|63:157|63:157|0:160,2,105,8|8|0,0:0|0:0|0:0,0:0:0:0:
317,252,135499,1,0,0:0:0:0:
336,56,135658,5,0,0:0:0:0:
336,56,135737,1,0,0:0:0:0:
336,56,135816,2,0,P|284:61|247:97,1,105,0|0,0:0|0:0,0:0:0:0:
153,278,136131,1,0,0:0:0:0:
405,164,136288,1,8,0:0:0:0:
405,164,136446,1,8,0:0:0:0:
201,69,136604,2,0,B|227:117|227:117|268:155,1,105
359,207,136920,5,0,0:0:0:0:
380,197,136999,1,0,0:0:0:0:
374,220,137079,1,0,0:0:0:0:
180,164,137237,1,0,0:0:0:0:
48,327,137395,1,0,0:0:0:0:
98,203,137552,2,0,B|112:159|46:171|15:160|45:99,1,105,8|8,0:0|0:0,0:0:0:0:
257,340,137867,5,0,0:0:0:0:
157,67,138025,1,0,0:0:0:0:
312,72,138183,1,0,0:0:0:0:
312,72,138263,1,0,0:0:0:0:
312,72,138342,2,0,B|302:134|240:101|232:145,1,105,0|0,0:0|0:0,0:0:0:0:
423,151,138658,6,0,L|462:110,1,52.5,8|0,0:0|0:0,0:0:0:0:
429,70,138816,2,0,L|479:21,1,52.5,8|0,0:0|0:0,0:0:0:0:
361,52,138974,2,0,L|305:62,1,52.5,8|0,0:0|0:0,0:0:0:0:
385,135,139132,2,0,L|397:55,1,52.5,8|0,0:0|0:0,0:0:0:0:
447,173,139290,1,8,0:0:0:0:
130,223,139763,6,0,L|97:157,1,52.5,0|0,0:0|0:0,0:0:0:0:
69,275,139921,2,0,L|50:182,1,52.5,0|0,0:0|0:0,0:0:0:0:
111,131,140078,1,8,0:0:0:0:
372,47,140236,1,8,0:0:0:0:
191,141,140394,1,0,0:0:0:0:
191,141,140552,1,0,0:0:0:0:
369,242,140710,6,0,B|318:257|318:257|284:295,1,105
81,216,141025,1,0,0:0:0:0:
60,184,141104,1,0,0:0:0:0:
54,152,141183,1,0,0:0:0:0:
227,60,141341,2,0,B|278:85|278:85|320:148,1,105,8|8,0:0|0:0,0:0:0:0:
243,278,141657,2,0,B|215:324|215:324|152:343,1,105
432,136,141973,5,0,0:0:0:0:
432,136,142052,1,0,0:0:0:0:
432,136,142131,1,0,0:0:0:0:
312,224,142288,2,0,B|264:256|264:256|216:264,1,105
102,137,142606,1,8,0:0:0:0:
418,39,142762,1,8,0:0:0:0:
232,104,142920,2,0,B|216:152|216:152|216:208,1,105
336,312,143236,5,0,0:0:0:0:
368,296,143315,1,0,0:0:0:0:
392,272,143394,1,0,0:0:0:0:
310,137,143553,6,0,L|295:68,1,52.5,8|0,0:0|0:0,0:0:0:0:
217,152,143711,2,0,L|163:189,1,52.5,8|0,0:0|0:0,0:0:0:0:
201,259,143869,2,0,L|156:221,1,52.5,8|0,0:0|0:0,0:0:0:0:
249,187,144027,2,0,L|250:91,1,52.5,8|0,0:0|0:0,0:0:0:0:
241,44,144184,2,0,L|187:127,1,52.5,8|0,0:0|0:0,0:0:0:0:
335,89,144341,1,0,0:0:0:0:
33,91,144816,6,0,L|-85:92,1,105,8|0,0:0|0:0,0:0:0:0:
90,227,145132,1,0,0:0:0:0:
293,179,145290,2,0,L|389:92,1,105,8|0,0:0|0:0,0:0:0:0:
197,304,145604,1,8,0:0:0:0:
384,128,145762,5,8,0:0:0:0:
157,101,145920,1,8,0:0:0:0:
161,321,146078,2,0,P|124:283|103:235,1,105,8|0,0:0|0:0,0:0:0:0:
250,51,146394,2,0,P|286:88|307:136,1,105,8|0,0:0|0:0,0:0:0:0:
295,329,146710,2,0,P|258:291|237:243,1,105,8|0,0:0|0:0,0:0:0:0:
383,77,147025,5,8,0:0:0:0:
383,77,147183,1,8,0:0:0:0:
132,238,147341,2,0,P|184:237|232:218,1,105,8|0,0:0|0:0,0:0:0:0:
479,274,147657,2,0,P|426:274|378:293,1,105,8|0,0:0|0:0,0:0:0:0:
148,100,147973,1,8,0:0:0:0:
192,285,148131,1,8,0:0:0:0:
384,168,148290,1,8,0:0:0:0:
256,192,148448,8,0,149237,0:0:0:0:
90,324,149552,5,14,0:0:0:0:
141,321,149631,1,6,0:0:0:0:
196,305,149710,1,6,0:0:0:0:
238,281,149789,1,6,0:0:0:0:
276,269,149868,1,6,0:0:0:0:
302,60,150026,1,0,0:0:0:0:
133,156,150183,5,14,0:0:0:0:
114,197,150262,1,6,0:0:0:0:
98,239,150341,1,6,0:0:0:0:
86,275,150420,1,6,0:0:0:0:
89,324,150499,1,6,0:0:0:0:
52,153,150657,1,0,0:0:0:0:
148,257,150815,5,14,0:0:0:0:
187,270,150894,1,6,0:0:0:0:
219,256,150973,1,6,0:0:0:0:
255,233,151052,1,6,0:0:0:0:
288,230,151131,1,6,0:0:0:0:
331,240,151210,1,6,0:0:0:0:
376,231,151289,5,14,0:0:0:0:
402,189,151368,1,2,0:0:0:0:
402,147,151447,1,10,0:0:0:0:
387,110,151526,1,2,0:0:0:0:
366,73,151605,1,10,0:0:0:0:
332,59,151683,1,10,0:0:0:0:
301,42,151762,1,10,0:0:0:0:
495,121,151921,1,8,0:0:0:0:
512,379,152078,6,8,B|442:386|454:279|371:330|402:280,1,131.25,14|0,0:0|0:0,0:0:0:0:
144,288,152395,2,0,B|136:240|56:256|48:192,1,131.25,6|0,0:0|0:0,0:0:0:0:
312,240,152711,2,0,B|336:208|336:208|368:232|368:232|392:184,1,131.25,14|0,0:0|0:0,0:0:0:0:
136,112,153027,2,0,B|112:80|112:80|80:104|80:104|56:56,1,131.25,6|0,0:0|0:0,0:0:0:0:
320,96,153342,6,0,B|325:60|355:52|383:98|412:93|405:35|425:32|448:48,1,131.25,14|0,0:0|0:0,0:0:0:0:
200,184,153658,2,0,B|194:219|164:227|136:181|107:186|114:244|94:247|72:232,1,131.25,6|8,0:0|0:0,0:0:0:0:
352,288,153973,2,0,B|376:320|376:320|408:296|408:296|432:344,1,131.25,6|8,0:0|0:0,0:0:0:0:
452,131,154290,2,0,L|503:123,2,52.5,12|8|8,0:0|0:0|0:0,0:0:0:0:
244,88,154606,5,0,0:0:0:0:
82,220,154762,1,6,0:0:0:0:
69,231,154842,1,6,0:0:0:0:
55,242,154921,1,14,0:0:0:0:
239,342,155079,1,2,0:0:0:0:
387,193,155237,5,2,0:0:0:0:
207,83,155395,1,6,0:0:0:0:
192,74,155473,1,6,0:0:0:0:
177,68,155553,1,14,0:0:0:0:
159,277,155711,1,2,0:0:0:0:
99,75,155869,5,2,0:0:0:0:
254,215,156027,1,6,0:0:0:0:
271,232,156106,1,6,0:0:0:0:
288,253,156184,1,14,0:0:0:0:
105,308,156341,5,6,0:0:0:0:
105,308,156420,1,2,0:0:0:0:
105,308,156499,2,0,L|88:247,1,52.5,14|0,0:0|0:0,0:0:0:0:
83,156,156657,2,0,L|162:208,1,52.5,14|0,0:0|0:0,0:0:0:0:
209,111,156815,2,0,L|180:61,1,52.5,14|0,0:0|0:0,0:0:0:0:
232,0,156974,5,14,0:0:0:0:
232,0,157053,1,2,0:0:0:0:
232,0,157132,2,0,B|257:51|302:63|363:48,1,131.25,4|0,0:0|0:0,0:0:0:0:
399,149,157448,2,0,B|363:170|341:211|360:264,1,131.25,14|0,0:0|0:0,0:0:0:0:
224,326,157763,2,0,B|199:275|154:263|93:278,1,131.25,6|0,0:0|0:0,0:0:0:0:
77,150,158079,2,0,B|113:129|135:88|116:35,1,131.25,14|0,0:0|0:0,0:0:0:0:
335,151,158395,6,0,B|328:225|264:171|238:222,1,131.25,6|0,0:0|0:0,0:0:0:0:
141,292,158711,2,0,B|167:241|231:295|238:215,1,131.25,14|0,0:0|0:0,0:0:0:0:
60,26,159027,2,0,B|114:28|156:81|157:125,1,131.25,14|8,0:0|0:0,0:0:0:0:
341,301,159342,2,0,B|302:273|260:323|234:281|180:301,1,131.25,14|0,0:0|0:0,0:0:0:0:
287,97,159658,6,0,L|304:40,2,52.5,14|0|4,0:0|0:0|0:0,0:0:0:0:
236,109,159895,1,4,0:0:0:0:
189,124,159974,1,4,0:0:0:0:
152,153,160053,1,4,0:0:0:0:
120,170,160132,6,0,L|80:130,2,52.5,6|4|14,0:0|0:0|0:0,0:0:0:0:
101,200,160369,1,4,0:0:0:0:
82,233,160448,1,4,0:0:0:0:
44,260,160527,1,4,0:0:0:0:
17,291,160606,6,0,L|38:338,2,52.5,6|4|6,0:0|0:0|0:0,0:0:0:0:
126,316,160842,2,0,L|172:291,1,52.5,4|14,0:0|0:0,0:0:0:0:
222,203,160999,1,4,0:0:0:0:
222,203,161078,1,4,0:0:0:0:
222,203,161158,2,0,L|261:245,1,52.5,4|6,0:0|0:0,0:0:0:0:
292,313,161316,6,0,L|281:261,1,52.5,4|14,0:0|0:0,0:0:0:0:
322,166,161474,1,4,0:0:0:0:
322,166,161552,1,4,0:0:0:0:
322,166,161631,2,0,L|321:218,1,52.5,4|10,0:0|0:0,0:0:0:0:
424,256,161788,2,0,L|381:225,1,52.5,4|14,0:0|0:0,0:0:0:0:
388,105,161946,2,0,L|344:131,1,52.5,2|10,0:0|0:0,0:0:0:0:
57,180,162184,6,0,B|105:196|135:98|168:116,1,131.25,10|0,0:0|0:0,0:0:0:0:
371,100,162500,2,0,B|353:73|392:50|411:62|426:101|468:98|463:40|488:57,1,131.25,2|0,0:0|0:0,0:0:0:0:
211,124,162816,2,0,B|166:119|165:94|161:21|99:75,1,131.25,10|0,0:0|0:0,0:0:0:0:
121,301,163132,5,2,0:0:0:0:
379,254,163290,1,0,0:0:0:0:
138,148,163448,1,10,0:0:0:0:
378,253,163606,1,0,0:0:0:0:
254,22,163763,1,10,0:0:0:0:
258,284,163921,1,0,0:0:0:0:
27,157,164079,1,2,0:0:0:0:
27,157,164237,1,8,0:0:0:0:
284,180,164395,6,0,L|345:158,1,65.625,10|0,0:0|0:0,0:0:0:0:
213,182,164552,2,0,L|258:126,1,65.625,10|0,0:0|0:0,0:0:0:0:
235,101,164710,1,10,0:0:0:0:
105,136,165027,5,0,0:0:0:0:
190,332,165184,2,0,P|226:279|211:187,1,131.25,0|8,0:0|0:0,0:0:0:0:
146,127,165500,5,8,0:0:0:0:
148,340,165658,2,0,P|202:306|224:215,1,131.25,0|8,0:0|0:0,0:0:0:0:
191,136,165974,5,8,0:0:0:0:
103,331,166131,2,0,P|166:322|224:249,1,131.25,0|8,0:0|0:0,0:0:0:0:
227,163,166448,5,8,0:0:0:0:
67,304,166606,2,0,P|128:322|211:279,1,131.25,0|8,0:0|0:0,0:0:0:0:
440,219,166921,1,8,0:0:0:0:
0,312,167236,6,0,B|-1:366|75:315|50:374|108:384,1,131.25,2|2,0:0|0:0,0:0:0:0:
360,320,167553,1,8,0:0:0:0:
488,88,167710,6,0,B|424:94|413:25|344:40,1,131.25,2|2,0:0|0:0,0:0:0:0:
144,176,168027,1,8,0:0:0:0:
384,280,168183,6,0,B|397:339|491:306|467:399|517:357,1,131.25,0|2,0:0|0:0,0:0:0:0:
296,176,168500,1,8,0:0:0:0:
101,80,168658,6,0,B|91:26|0:79|22:-8|-12:6,1,131.25,2|2,0:0|0:0,0:0:0:0:
40,264,168974,1,8,0:0:0:0:
224,160,169132,6,0,L|176:133,1,52.5,6|0,0:0|0:0,0:0:0:0:
256,208,169290,2,0,L|256:147,1,52.5,6|0,0:0|0:0,0:0:0:0:
344,104,169448,2,0,L|395:56,1,52.5,6|0,0:0|0:0,0:0:0:0:
288,128,169606,2,0,L|288:75,1,52.5,6|0,0:0|0:0,0:0:0:0:
288,168,169763,5,0,0:0:0:0:
288,176,169842,1,0,0:0:0:0:
288,184,169921,1,0,0:0:0:0:
288,192,170000,1,0,0:0:0:0:
288,200,170079,1,0,0:0:0:0:
97,327,170236,6,0,B|101:274|81:237|35:235,1,105,0|8,0:0|0:0,0:0:0:0:
172,62,170553,1,0,0:0:0:0:
2,185,170711,2,0,B|50:200|22:252|77:273,1,105,0|0,0:0|0:0,0:0:0:0:
82,276,170948,1,0,0:0:0:0:
107,283,171027,2,0,B|151:245|177:344|210:299,1,105,0|0,0:0|0:0,0:0:0:0:
405,276,171342,6,0,L|311:225,1,105,0|8,0:0|0:0,0:0:0:0:
173,66,171657,1,8,0:0:0:0:
380,33,171816,1,8,0:0:0:0:
414,240,171974,2,0,L|475:329,2,105,0|0|0,0:0|0:0|0:0,0:0:0:0:
252,103,172448,6,0,B|252:64|174:119|145:78,1,105,0|0,0:0|0:0,0:0:0:0:
365,65,172763,1,0,0:0:0:0:
235,230,172921,1,8,0:0:0:0:
67,103,173078,1,0,0:0:0:0:
54,92,173158,1,0,0:0:0:0:
43,83,173237,1,0,0:0:0:0:
19,291,173395,5,0,0:0:0:0:
228,307,173553,2,0,B|276:325|288:238|330:275,1,105,0|0,0:0|0:0,0:0:0:0:
359,283,173790,1,0,0:0:0:0:
424,286,173867,2,0,P|389:222|342:225,1,105,0|8,0:0|0:0,0:0:0:0:
182,110,174184,1,8,0:0:0:0:
361,218,174342,1,8,0:0:0:0:
148,261,174500,5,8,0:0:0:0:
125,265,174579,1,0,0:0:0:0:
102,261,174658,1,8,0:0:0:0:
84,256,174737,1,0,0:0:0:0:
72,246,174816,2,0,B|29:213|19:178|24:145,1,105,0|0,0:0|0:0,0:0:0:0:
203,59,175132,1,0,0:0:0:0:
156,263,175290,5,0,0:0:0:0:
144,278,175369,1,0,0:0:0:0:
134,291,175448,1,8,0:0:0:0:
184,86,175606,1,0,0:0:0:0:
392,70,175763,2,0,B|421:105|469:60|485:126,1,105,0|0,0:0|0:0,0:0:0:0:
478,154,176000,1,0,0:0:0:0:
469,185,176079,2,0,B|491:246|422:212|415:245|452:300,1,105,0|0,0:0|0:0,0:0:0:0:
510,71,176395,5,0,0:0:0:0:
307,128,176553,1,0,0:0:0:0:
109,199,176711,2,0,L|34:278,1,105,8|8,0:0|0:0,0:0:0:0:
199,140,177027,2,0,L|95:140,1,105,0|0,0:0|0:0,0:0:0:0:
80,121,177263,1,0,0:0:0:0:
96,96,177342,2,0,L|201:96,1,105,0|0,0:0|0:0,0:0:0:0:
349,228,177658,5,0,0:0:0:0:
165,330,177816,2,0,B|151:283|224:268|185:230,1,105,0|8,0:0|0:0,0:0:0:0:
46,82,178132,2,0,L|36:186,1,105,0|0,0:0|0:0,0:0:0:0:
193,45,178448,1,8,0:0:0:0:
224,252,178604,2,0,B|265:235|194:167|274:151,1,105,0|8,0:0|0:0,0:0:0:0:
48,215,178921,2,0,B|88:237|112:135|159:168,1,105,0|0,0:0|0:0,0:0:0:0:
341,192,179236,6,0,L|275:147,1,52.5,8|4,0:0|0:0,0:0:0:0:
194,136,179395,2,0,L|245:90,1,52.5,14|4,0:0|0:0,0:0:0:0:
200,196,179553,2,0,L|273:214,1,52.5,14|4,0:0|0:0,0:0:0:0:
295,112,179711,2,0,L|340:157,1,52.5,14|4,0:0|0:0,0:0:0:0:
367,156,179867,5,6,0:0:0:0:
402,133,179948,1,6,0:0:0:0:
426,109,180027,2,0,B|417:74|494:72|460:22,1,105,6|0,0:0|0:0,0:0:0:0:
292,133,180342,1,0,0:0:0:0:
278,103,180421,1,0,0:0:0:0:
262,123,180500,1,8,0:0:0:0:
318,329,180658,5,0,0:0:0:0:
170,179,180816,2,0,B|169:225|78:107|71:232|65:180,1,105,0|0,0:0|0:0,0:0:0:0:
197,362,181132,2,0,B|192:406|198:280|289:399|290:352,1,105,0|0,0:0|0:0,0:0:0:0:
173,181,181448,2,0,B|212:148|232:182|266:140,1,105,0|8,0:0|0:0,0:0:0:0:
455,50,181763,1,8,0:0:0:0:
244,54,181921,1,8,0:0:0:0:
375,218,182079,5,0,0:0:0:0:
404,249,182158,1,0,0:0:0:0:
418,289,182237,1,0,0:0:0:0:
423,324,182316,1,0,0:0:0:0:
422,363,182395,1,0,0:0:0:0:
234,268,182553,2,0,L|322:211,1,105,0|0,0:0|0:0,0:0:0:0:
110,202,182869,5,8,0:0:0:0:
306,127,183027,1,8,0:0:0:0:
324,121,183106,1,0,0:0:0:0:
342,116,183184,1,0,0:0:0:0:
141,179,183342,2,0,L|242:148,1,105,0|0,0:0|0:0,0:0:0:0:
265,139,183579,1,0,0:0:0:0:
295,131,183658,2,0,L|396:100,1,105,0|0,0:0|0:0,0:0:0:0:
191,42,183974,5,0,0:0:0:0:
34,182,184132,1,8,0:0:0:0:
228,262,184290,1,8,0:0:0:0:
95,99,184448,1,8,0:0:0:0:
299,50,184606,5,8,0:0:0:0:
338,47,184684,1,0,0:0:0:0:
381,56,184763,1,8,0:0:0:0:
408,80,184842,1,0,0:0:0:0:
424,106,184921,2,0,P|438:149|418:215,1,105,0|0,0:0|0:0,0:0:0:0:
273,57,185237,1,0,0:0:0:0:
422,205,185395,2,0,B|386:234|379:182|329:149|320:237,1,105,0|8,0:0|0:0,0:0:0:0:
183,348,185711,5,0,0:0:0:0:
118,147,185869,2,0,B|169:160|76:248|145:251,1,105,0|0,0:0|0:0,0:0:0:0:
121,273,186106,1,0,0:0:0:0:
107,301,186184,2,0,B|76:335|51:274|25:338|-19:315,1,105,0|0,0:0|0:0,0:0:0:0:
1,108,186500,2,0,L|122:98,1,105,0|0,0:0|0:0,0:0:0:0:
317,97,186816,2,0,L|421:104,2,105,8|8|8,0:0|0:0|0:0,0:0:0:0:
117,167,187290,6,0,B|168:192|160:96|205:68|220:168|249:126,1,105,8|0,0:0|0:0,0:0:0:0:
236,114,187527,1,0,0:0:0:0:
265,124,187606,2,0,B|290:168|348:86|383:143,1,105,0|0,0:0|0:0,0:0:0:0:
381,333,187921,1,0,0:0:0:0:
187,251,188079,1,8,0:0:0:0:
156,237,188158,1,0,0:0:0:0:
123,222,188237,2,0,B|109:205|54:194|-2:249,1,105,0|8,0:0|0:0,0:0:0:0:
46,16,188553,5,0,0:0:0:0:
27,225,188711,1,0,0:0:0:0:
23,250,188790,1,0,0:0:0:0:
24,273,188869,2,0,B|17:336|96:323|101:373,1,105,8|0,0:0|0:0,0:0:0:0:
278,258,189184,1,8,0:0:0:0:
349,60,189342,6,0,L|272:17,1,52.5,14|4,0:0|0:0,0:0:0:0:
277,118,189499,2,0,L|205:121,1,52.5,14|4,0:0|0:0,0:0:0:0:
244,211,189658,2,0,L|180:272,1,52.5,14|12,0:0|0:0,0:0:0:0:
122,232,189816,2,0,L|95:277,1,52.5,14|4,0:0|0:0,0:0:0:0:
110,148,189973,2,0,L|137:104,4,52.5,6|4|2|4|14,0:0|0:0|0:0|0:0|0:0,0:0:0:0:
376,321,190448,5,0,0:0:0:0:
200,59,190606,2,0,B|246:22|328:48|352:8,1,131.25,0|0,0:0|0:0,0:0:0:0:
508,292,190921,2,0,B|436:290|438:235|384:192|360:272,1,131.25,8|0,0:0|0:0,0:0:0:0:
65,280,191237,2,0,B|31:280|56:330|9:322|16:344,2,65.625,0|0|0,0:0|0:0|0:0,0:0:0:0:
337,117,191553,1,8,0:0:0:0:
32,192,191711,6,0,B|51:132|129:206|192:128,1,131.25,0|0,0:0|0:0,0:0:0:0:
474,90,192027,1,0,0:0:0:0:
185,139,192183,1,8,0:0:0:0:
141,158,192262,1,0,0:0:0:0:
108,190,192342,1,0,0:0:0:0:
88,227,192421,1,0,0:0:0:0:
74,265,192500,1,0,0:0:0:0:
405,242,192658,6,0,B|366:217|368:288|323:307|301:242|254:288,1,131.25,0|8,0:0|0:0,0:0:0:0:
453,18,192974,1,0,0:0:0:0:
144,88,193132,2,0,B|112:64|128:32|40:120|16:80,1,131.25,0|0,0:0|0:0,0:0:0:0:
85,211,193448,2,0,B|88:279|180:284|176:328,1,131.25,8|0,0:0|0:0,0:0:0:0:
233,325,193684,1,0,0:0:0:0:
304,320,193763,2,0,B|338:289|371:328|452:268,1,131.25,0|0,0:0|0:0,0:0:0:0:
257,17,194079,5,8,0:0:0:0:
491,223,194237,1,0,0:0:0:0:
476,270,194316,1,0,0:0:0:0:
439,294,194395,2,0,B|381:287|376:358|304:360,1,131.25,0|0,0:0|0:0,0:0:0:0:
185,63,194711,5,8,0:0:0:0:
185,63,194790,1,0,0:0:0:0:
185,63,194869,1,0,0:0:0:0:
185,63,194948,1,0,0:0:0:0:
185,63,195027,2,0,B|124:64|190:157|123:137|81:147|88:200,1,131.25,0|0,0:0|0:0,0:0:0:0:
396,102,195342,1,8,0:0:0:0:
145,293,195500,1,0,0:0:0:0:
339,44,195658,6,0,B|331:119|439:115|440:168,1,131.25,0|0,0:0|0:0,0:0:0:0:
160,312,195974,2,0,B|222:293|256:328|333:298,1,131.25,8|0,0:0|0:0,0:0:0:0:
512,133,196290,2,0,B|519:51|467:43|408:32|485:-22,1,131.25,0|0,0:0|0:0,0:0:0:0:
119,105,196606,1,8,0:0:0:0:
80,128,196684,1,0,0:0:0:0:
56,163,196763,1,0,0:0:0:0:
295,368,196921,6,0,B|371:355|345:253|431:287,1,131.25,0|0,0:0|0:0,0:0:0:0:
457,258,197158,1,0,0:0:0:0:
448,192,197237,2,0,B|409:166|318:151|299:189,1,131.25,8|0,0:0|0:0,0:0:0:0:
32,16,197553,1,0,0:0:0:0:
185,291,197711,1,0,0:0:0:0:
464,136,197869,2,0,B|417:138|401:53|342:33,1,131.25,8|0,0:0|0:0,0:0:0:0:
90,220,198184,5,0,0:0:0:0:
64,258,198263,1,0,0:0:0:0:
52,306,198342,1,0,0:0:0:0:
323,95,198500,2,0,B|376:128|392:56|482:96,1,131.25,8|0,0:0|0:0,0:0:0:0:
168,160,198816,2,0,B|87:124|72:200|17:162,1,131.25,0|0,0:0|0:0,0:0:0:0:
313,265,199132,1,8,0:0:0:0:
498,10,199290,1,0,0:0:0:0:
339,186,199448,6,0,L|297:138,1,52.5,10|0,0:0|0:0,0:0:0:0:
239,134,199606,2,0,L|271:92,1,52.5,2|0,0:0|0:0,0:0:0:0:
331,43,199762,5,10,0:0:0:0:
285,24,199841,1,8,0:0:0:0:
238,24,199921,1,14,0:0:0:0:
197,24,200000,1,6,0:0:0:0:
165,41,200079,1,14,0:0:0:0:
136,60,200158,1,6,0:0:0:0:
118,81,200237,1,6,0:0:0:0:
98,107,200316,1,6,0:0:0:0:
83,135,200395,1,14,0:0:0:0:
330,270,200553,5,0,0:0:0:0:
30,171,200711,1,0,0:0:0:0:
318,44,200869,2,0,B|365:-10|379:71|439:68|482:-4,1,131.25,0|8,0:0|0:0,0:0:0:0:
144,41,201184,2,0,B|226:70|205:123|273:130,1,131.25,0|0,0:0|0:0,0:0:0:0:
507,339,201500,1,0,0:0:0:0:
508,339,201579,1,0,0:0:0:0:
507,340,201658,1,8,0:0:0:0:
196,285,201816,6,0,B|117:300|98:247|38:296,1,131.25,0|0,0:0|0:0,0:0:0:0:
177,4,202132,1,0,0:0:0:0:
425,111,202290,1,8,0:0:0:0:
417,150,202369,1,0,0:0:0:0:
394,191,202448,1,0,0:0:0:0:
365,217,202527,1,0,0:0:0:0:
329,231,202606,2,0,B|270:252|229:158|174:221,1,131.25,0|0,0:0|0:0,0:0:0:0:
445,40,202921,5,8,0:0:0:0:
182,213,203079,1,0,0:0:0:0:
493,263,203237,2,0,P|407:287|363:346,1,131.25,0|0,0:0|0:0,0:0:0:0:
124,131,203553,2,0,B|128:214|220:142|236:241,1,131.25,8|0,0:0|0:0,0:0:0:0:
218,271,203790,1,0,0:0:0:0:
154,302,203869,2,0,B|136:221|49:293|45:210,1,131.25,0|0,0:0|0:0,0:0:0:0:
345,63,204184,5,8,0:0:0:0:
30,40,204342,1,0,0:0:0:0:
330,136,204500,2,0,L|180:90,1,131.25,0|0,0:0|0:0,0:0:0:0:
334,296,204816,1,8,0:0:0:0:
384,285,204895,1,0,0:0:0:0:
420,260,204974,1,0,0:0:0:0:
450,226,205053,1,0,0:0:0:0:
466,186,205132,2,0,B|454:123|509:95|482:31,1,131.25,0|0,0:0|0:0,0:0:0:0:
178,69,205448,6,0,B|120:77|150:197|76:217,1,131.25,8|0,0:0|0:0,0:0:0:0:
402,95,205763,1,0,0:0:0:0:
267,379,205921,2,0,B|324:323|315:256|285:229,1,131.25,0|8,0:0|0:0,0:0:0:0:
55,28,206237,2,0,B|6:67|116:118|65:172,1,131.25,0|0,0:0|0:0,0:0:0:0:
385,187,206553,2,0,L|458:203,2,65.625,0|0|8,0:0|0:0|0:0,0:0:0:0:
68,169,206869,5,0,0:0:0:0:
68,169,206948,1,0,0:0:0:0:
68,169,207027,1,0,0:0:0:0:
68,169,207106,1,0,0:0:0:0:
68,169,207184,1,0,0:0:0:0:
370,80,207342,1,8,0:0:0:0:
193,341,207500,2,0,B|135:363|110:242|38:310,1,131.25,0|0,0:0|0:0,0:0:0:0:
231,84,207816,6,0,L|276:58,1,52.5,0|0,0:0|0:0,0:0:0:0:
316,124,207973,2,0,L|336:76,1,52.5,8|0,0:0|0:0,0:0:0:0:
293,20,208131,1,0,0:0:0:0:
500,343,208290,1,0,0:0:0:0:
184,341,208448,1,0,0:0:0:0:
51,54,208606,2,0,B|61:116|160:77|95:173|149:176,1,131.25,8|0,0:0|0:0,0:0:0:0:
431,272,208921,5,0,0:0:0:0:
445,237,209000,1,0,0:0:0:0:
456,194,209079,1,0,0:0:0:0:
458,149,209158,1,0,0:0:0:0:
452,110,209237,1,8,0:0:0:0:
263,352,209395,1,0,0:0:0:0:
342,84,209553,6,0,L|342:32,1,52.5,8|0,0:0|0:0,0:0:0:0:
237,81,209711,2,0,L|279:112,1,52.5,8|0,0:0|0:0,0:0:0:0:
333,139,209869,2,0,L|324:190,1,52.5,8|0,0:0|0:0,0:0:0:0:
289,27,210027,1,8,0:0:0:0:
146,134,210184,5,0,0:0:0:0:
42,316,210342,1,0,0:0:0:0:
246,265,210500,2,0,P|295:238|320:195,1,105,0|0,0:0|0:0,0:0:0:0:
117,261,210816,2,0,P|162:235|197:196,1,105,0|0,0:0|0:0,0:0:0:0:
379,88,211132,1,8,0:0:0:0:
170,60,211290,1,8,0:0:0:0:
328,198,211448,6,0,P|349:250|409:285,1,105,0|0,0:0|0:0,0:0:0:0:
203,176,211763,2,0,B|166:177|159:96|94:105,1,105,0|0,0:0|0:0,0:0:0:0:
330,52,212079,2,0,L|439:52,1,105,8|8,0:0|0:0,0:0:0:0:
361,250,212395,1,8,0:0:0:0:
203,110,212553,1,8,0:0:0:0:
407,158,212711,6,0,B|381:113|344:148|323:82,1,105,0|0,0:0|0:0,0:0:0:0:
166,231,213027,1,0,0:0:0:0:
63,49,213184,2,0,P|85:96|94:154,1,105,0|0,0:0|0:0,0:0:0:0:
33,350,213500,1,0,0:0:0:0:
223,262,213658,2,0,B|276:251|252:193|297:187,1,105,8|8,0:0|0:0,0:0:0:0:
461,64,213974,2,0,B|476:73|460:63|460:63|462:81|462:81|447:71|447:71|448:89|448:89|433:80|433:80|434:97|434:97|419:88|419:88|421:106|421:106|406:96|406:96|407:114|407:114|392:104|392:104|393:122|393:122|378:113|378:113|380:130|380:130|364:121|364:121|366:139|366:139|351:129|351:129|352:147|352:147|341:144,1,315,0|0,0:0|0:0,0:0:0:0:
140,138,214606,6,0,B|203:153|188:190|228:195,1,105,8|0,0:0|0:0,0:0:0:0:
249,218,214842,1,8,0:0:0:0:
267,240,214921,2,0,B|303:256|295:328|353:324,1,105,0|8,0:0|0:0,0:0:0:0:
420,129,215237,2,0,L|459:31,1,105,0|0,0:0|0:0,0:0:0:0:
254,85,215553,5,0,0:0:0:0:
251,295,215711,1,0,0:0:0:0:
461,295,215869,1,0,0:0:0:0:
346,127,216027,2,0,B|296:145|295:55|225:97,1,105,0|8,0:0|0:0,0:0:0:0:
122,248,216342,1,8,0:0:0:0:
33,57,216500,5,0,0:0:0:0:
60,63,216579,1,0,0:0:0:0:
86,78,216658,1,0,0:0:0:0:
182,264,216816,1,0,0:0:0:0:
245,63,216974,2,0,L|360:63,1,105,0|8,0:0|0:0,0:0:0:0:
194,211,217290,2,0,L|300:210,1,105,8|8,0:0|0:0,0:0:0:0:
410,46,217606,1,8,0:0:0:0:
216,125,217763,5,0,0:0:0:0:
196,110,217842,1,0,0:0:0:0:
171,95,217921,2,0,B|122:98|122:98|76:61,1,105,0|0,0:0|0:0,0:0:0:0:
71,264,218237,2,0,B|115:253|144:287|146:320,1,105,0|0,0:0|0:0,0:0:0:0:
226,121,218553,1,0,0:0:0:0:
318,309,218711,1,8,0:0:0:0:
124,226,218869,1,8,0:0:0:0:
225,37,219027,5,0,0:0:0:0:
251,60,219106,1,0,0:0:0:0:
286,87,219184,1,0,0:0:0:0:
320,116,219263,1,0,0:0:0:0:
349,142,219342,1,0,0:0:0:0:
157,315,219658,6,0,B|204:308|132:214|226:244|198:236,1,105,8|0,0:0|0:0,0:0:0:0:
332,72,219974,2,0,B|284:78|356:172|262:142|290:150,1,105,8|0,0:0|0:0,0:0:0:0:
86,90,220290,5,0,0:0:0:0:
222,250,220448,1,0,0:0:0:0:
188,42,220606,1,0,0:0:0:0:
143,246,220763,1,0,0:0:0:0:
351,217,220921,2,0,P|390:251|418:302,1,105,0|0,0:0|0:0,0:0:0:0:
382,87,221237,1,8,0:0:0:0:
433,290,221395,6,0,B|471:274|437:217|470:189,1,105,8|0,0:0|0:0,0:0:0:0:
273,103,221711,1,0,0:0:0:0:
236,309,221869,2,0,L|338:273,1,105,0|0,0:0|0:0,0:0:0:0:
132,217,222184,2,0,L|235:236,1,105,8|8,0:0|0:0,0:0:0:0:
439,292,222499,1,8,0:0:0:0:
260,181,222658,1,8,0:0:0:0:
75,48,222816,6,0,B|39:76|79:130|41:153,1,105,0|0,0:0|0:0,0:0:0:0:
6,347,223132,1,0,0:0:0:0:
70,146,223290,2,0,B|100:130|60:76|96:48,1,105,0|0,0:0|0:0,0:0:0:0:
141,255,223606,1,0,0:0:0:0:
266,88,223763,1,8,0:0:0:0:
296,295,223921,1,8,0:0:0:0:
373,225,224079,6,0,L|454:257,1,52.5,10|0,0:0|0:0,0:0:0:0:
415,146,224237,2,0,L|475:170,1,52.5,10|0,0:0|0:0,0:0:0:0:
464,71,224395,2,0,L|526:95,1,52.5,10|0,0:0|0:0,0:0:0:0:
162,155,224711,6,0,B|135:168|92:62|61:117,1,105,8|0,0:0|0:0,0:0:0:0:
239,263,225027,2,0,B|264:306|304:233|341:291,1,105,8|0,0:0|0:0,0:0:0:0:
123,261,225342,5,0,0:0:0:0:
88,244,225421,1,0,0:0:0:0:
62,216,225500,1,0,0:0:0:0:
215,72,225658,1,0,0:0:0:0:
345,236,225816,1,0,0:0:0:0:
163,130,225974,2,0,P|192:171|246:177,1,105,0|0,0:0|0:0,0:0:0:0:
442,106,226290,2,0,P|413:65|359:59,1,105,8|8,0:0|0:0,0:0:0:0:
150,70,226606,6,0,L|80:44,2,52.5,0|0|0,0:0|0:0|0:0,0:0:0:0:
347,141,226921,1,0,0:0:0:0:
328,350,227079,1,0,0:0:0:0:
163,243,227236,2,0,L|93:284,2,52.5,8|0|8,0:0|0:0|0:0,0:0:0:0:
305,86,227553,1,8,0:0:0:0:
105,152,227711,1,8,0:0:0:0:
26,346,227869,6,0,B|45:313|3:259|27:234,1,105,0|0,0:0|0:0,0:0:0:0:
120,57,228184,1,0,0:0:0:0:
192,254,228342,1,0,0:0:0:0:
79,76,228500,2,0,B|88:33|172:84|182:30,1,105,0|0,0:0|0:0,0:0:0:0:
382,78,228816,2,0,L|363:186,1,105,8|8,0:0|0:0,0:0:0:0:
200,112,229132,6,0,B|204:112|204:112|216:120|216:120|228:104|228:104|240:120|240:120|252:104|252:104|264:120|264:120|276:104|276:104|288:120|288:120|300:104|300:104|312:120|312:120|324:104|324:104|336:120|336:120|344:104|344:104|356:120,1,236.250009012223,0|0,0:0|0:0,0:0:0:0:
345,205,229762,2,8,B|311:206|321:260|266:276,1,105,8|8,0:0|0:0,0:0:0:0:
181,272,229999,1,8,0:0:0:0:
117,220,230079,2,8,B|115:168|43:147|73:107,1,105,8|8,0:0|0:0,0:0:0:0:
256,192,230395,12,0,234500,0:0:0:0:
