osu file format v14

[General]
AudioFilename: Hatsune Miku Heart Sutra Hardcore.mp3
AudioLeadIn: 2000
PreviewTime: 36920
Countdown: 0
SampleSet: Normal
StackLeniency: 0.7
Mode: 0
LetterboxInBreaks: 1
WidescreenStoryboard: 1

[Editor]
DistanceSpacing: 1
BeatDivisor: 4
GridSize: 8
TimelineZoom: 1

[Metadata]
Title:Heart Sutra Hardcore
TitleUnicode:Heart Sutra Hardcore
Artist:UtsuP
ArtistUnicode:鬱P
Creator:Satilast
Version:Hardcore
Source:
Tags:hatsune miku, traumatic, yukira_13
BeatmapID:262354
BeatmapSetID:98335

[Difficulty]
HPDrainRate:5
CircleSize:4
OverallDifficulty:6
ApproachRate:9
SliderMultiplier:2.1
SliderTickRate:1

[Events]
//Background and Video events
0,0,"bghsh.jpg",0,0
//Break Periods
//Storyboard Layer 0 (Background)
//Storyboard Layer 1 (Fail)
//Storyboard Layer 2 (Pass)
//Storyboard Layer 3 (Foreground)
//Storyboard Sound Samples

[TimingPoints]
320,300,4,1,0,65,1,0
3920,-80,4,1,0,65,0,0
13520,-133.333333333333,4,1,0,65,0,0
37520,-100,4,1,0,65,0,1
45920,-66.6666666666667,4,1,0,65,0,1
47120,-100,4,1,0,65,0,0
66320,-100,4,1,0,65,0,1
85520,-100,4,1,0,5,0,0
89120,-100,4,1,0,65,0,0

[Colours]
Combo1 : 58,58,58
Combo2 : 100,0,0
Combo3 : 223,0,0

[HitObjects]
96,72,320,5,0,0:0:0:0:
288,216,620,2,0,P|224:232|208:304,1,105
320,120,920,2,0,P|376:152|392:216,1,105
296,32,1220,2,0,P|232:48|216:120,1,105
280,304,1520,6,0,P|344:288|360:216,1,105
128,232,1820,2,0,B|96:272|96:272|112:344,1,105
416,168,2120,2,0,B|448:120|448:120|432:56,1,105
56,64,2420,2,0,B|72:96|72:96|96:112|96:112|112:152,1,105
416,320,2720,6,0,B|400:288|400:288|376:272|376:272|360:232,1,105
304,144,3020,1,0,0:0:0:0:
424,80,3170,1,0,0:0:0:0:
280,224,3320,1,0,0:0:0:0:
400,16,3470,1,0,0:0:0:0:
312,288,3620,1,0,0:0:0:0:
80,144,3770,1,0,0:0:0:0:
304,144,3920,6,0,B|296:128|296:128|320:128|320:128|288:96|288:96|312:64|312:64|296:32,1,131.25
192,160,4220,1,0,0:0:0:0:
312,288,4370,1,0,0:0:0:0:
216,72,4520,2,0,B|176:72|176:72|144:88|144:88|120:64|88:64,1,131.25
224,248,4820,1,0,0:0:0:0:
360,72,4970,1,0,0:0:0:0:
312,288,5120,5,0,0:0:0:0:
56,224,5270,2,0,B|112:200|112:200|88:152|128:96,1,131.25
344,216,5570,1,0,0:0:0:0:
200,320,5720,1,0,0:0:0:0:
424,272,5870,1,0,0:0:0:0:
264,168,6020,1,0,0:0:0:0:
200,320,6170,1,0,0:0:0:0:
360,72,6320,6,0,B|296:88|296:88|256:72|256:72|224:96,1,131.25
312,288,6620,1,0,0:0:0:0:
160,208,6770,1,0,0:0:0:0:
384,168,6920,1,0,0:0:0:0:
264,280,7070,1,0,0:0:0:0:
136,168,7220,1,0,0:0:0:0:
392,208,7370,1,0,0:0:0:0:
224,272,7520,5,0,0:0:0:0:
112,128,7670,1,0,0:0:0:0:
272,40,7820,2,0,B|264:56|264:56|296:72|296:72|272:112|296:160,1,131.25
409,98,8120,5,0,0:0:0:0:
384,120,8195,1,0,0:0:0:0:
356,136,8270,1,0,0:0:0:0:
324,144,8345,1,0,0:0:0:0:
292,145,8420,1,0,0:0:0:0:
260,138,8495,1,0,0:0:0:0:
230,124,8570,1,0,0:0:0:0:
205,103,8645,1,0,0:0:0:0:
184,72,8720,6,0,L|120:40,1,65.625
40,136,8870,2,0,L|104:104,1,65.625
184,192,9020,2,0,L|120:160,1,65.625
40,256,9170,2,0,L|104:224,1,65.625
184,280,9320,6,0,L|112:320,1,65.625
256,272,9470,2,0,L|224:336,1,65.625
312,248,9620,2,0,L|328:312,1,65.625
352,192,9770,2,0,L|400:256,1,65.625
368,64,9920,6,0,P|384:96|384:136,1,65.625
248,160,10070,2,0,P|232:128|232:88,1,65.625
288,48,10220,2,0,P|304:80|304:120,1,65.625
168,136,10370,2,0,P|152:104|152:64,1,65.625
72,88,10520,5,0,0:0:0:0:
56,120,10595,1,0,0:0:0:0:
48,160,10670,1,0,0:0:0:0:
48,192,10745,1,0,0:0:0:0:
56,232,10820,1,0,0:0:0:0:
72,264,10895,1,0,0:0:0:0:
96,288,10970,1,0,0:0:0:0:
128,312,11045,1,0,0:0:0:0:
168,320,11120,6,0,L|232:296,1,65.625
192,256,11270,2,0,L|272:224,1,65.625
208,192,11420,2,0,L|272:168,1,65.625
224,128,11570,2,0,L|288:104,1,65.625
120,88,11720,6,0,L|88:8,1,65.625
72,200,11870,2,0,L|-8:232,1,65.625
184,240,12020,2,0,L|216:320,1,65.625
224,128,12170,2,0,L|288:104,1,65.625
424,96,12320,6,0,L|352:80,1,65.625
296,136,12470,2,0,L|216:120,1,65.625
424,216,12620,2,0,L|352:200,1,65.625
296,256,12770,2,0,L|216:240,1,65.625
208,256,12920,1,0,0:0:0:0:
184,264,12995,1,0,0:0:0:0:
160,272,13070,1,0,0:0:0:0:
144,280,13145,1,0,0:0:0:0:
120,288,13220,5,0,0:0:0:0:
104,248,13295,1,0,0:0:0:0:
88,208,13370,1,0,0:0:0:0:
80,168,13445,1,0,0:0:0:0:
72,128,13520,5,0,0:0:0:0:
208,216,13670,1,0,0:0:0:0:
40,144,13820,1,0,0:0:0:0:
232,200,13970,1,0,0:0:0:0:
16,160,14120,1,0,0:0:0:0:
416,304,14420,1,0,0:0:0:0:
440,120,14570,1,0,0:0:0:0:
232,200,14720,6,0,B|256:192|280:200|280:200|304:192|328:200|328:200|352:192|376:200|376:200|408:200,1,157.500006008148
144,88,15170,1,0,0:0:0:0:
144,304,15320,1,0,0:0:0:0:
232,200,15470,1,0,0:0:0:0:
56,200,15620,1,0,0:0:0:0:
248,152,15770,1,0,0:0:0:0:
32,248,15920,5,0,0:0:0:0:
248,256,16070,1,0,0:0:0:0:
32,144,16220,1,0,0:0:0:0:
248,152,16370,1,0,0:0:0:0:
32,248,16520,1,0,0:0:0:0:
336,56,16820,1,0,0:0:0:0:
384,200,16970,1,0,0:0:0:0:
312,344,17120,6,0,B|288:328|288:328|240:344|200:320|200:320|160:344,1,157.500006008148
136,184,17570,1,0,0:0:0:0:
192,48,17720,2,0,B|216:64|216:64|264:48|304:72|304:72|344:48,1,157.500006008148
80,240,18170,1,0,0:0:0:0:
360,128,18320,6,0,B|320:152|320:152|272:144,1,78.7500030040742
136,184,18620,2,0,B|176:208|176:208|224:200,1,78.7500030040742,0|0,0:0|0:0,0:0:0:0:
416,240,18920,2,0,B|376:264|376:264|328:256,1,78.7500030040742,0|0,0:0|0:0,0:0:0:0:
104,312,19220,2,0,P|80:272|88:216,1,78.7500030040742
336,56,19520,6,0,P|360:96|352:152,1,78.7500030040742
280,304,19820,1,0,0:0:0:0:
232,224,19970,1,0,0:0:0:0:
104,312,20120,1,0,0:0:0:0:
136,184,20270,1,0,0:0:0:0:
8,176,20420,1,0,0:0:0:0:
168,64,20570,1,0,0:0:0:0:
368,280,20720,6,0,B|368:328|368:328|344:368,1,78.7500030040742
456,112,21020,1,0,0:0:0:0:
416,184,21170,1,0,0:0:0:0:
312,32,21320,1,0,0:0:0:0:
320,144,21470,1,0,0:0:0:0:
128,0,21620,1,0,0:0:0:0:
208,128,21770,1,0,0:0:0:0:
72,280,21920,5,0,0:0:0:0:
88,80,22070,1,0,0:0:0:0:
200,248,22220,1,0,0:0:0:0:
8,176,22370,1,0,0:0:0:0:
208,128,22520,1,0,0:0:0:0:
432,248,22820,2,0,B|432:296|432:296|400:344,1,78.7500030040742
352,272,23120,5,0,0:0:0:0:
368,192,23270,1,0,0:0:0:0:
288,224,23420,1,0,0:0:0:0:
352,272,23570,1,0,0:0:0:0:
296,112,23720,1,0,0:0:0:0:
200,248,23870,1,0,0:0:0:0:
352,272,24020,1,0,0:0:0:0:
208,128,24170,1,0,0:0:0:0:
168,312,24320,5,0,0:0:0:0:
352,272,24470,1,0,0:0:0:0:
136,144,24620,1,0,0:0:0:0:
144,360,24770,1,0,0:0:0:0:
352,272,24920,1,0,0:0:0:0:
128,32,25220,1,0,0:0:0:0:
200,248,25520,6,0,P|160:240|104:272,1,78.7500030040742
368,56,25820,1,0,0:0:0:0:
288,152,25970,1,0,0:0:0:0:
352,272,26120,2,0,P|392:264|448:296,1,78.7500030040742
232,40,26420,1,0,0:0:0:0:
288,152,26570,1,0,0:0:0:0:
160,152,26720,6,0,B|152:144|152:144|136:152|136:152|120:128|120:128|80:144,1,78.7500030040742
352,272,27020,2,0,B|360:280|360:280|376:272|376:272|392:296|392:296|432:280,1,78.7500030040742
42,186,27320,2,0,B|23:180|23:180|26:151|26:151|8:147|8:147|8:136,1,78.7500030040742
256,272,27620,2,0,B|256:283|256:283|274:287|274:287|271:316|271:316|290:322,1,78.7500030040742
288,152,27920,5,0,0:0:0:0:
376,120,28070,1,0,0:0:0:0:
424,40,28220,1,0,0:0:0:0:
304,32,28370,1,0,0:0:0:0:
224,168,28520,5,0,0:0:0:0:
352,160,28670,1,0,0:0:0:0:
432,88,28820,1,0,0:0:0:0:
272,8,28970,1,0,0:0:0:0:
152,224,29120,6,0,B|184:256|184:256|192:248|192:248|200:256|200:256|224:256,1,78.7500030040742
440,176,29420,2,0,B|472:208|472:208|472:264,1,78.7500030040742
288,288,29720,1,0,0:0:0:0:
224,168,29870,1,0,0:0:0:0:
432,320,30020,1,0,0:0:0:0:
352,160,30170,1,0,0:0:0:0:
160,336,30320,5,0,0:0:0:0:
72,176,30470,1,0,0:0:0:0:
224,88,30620,2,0,B|264:88|264:88|296:120,1,78.7500030040742
96,304,30920,1,0,0:0:0:0:
144,128,31070,1,0,0:0:0:0:
352,160,31220,2,0,B|380:204|380:204|380:260,1,78.7500030040742
72,176,31520,6,0,B|43:131|43:131|43:75,1,78.7500030040742
304,48,31820,1,0,0:0:0:0:
224,88,31970,1,0,0:0:0:0:
144,128,32120,1,0,0:0:0:0:
144,128,32420,1,0,0:0:0:0:
136,320,32720,6,0,L|152:280,3,39.3750015020371
240,256,33020,2,0,L|224:208,3,39.3750015020371
304,152,33320,2,0,L|320:208,1,39.3750015020371
368,280,33470,2,0,L|400:224,1,39.3750015020371
384,96,33620,2,0,L|400:136,1,39.3750015020371
480,216,33770,2,0,L|456:168,1,39.3750015020371
304,32,33920,6,0,L|256:48,3,39.3750015020371
184,24,34220,2,0,L|152:80,3,39.3750015020371
80,80,34520,2,0,L|96:120,1,39.3750015020371
32,168,34670,2,0,L|56:224,1,39.3750015020371
136,200,34820,2,0,L|153:235,1,39.3750015020371
88,288,34970,2,0,L|112:336,1,39.3750015020371
200,328,35120,6,0,L|240:288,3,39.3750015020371
320,320,35420,2,0,L|328:264,3,39.3750015020371
416,240,35720,2,0,L|392:184,3,39.3750015020371
448,120,36020,2,0,L|408:80,3,39.3750015020371
392,64,36320,5,0,0:0:0:0:
363,41,36395,1,0,0:0:0:0:
328,30,36470,1,0,0:0:0:0:
292,31,36545,1,0,0:0:0:0:
256,38,36620,5,0,0:0:0:0:
220,47,36695,1,0,0:0:0:0:
185,55,36770,1,0,0:0:0:0:
148,56,36845,1,0,0:0:0:0:
113,47,36920,1,0,0:0:0:0:
216,192,37220,1,0,0:0:0:0:
320,320,37520,6,0,P|376:288|392:232,1,105
392,64,37820,1,0,0:0:0:0:
200,272,37970,1,0,0:0:0:0:
192,96,38120,2,0,P|136:128|120:184,1,105
416,256,38420,1,0,0:0:0:0:
280,40,38570,1,0,0:0:0:0:
224,368,38720,6,0,P|280:336|296:280,1,105
304,120,39020,1,0,0:0:0:0:
112,328,39170,1,0,0:0:0:0:
104,152,39320,2,0,P|48:184|32:240,1,105
296,304,39620,1,0,0:0:0:0:
192,96,39770,1,0,0:0:0:0:
304,120,39920,6,0,B|296:144|296:144|304:160|304:160|304:184,1,52.5
400,112,40070,2,0,B|377:123|377:123|371:140|371:140|354:157,1,52.5,0|0,0:0|0:0,0:0:0:0:
472,168,40220,2,0,B|448:160|448:160|432:168|432:168|408:168,1,52.5
480,256,40370,2,0,B|468:233|468:233|451:227|451:227|434:210,1,52.5,0|0,0:0|0:0,0:0:0:0:
296,304,40520,6,0,B|304:280|304:280|296:264|296:264|296:240,1,52.5
192,312,40670,2,0,B|215:301|215:301|221:284|221:284|238:267,1,52.5,0|0,0:0|0:0,0:0:0:0:
112,248,40820,2,0,B|136:256|136:256|152:248|152:248|176:248,1,52.5
120,144,40970,2,0,B|132:167|132:167|149:173|149:173|166:190,1,52.5,0|0,0:0|0:0,0:0:0:0:
192,96,41120,6,0,B|224:120|224:120|232:152|232:152|272:184,1,105
368,344,41420,2,0,P|312:384|248:368,1,105
120,48,41720,2,0,P|176:8|240:24,1,105
96,360,42020,1,0,0:0:0:0:
48,339,42095,1,0,0:0:0:0:
17,298,42170,1,0,0:0:0:0:
11,246,42245,1,0,0:0:0:0:
32,199,42320,6,0,B|16:144|16:144|32:88,1,105
168,288,42620,1,0,0:0:0:0:
120,144,42770,1,0,0:0:0:0:
224,328,42920,1,0,0:0:0:0:
248,184,43070,1,0,0:0:0:0:
272,368,43220,1,0,0:0:0:0:
376,264,43370,1,0,0:0:0:0:
336,80,43520,5,0,0:0:0:0:
480,160,43670,1,0,0:0:0:0:
240,96,43820,1,0,0:0:0:0:
432,64,43970,1,0,0:0:0:0:
152,120,44120,2,0,P|152:64|208:16,2,105
376,264,44570,1,0,0:0:0:0:
88,192,44720,6,0,P|40:216|24:272,1,105
248,152,45020,2,0,P|192:120|136:128,1,105
376,264,45320,2,0,P|384:208|344:152,1,105
216,48,45620,1,0,0:0:0:0:
472,288,45770,1,0,0:0:0:0:
88,192,45920,6,0,B|120:176|120:176|128:192|128:192|168:168|168:168|200:200|200:200|272:176|272:176|320:184,1,236.250009012223
416,96,46220,2,0,B|384:112|384:112|376:96|376:96|336:120|336:120|304:88|304:88|232:112|232:112|184:104,1,236.250009012223
72,288,46520,2,0,B|104:272|104:272|112:288|112:288|152:264|152:264|184:296|184:296|256:272|256:272|304:280,1,236.250009012223
392,376,46820,2,0,B|368:349|368:349|381:337|381:337|348:304|348:304|370:265|370:265|328:202|328:202|324:153,1,236.250009012223
216,48,47120,6,0,P|144:56|120:88,1,105
208,176,47420,1,0,0:0:0:0:
240,288,47570,1,0,0:0:0:0:
393,102,47720,2,0,P|336:56|296:62,1,105
297,186,48020,1,0,0:0:0:0:
240,288,48170,1,0,0:0:0:0:
479,265,48320,6,0,P|471:193|439:169,1,105
352,256,48620,1,0,0:0:0:0:
240,288,48770,1,0,0:0:0:0:
80,56,48920,1,0,0:0:0:0:
416,344,49220,1,0,0:0:0:0:
64,336,49520,6,0,B|56:320|56:320|72:312|72:312|56:288|56:288|80:264|80:264|72:224,1,105
232,40,49820,1,0,0:0:0:0:
272,200,49970,1,0,0:0:0:0:
24,192,50120,2,0,B|29:175|29:175|46:180|46:180|52:152|52:152|86:152|86:152|108:118,1,105
352,101,50420,1,0,0:0:0:0:
267,242,50570,1,0,0:0:0:0:
88,64,50720,6,0,B|104:56|104:56|112:72|112:72|136:56|136:56|160:80|160:80|200:72,1,105
384,232,51020,1,0,0:0:0:0:
224,272,51170,1,0,0:0:0:0:
392,40,51320,1,0,0:0:0:0:
56,328,51620,1,0,0:0:0:0:
192,48,51920,6,0,P|192:104|152:152,1,105
288,96,52220,1,0,0:0:0:0:
88,64,52370,1,0,0:0:0:0:
304,200,52520,6,0,P|248:200|200:160,1,105
256,296,52820,1,0,0:0:0:0:
288,96,52970,1,0,0:0:0:0:
152,312,53120,6,0,P|152:256|192:208,1,105
56,264,53420,1,0,0:0:0:0:
256,296,53570,1,0,0:0:0:0:
40,160,53720,6,0,P|104:160|176:224,1,157.5
152,256,54020,6,0,P|221:198|285:198,1,157.5
280,248,54320,6,0,P|272:200|296:152,1,105
416,56,54620,1,0,0:0:0:0:
400,264,54770,1,0,0:0:0:0:
176,64,54920,2,0,B|184:72|184:72|184:88|184:88|200:72|200:72|200:88|200:88|240:128,1,105
400,264,55220,1,0,0:0:0:0:
304,40,55370,1,0,0:0:0:0:
280,248,55520,6,0,B|272:240|272:240|272:224|272:224|256:240|256:240|256:224|256:224|216:184,1,105
416,56,55820,2,0,B|424:64|424:64|424:80|424:80|440:64|440:64|440:80|440:80|455:98|480:120,1,105
96,200,56120,2,0,B|104:192|104:192|120:192|120:192|104:176|104:176|120:176|120:176|160:136,1,105
400,160,56420,2,0,B|392:168|392:168|376:168|376:168|392:184|392:184|376:184|376:184|336:224,1,105
160,336,56720,5,0,0:0:0:0:
88,224,56870,1,0,0:0:0:0:
152,72,57020,2,0,L|104:184,1,105
328,48,57320,1,0,0:0:0:0:
400,160,57470,1,0,0:0:0:0:
336,312,57620,2,0,L|384:200,1,105
152,72,57920,5,0,0:0:0:0:
24,136,58070,1,0,0:0:0:0:
248,248,58220,1,0,0:0:0:0:
112,312,58370,1,0,0:0:0:0:
96,48,58520,2,0,B|128:48|128:48|176:112,1,105
248,248,58820,2,0,P|304:264|360:248,1,105
416,48,59120,6,0,B|384:48|384:48|336:112,1,105
264,248,59420,2,0,P|208:264|152:248,1,105
80,120,59720,1,0,0:0:0:0:
248,48,59870,1,0,0:0:0:0:
424,128,60020,1,0,0:0:0:0:
248,72,60170,1,0,0:0:0:0:
128,136,60320,5,0,0:0:0:0:
248,96,60470,1,0,0:0:0:0:
384,152,60620,1,0,0:0:0:0:
248,128,60770,1,0,0:0:0:0:
136,216,60920,2,0,P|120:256|120:328,1,105
368,288,61220,1,0,0:0:0:0:
136,216,61370,2,0,L|32:208,2,105
376,216,61820,6,0,L|480:208,1,105
176,72,62120,2,0,L|160:136,1,52.5
136,216,62270,1,0,0:0:0:0:
208,48,62420,1,0,0:0:0:0:
208,48,62570,2,0,L|328:64,1,105
72,176,62870,2,0,L|192:192,1,105
304,320,63170,1,0,0:0:0:0:
408,160,63320,6,0,L|416:104,2,52.5
208,48,63620,2,0,L|136:32,2,52.5
304,320,63920,2,0,L|356:317,2,52.5
96,232,64220,2,0,L|43:234,2,52.5
208,48,64520,5,0,0:0:0:0:
216,64,64595,1,0,0:0:0:0:
224,80,64670,1,0,0:0:0:0:
232,96,64745,1,0,0:0:0:0:
240,112,64820,1,0,0:0:0:0:
224,128,64895,1,0,0:0:0:0:
208,144,64970,1,0,0:0:0:0:
192,160,65045,1,0,0:0:0:0:
176,176,65120,1,0,0:0:0:0:
184,200,65195,1,0,0:0:0:0:
192,224,65270,1,0,0:0:0:0:
200,248,65345,1,0,0:0:0:0:
208,272,65420,1,0,0:0:0:0:
208,272,65720,5,0,0:0:0:0:
208,272,66020,1,0,0:0:0:0:
408,64,66320,6,0,L|400:128,1,52.5
296,240,66470,2,0,L|352:272,1,52.5
296,240,66620,2,0,P|352:256|400:248,1,105
216,144,66920,2,0,P|160:128|112:136,1,105
80,160,67145,1,0,0:0:0:0:
56,192,67220,2,0,L|80:80,1,105
272,32,67520,6,0,L|288:96,1,52.5
368,144,67670,2,0,L|392:88,1,52.5
256,176,67820,2,0,L|272:240,1,52.5
352,288,67970,2,0,L|376:232,2,52.5
408,152,68270,1,0,0:0:0:0:
408,152,68345,1,0,0:0:0:0:
408,152,68420,2,0,L|288:136,1,105
120,112,68720,5,0,0:0:0:0:
408,152,68870,1,0,0:0:0:0:
352,288,69020,1,0,0:0:0:0:
192,8,69170,1,0,0:0:0:0:
192,8,69245,1,0,0:0:0:0:
192,8,69320,2,0,L|80:24,1,105
48,224,69620,2,0,L|136:208,1,52.5
192,192,69770,1,0,0:0:0:0:
408,152,69920,6,0,L|384:96,1,52.5
352,32,70070,1,0,0:0:0:0:
352,32,70145,1,0,0:0:0:0:
352,32,70220,6,0,L|304:56,1,52.5
328,128,70370,2,0,L|280:152,1,52.5
312,224,70520,2,0,L|264:248,1,52.5
288,320,70670,2,0,L|240:344,1,52.5
216,352,70820,1,0,0:0:0:0:
192,344,70895,1,0,0:0:0:0:
168,336,70970,1,0,0:0:0:0:
144,328,71045,1,0,0:0:0:0:
120,320,71120,6,0,B|96:312|96:312|48:240,1,105
160,40,71420,1,0,0:0:0:0:
184,192,71570,1,0,0:0:0:0:
40,112,71720,1,0,0:0:0:0:
304,112,71870,1,0,0:0:0:0:
160,40,72020,2,0,B|184:48|184:48|232:120,1,105
336,280,72320,6,0,L|408:296,2,52.5
144,344,72620,1,0,0:0:0:0:
320,304,72770,1,0,0:0:0:0:
376,160,72920,2,0,B|384:112|384:112|400:104|400:104|408:56,2,105
264,32,73370,1,0,0:0:0:0:
472,240,73520,6,0,P|464:312|440:344,1,105
80,200,73820,2,0,P|88:272|112:304,1,105
376,40,74120,2,0,P|448:48|480:72,1,105
160,328,74420,1,0,0:0:0:0:
48,96,74570,1,0,0:0:0:0:
320,96,74720,6,0,L|424:136,1,105
368,344,75020,1,0,0:0:0:0:
368,344,75095,1,0,0:0:0:0:
368,344,75170,1,0,0:0:0:0:
192,152,75320,2,0,L|232:48,1,105
424,200,75620,5,0,0:0:0:0:
424,200,75695,1,0,0:0:0:0:
424,200,75770,1,0,0:0:0:0:
424,200,75845,1,0,0:0:0:0:
424,200,75920,6,0,P|400:216|368:216,1,52.5
320,192,76070,2,0,P|304:168|304:136,1,52.5
264,24,76220,6,0,P|280:48|280:80,1,52.5
256,128,76370,2,0,P|232:144|200:144,1,52.5
160,120,76520,1,0,0:0:0:0:
112,104,76595,1,0,0:0:0:0:
64,112,76670,1,0,0:0:0:0:
24,144,76745,1,0,0:0:0:0:
8,192,76820,6,0,L|32:264,1,52.5
64,272,76970,2,0,L|136:256,1,52.5
168,256,77120,2,0,L|192:328,1,52.5
224,336,77270,2,0,L|296:320,1,52.5
312,264,77420,2,0,L|240:280,2,52.5
440,312,77720,6,0,L|400:272,1,52.5
440,160,77870,2,0,L|400:200,1,52.5
264,312,78020,2,0,L|304:272,1,52.5
272,160,78170,2,0,L|312:200,1,52.5
352,240,78320,6,0,L|352:176,1,52.5
328,112,78470,2,0,L|328:48,1,52.5
176,64,78620,2,0,L|176:136,1,52.5
152,184,78770,2,0,L|152:256,1,52.5
352,240,78920,6,0,L|416:264,1,52.5
152,236,79070,2,0,L|88:256,1,52.5
328,152,79220,2,0,L|376:176,1,52.5
192,152,79370,2,0,L|144:176,1,52.5
256,320,79520,5,0,0:0:0:0:
392,120,79670,1,0,0:0:0:0:
104,120,79820,1,0,0:0:0:0:
256,320,79970,1,0,0:0:0:0:
408,64,80120,6,0,L|328:48,3,52.5
312,72,80420,2,0,L|232:56,3,52.5
208,56,80720,5,0,0:0:0:0:
160,72,80795,1,0,0:0:0:0:
120,104,80870,1,0,0:0:0:0:
96,152,80945,1,0,0:0:0:0:
144,184,81020,5,0,0:0:0:0:
160,232,81095,1,0,0:0:0:0:
192,272,81170,1,0,0:0:0:0:
240,296,81245,1,0,0:0:0:0:
272,256,81320,5,0,0:0:0:0:
320,240,81395,1,0,0:0:0:0:
360,208,81470,1,0,0:0:0:0:
384,160,81545,5,0,0:0:0:0:
336,128,81620,1,0,0:0:0:0:
320,80,81695,1,0,0:0:0:0:
288,40,81770,1,0,0:0:0:0:
240,16,81845,5,0,0:0:0:0:
240,16,81920,2,0,L|120:24,1,105
64,280,82220,1,0,0:0:0:0:
48,256,82295,1,0,0:0:0:0:
32,232,82370,1,0,0:0:0:0:
264,192,82520,2,0,L|480:240,1,210
468,237,82970,1,0,0:0:0:0:
448,120,83120,6,0,L|427:10,1,105
288,248,83420,1,0,0:0:0:0:
280,296,83495,1,0,0:0:0:0:
272,344,83570,1,0,0:0:0:0:
192,24,83720,2,0,L|82:45,1,105
320,184,84020,1,0,0:0:0:0:
368,192,84095,1,0,0:0:0:0:
416,200,84170,1,0,0:0:0:0:
88,256,84320,5,0,0:0:0:0:
107,359,84470,1,0,0:0:0:0:
200,152,84620,1,0,0:0:0:0:
192,256,84770,1,0,0:0:0:0:
336,96,84920,1,0,0:0:0:0:
309,197,85070,1,0,0:0:0:0:
40,48,85220,5,0,0:0:0:0:
256,192,85370,12,0,86870,0:0:0:0:
24,144,88220,6,0,L|232:168,1,210
312,208,88595,2,0,L|144:192,1,157.5
192,16,88970,2,0,L|184:80,1,52.5
176,336,89120,6,0,P|192:256|432:264,1,367.5
400,336,89720,2,0,L|320:352,2,52.5
400,128,90020,2,0,L|336:112,1,52.5
240,88,90170,1,0,0:0:0:0:
288,336,90320,6,0,P|272:256|32:328,1,420
80,336,90995,1,0,0:0:0:0:
128,352,91070,1,0,0:0:0:0:
200,96,91220,1,0,0:0:0:0:
152,80,91295,1,0,0:0:0:0:
104,64,91370,1,0,0:0:0:0:
64,200,91520,6,0,P|256:264|352:104,1,420
344,72,92195,1,0,0:0:0:0:
328,48,92270,1,0,0:0:0:0:
216,192,92420,2,0,L|232:264,1,52.5
248,352,92570,1,0,0:0:0:0:
448,120,92720,6,0,B|288:88|288:88|240:104,1,210
448,120,93320,2,0,P|376:160|288:88,1,210
64,232,93920,6,0,P|136:192|80:344,1,420
112,312,94595,1,0,0:0:0:0:
136,280,94670,1,0,0:0:0:0:
400,72,94820,1,0,0:0:0:0:
376,104,94895,1,0,0:0:0:0:
352,136,94970,1,0,0:0:0:0:
81,344,95120,6,0,P|222:265|64:232,1,420
112,312,95795,1,0,0:0:0:0:
136,280,95870,1,0,0:0:0:0:
320,216,96020,2,0,L|360:256,2,52.5
394,169,96320,6,0,P|235:200|376:280,1,420
408,232,96995,1,0,0:0:0:0:
394,169,97070,1,0,0:0:0:0:
120,64,97220,1,0,0:0:0:0:
96,128,97295,1,0,0:0:0:0:
128,184,97370,1,0,0:0:0:0:
280,48,97520,6,0,L|72:80,1,210
232,336,98120,2,0,L|444:303,1,210
312,112,98570,1,0,0:0:0:0:
280,200,98720,6,0,P|224:144|392:152,1,420
384,176,99395,1,0,0:0:0:0:
360,208,99470,1,0,0:0:0:0:
248,296,99620,2,0,P|224:304|184:304,1,52.5
128,280,99770,1,0,0:0:0:0:
40,160,99920,6,0,B|144:40|208:200|328:48,1,315
224,24,100520,2,0,B|118:107|238:155|148:233,1,210
72,232,101120,6,0,P|88:160|176:312,1,420
218,298,102020,2,0,P|264:216|207:127,1,210
206,126,102620,2,0,P|126:126|72:240,1,210
168,216,103220,1,0,0:0:0:0:
304,104,103520,6,0,P|384:104|256:224,1,420
240,32,104420,1,0,0:0:0:0:
200,250,104720,2,0,P|35:209|168:104,1,420
240,344,105620,1,0,0:0:0:0:
424,240,105920,6,0,B|273:96|193:376|44:236,1,420
