osu file format v14

[General]
AudioFilename: P (UtsuP) feat. Kagamine Rin - (Tokyo Teddy Bear) (Neru over).mp3
AudioLeadIn: 0
PreviewTime: 47805
Countdown: 0
SampleSet: Normal
StackLeniency: 0.7
Mode: 3
LetterboxInBreaks: 0
SpecialStyle: 0
WidescreenStoryboard: 1

[Editor]
DistanceSpacing: 0.6
BeatDivisor: 4
GridSize: 4
TimelineZoom: 1.699999

[Metadata]
Title:Tokyo Teddy Bear
TitleUnicode:東京テディベア
Artist:Utsu-P feat.Kagamine Rin
ArtistUnicode:鬱P feat.鏡音リン
Creator:puxtu
Version:SHD
Source:
Tags:Vocaloid Neru Cover 鬱-P UtsuP 鏡音リン VOCALOUD SERIES 01 Breaking of the Emotion Mix TTB PXT
BeatmapID:747621
BeatmapSetID:318207

[Difficulty]
HPDrainRate:8.7
CircleSize:4
OverallDifficulty:8.7
ApproachRate:5
SliderMultiplier:1.4
SliderTickRate:1

[Events]
//Background and Video events
0,0,"BG.jpg",0,0
//Break Periods
//Storyboard Layer 0 (Background)
//Storyboard Layer 1 (Fail)
//Storyboard Layer 2 (Pass)
//Storyboard Layer 3 (Foreground)
//Storyboard Sound Samples

[TimingPoints]
705,300,4,1,1,50,1,0
48555,-100,4,1,1,50,0,1
67905,-100,4,1,1,50,0,0
105405,-80,4,1,1,50,0,0
105555,-133.333333333333,4,1,1,50,0,0
105705,-80,4,1,1,50,0,0
105855,-100,4,1,1,50,0,0
106005,-100,4,1,1,50,0,0
106155,-100,4,1,1,50,0,1
124305,333.333333333333,4,1,1,50,1,1
124305,-90.0900900900901,4,1,1,50,0,1
124638,375,4,1,1,50,1,1
124638,-80,4,1,1,50,0,1
125013,428.571428571429,4,1,1,50,1,1
125013,-70.4225352112676,4,1,1,50,0,1
125441,500,4,1,1,50,1,1
125441,-60.2409638554217,4,1,1,50,0,1
125941,300,4,1,1,50,1,0
125941,-100,4,1,1,50,0,0
156541,-80,4,1,1,50,0,0
156653,-133.333333333333,4,1,1,50,0,0
156766,-80,4,1,1,50,0,0
156878,-133.333333333333,4,1,1,50,0,0
156991,-100,4,1,1,50,0,0
157441,-100,4,1,1,50,0,1
177541,-100,4,1,1,50,0,0

[HitObjects]
448,192,705,5,0,0:0:0:0:
64,192,705,1,0,0:0:0:0:
64,192,1005,1,0,0:0:0:0:
192,192,1005,1,0,0:0:0:0:
320,192,1155,1,0,0:0:0:0:
192,192,1305,1,0,0:0:0:0:
64,192,1305,1,0,0:0:0:0:
448,192,1455,1,0,0:0:0:0:
448,192,1605,1,0,0:0:0:0:
320,192,1605,1,0,0:0:0:0:
64,192,1755,1,0,0:0:0:0:
192,192,1755,1,0,0:0:0:0:
320,192,2055,1,0,0:0:0:0:
64,192,2055,1,0,0:0:0:0:
192,192,2205,1,0,0:0:0:0:
64,192,2205,1,0,0:0:0:0:
448,192,2355,1,0,0:0:0:0:
64,192,2505,1,0,0:0:0:0:
192,192,2505,1,0,0:0:0:0:
320,192,2655,1,0,0:0:0:0:
64,192,2805,1,0,0:0:0:0:
448,192,2805,1,0,0:0:0:0:
448,192,3105,1,0,0:0:0:0:
192,192,3105,1,0,0:0:0:0:
192,192,3405,1,0,0:0:0:0:
64,192,3405,1,0,0:0:0:0:
320,192,3555,1,0,0:0:0:0:
448,192,3555,1,0,0:0:0:0:
192,192,3705,1,0,0:0:0:0:
448,192,3855,1,0,0:0:0:0:
64,192,3855,1,0,0:0:0:0:
320,192,4005,1,0,0:0:0:0:
64,192,4005,1,0,0:0:0:0:
192,192,4155,1,0,0:0:0:0:
64,192,4155,1,0,0:0:0:0:
64,192,4455,1,0,0:0:0:0:
320,192,4605,1,0,0:0:0:0:
448,192,4605,1,0,0:0:0:0:
192,192,4755,1,0,0:0:0:0:
320,192,4905,1,0,0:0:0:0:
64,192,4905,1,0,0:0:0:0:
448,192,5055,1,0,0:0:0:0:
192,192,5205,1,0,0:0:0:0:
320,192,5205,1,0,0:0:0:0:
320,192,5505,1,0,0:0:0:0:
64,192,5505,1,0,0:0:0:0:
64,192,5805,1,0,0:0:0:0:
448,192,5805,1,0,0:0:0:0:
192,192,5955,1,0,0:0:0:0:
320,192,5955,1,0,0:0:0:0:
448,192,6105,1,0,0:0:0:0:
192,192,6105,1,0,0:0:0:0:
64,192,6255,1,0,0:0:0:0:
64,192,6405,1,0,0:0:0:0:
320,192,6405,1,0,0:0:0:0:
192,192,6555,1,0,0:0:0:0:
320,192,6555,1,0,0:0:0:0:
320,192,6855,1,0,0:0:0:0:
448,192,6855,1,0,0:0:0:0:
64,192,7005,1,0,0:0:0:0:
448,192,7005,1,0,0:0:0:0:
192,192,7155,1,0,0:0:0:0:
192,192,7305,1,0,0:0:0:0:
320,192,7305,1,0,0:0:0:0:
448,192,7605,1,0,0:0:0:0:
192,192,7605,1,0,0:0:0:0:
192,192,7905,1,0,0:0:0:0:
320,192,7905,1,0,0:0:0:0:
64,192,8205,1,0,0:0:0:0:
448,192,8205,1,0,0:0:0:0:
320,192,8355,1,0,0:0:0:0:
192,192,8355,1,0,0:0:0:0:
192,192,8655,1,0,0:0:0:0:
64,192,8655,1,0,0:0:0:0:
320,192,8805,1,0,0:0:0:0:
448,192,8805,1,0,0:0:0:0:
64,192,8955,1,0,0:0:0:0:
192,192,8955,1,0,0:0:0:0:
448,192,9255,1,0,0:0:0:0:
320,192,9255,1,0,0:0:0:0:
192,192,9405,1,0,0:0:0:0:
64,192,9405,1,0,0:0:0:0:
320,192,9705,1,0,0:0:0:0:
448,192,9705,1,0,0:0:0:0:
192,192,10005,1,0,0:0:0:0:
320,192,10005,1,0,0:0:0:0:
448,192,10305,1,0,0:0:0:0:
64,192,10305,1,0,0:0:0:0:
320,192,10305,1,0,0:0:0:0:
192,192,10455,1,0,2:0:0:0:
320,192,10605,1,0,0:0:0:0:
192,192,10605,1,0,0:0:0:0:
320,192,10755,1,0,2:0:0:0:
448,192,10905,1,0,0:0:0:0:
64,192,10905,1,0,0:0:0:0:
192,192,11055,1,0,2:0:0:0:
320,192,11205,1,0,0:0:0:0:
192,192,11205,1,0,0:0:0:0:
448,192,11355,1,0,2:0:0:0:
448,192,11505,1,0,0:0:0:0:
64,192,11505,1,0,0:0:0:0:
192,192,11505,1,0,0:0:0:0:
64,192,11655,1,0,2:0:0:0:
448,192,11805,1,0,0:0:0:0:
192,192,11805,1,0,0:0:0:0:
320,192,11955,1,0,2:0:0:0:
320,192,12105,1,0,0:0:0:0:
64,192,12105,1,0,0:0:0:0:
192,192,12255,1,0,2:0:0:0:
448,192,12405,1,0,0:0:0:0:
64,192,12405,1,0,0:0:0:0:
320,192,12555,1,0,2:0:0:0:
64,192,12705,1,0,0:0:0:0:
448,192,12705,1,0,0:0:0:0:
192,192,12705,1,0,0:0:0:0:
64,192,12855,1,0,2:0:0:0:
448,192,13005,1,0,0:0:0:0:
320,192,13005,1,0,0:0:0:0:
448,192,13155,1,0,2:0:0:0:
320,192,13305,1,0,0:0:0:0:
192,192,13305,1,0,0:0:0:0:
64,192,13455,1,0,2:0:0:0:
192,192,13605,1,0,0:0:0:0:
64,192,13605,1,0,0:0:0:0:
320,192,13755,1,0,2:0:0:0:
448,192,13905,1,0,0:0:0:0:
64,192,13905,1,0,0:0:0:0:
192,192,13905,1,0,0:0:0:0:
192,192,14055,1,0,2:0:0:0:
320,192,14205,1,0,0:0:0:0:
448,192,14205,1,0,0:0:0:0:
64,192,14355,1,0,2:0:0:0:
320,192,14505,1,0,0:0:0:0:
192,192,14505,1,0,0:0:0:0:
448,192,14655,1,0,2:0:0:0:
192,192,14805,1,0,0:0:0:0:
64,192,14805,1,0,0:0:0:0:
320,192,14955,1,0,2:0:0:0:
448,192,15105,1,0,0:0:0:0:
64,192,15105,1,0,0:0:0:0:
192,192,15105,1,0,0:0:0:0:
64,192,15255,1,0,2:0:0:0:
192,192,15405,1,0,0:0:0:0:
448,192,15405,1,0,0:0:0:0:
320,192,15555,1,0,2:0:0:0:
320,192,15705,1,0,0:0:0:0:
64,192,15705,1,0,0:0:0:0:
448,192,15855,1,0,2:0:0:0:
192,192,16005,1,0,0:0:0:0:
64,192,16005,1,0,0:0:0:0:
192,192,16155,1,0,2:0:0:0:
448,192,16305,1,0,0:0:0:0:
64,192,16305,1,0,0:0:0:0:
320,192,16305,1,0,0:0:0:0:
448,192,16455,1,4,2:0:0:0:
192,192,16605,1,0,0:0:0:0:
64,192,16605,1,0,0:0:0:0:
64,192,16755,1,4,2:0:0:0:
320,192,16905,1,0,0:0:0:0:
192,192,16905,1,0,0:0:0:0:
320,192,17055,1,4,2:0:0:0:
448,192,17205,1,0,0:0:0:0:
64,192,17205,1,0,0:0:0:0:
448,192,17505,1,4,3:0:0:0:
320,192,17505,1,8,0:0:0:0:
64,192,17505,1,4,2:0:0:0:
192,192,17505,1,0,0:0:0:0:
192,192,17655,1,0,0:0:0:0:
448,192,17655,1,0,0:0:0:0:
320,192,17730,1,0,0:0:0:0:
448,192,17805,1,0,0:0:0:0:
64,192,17805,1,8,0:0:0:0:
192,192,17805,1,0,0:0:0:0:
320,192,17955,1,8,0:0:0:0:
64,192,17955,1,4,2:0:0:0:
192,192,17955,1,0,0:0:0:0:
448,192,17955,1,4,3:0:0:0:
64,192,18255,1,0,0:0:0:0:
320,192,18255,1,8,0:0:0:0:
192,192,18330,1,0,0:0:0:0:
64,192,18405,1,0,0:0:0:0:
320,192,18405,1,8,0:0:0:0:
448,192,18405,1,0,0:0:0:0:
192,192,18555,1,0,0:0:0:0:
448,192,18555,1,4,3:0:0:0:
320,192,18555,1,8,0:0:0:0:
64,192,18555,1,4,2:0:0:0:
192,192,18855,1,0,0:0:0:0:
320,192,18855,1,0,0:0:0:0:
448,192,19005,1,8,0:0:0:0:
320,192,19005,1,0,0:0:0:0:
192,192,19080,1,8,0:0:0:0:
64,192,19080,1,0,0:0:0:0:
448,192,19155,1,8,0:0:0:0:
320,192,19155,1,0,0:0:0:0:
64,192,19230,1,8,0:0:0:0:
192,192,19230,1,0,0:0:0:0:
448,192,19305,1,8,0:0:0:0:
320,192,19305,1,0,0:0:0:0:
64,192,19455,1,8,0:0:0:0:
448,192,19455,1,0,0:0:0:0:
192,192,19455,1,0,0:0:0:0:
320,192,19605,128,0,19905:0:0:0:0:
448,192,19905,1,0,0:0:0:0:
192,192,19905,1,4,0:0:0:0:
64,192,19905,1,8,0:0:0:0:
320,192,19980,1,0,0:0:0:0:
448,192,20055,1,0,0:0:0:0:
192,192,20055,1,0,0:0:0:0:
64,192,20130,1,0,0:0:0:0:
192,192,20205,1,0,0:0:0:0:
448,192,20205,1,8,0:0:0:0:
320,192,20205,1,0,0:0:0:0:
64,192,20280,1,0,0:0:0:0:
448,192,20355,1,0,0:0:0:0:
192,192,20355,1,0,0:0:0:0:
320,192,20430,1,0,0:0:0:0:
192,192,20505,1,0,0:0:0:0:
64,192,20505,1,8,0:0:0:0:
448,192,20505,1,0,0:0:0:0:
320,192,20580,1,0,0:0:0:0:
64,192,20655,1,0,0:0:0:0:
448,192,20655,1,0,0:0:0:0:
192,192,20730,1,0,0:0:0:0:
320,192,20805,1,0,0:0:0:0:
64,192,20805,1,8,0:0:0:0:
448,192,20805,1,0,0:0:0:0:
192,192,20880,1,0,0:0:0:0:
320,192,20955,1,0,0:0:0:0:
64,192,20955,1,0,0:0:0:0:
448,192,21030,1,0,0:0:0:0:
192,192,21105,1,0,0:0:0:0:
64,192,21105,1,8,0:0:0:0:
320,192,21105,1,0,0:0:0:0:
448,192,21180,1,0,0:0:0:0:
320,192,21255,1,0,0:0:0:0:
64,192,21255,1,0,0:0:0:0:
192,192,21330,1,0,0:0:0:0:
448,192,21405,1,8,0:0:0:0:
320,192,21405,1,0,0:0:0:0:
64,192,21405,1,0,0:0:0:0:
192,192,21480,1,0,0:0:0:0:
320,192,21555,1,0,0:0:0:0:
448,192,21555,1,0,0:0:0:0:
192,192,21630,1,0,0:0:0:0:
448,192,21705,1,8,0:0:0:0:
320,192,21705,1,0,0:0:0:0:
64,192,21705,1,0,0:0:0:0:
192,192,21780,1,0,0:0:0:0:
320,192,21855,1,0,0:0:0:0:
64,192,21855,1,0,0:0:0:0:
448,192,21930,1,0,0:0:0:0:
320,192,22005,1,0,0:0:0:0:
64,192,22005,1,8,0:0:0:0:
192,192,22005,1,0,0:0:0:0:
448,192,22080,1,0,0:0:0:0:
320,192,22155,1,0,0:0:0:0:
64,192,22155,1,0,0:0:0:0:
192,192,22230,1,0,0:0:0:0:
320,192,22305,1,0,0:0:0:0:
448,192,22305,1,8,0:0:0:0:
64,192,22305,1,0,0:0:0:0:
192,192,22380,1,0,0:0:0:0:
320,192,22455,1,0,0:0:0:0:
448,192,22455,1,0,0:0:0:0:
64,192,22530,1,0,0:0:0:0:
192,192,22605,1,0,0:0:0:0:
448,192,22605,1,8,0:0:0:0:
320,192,22605,1,0,0:0:0:0:
64,192,22680,1,0,0:0:0:0:
192,192,22755,1,0,0:0:0:0:
448,192,22755,1,0,0:0:0:0:
320,192,22830,1,0,0:0:0:0:
192,192,22905,1,0,0:0:0:0:
64,192,22905,1,8,0:0:0:0:
448,192,22905,1,0,0:0:0:0:
320,192,22980,1,0,0:0:0:0:
192,192,23055,1,0,0:0:0:0:
64,192,23055,1,0,0:0:0:0:
448,192,23130,1,0,0:0:0:0:
192,192,23205,1,0,0:0:0:0:
64,192,23205,1,8,0:0:0:0:
320,192,23205,1,0,0:0:0:0:
448,192,23280,1,0,0:0:0:0:
64,192,23355,1,0,0:0:0:0:
320,192,23355,1,0,0:0:0:0:
192,192,23430,1,0,0:0:0:0:
64,192,23505,1,0,0:0:0:0:
320,192,23505,1,8,0:0:0:0:
448,192,23505,1,0,0:0:0:0:
192,192,23580,1,0,0:0:0:0:
448,192,23655,1,0,0:0:0:0:
64,192,23655,1,0,0:0:0:0:
320,192,23730,1,0,0:0:0:0:
448,192,23805,1,8,0:0:0:0:
192,192,23805,1,0,0:0:0:0:
64,192,23805,1,0,0:0:0:0:
320,192,23880,1,0,0:0:0:0:
64,192,23955,1,0,0:0:0:0:
448,192,23955,1,0,0:0:0:0:
192,192,24030,1,0,0:0:0:0:
448,192,24105,1,8,0:0:0:0:
320,192,24105,1,0,0:0:0:0:
64,192,24105,1,0,0:0:0:0:
192,192,24180,1,0,0:0:0:0:
64,192,24255,1,0,0:0:0:0:
448,192,24255,1,0,0:0:0:0:
320,192,24330,1,0,0:0:0:0:
64,192,24405,1,0,0:0:0:0:
448,192,24405,1,8,0:0:0:0:
192,192,24405,1,0,0:0:0:0:
320,192,24480,1,0,0:0:0:0:
64,192,24555,1,0,0:0:0:0:
192,192,24555,1,0,0:0:0:0:
448,192,24630,1,0,0:0:0:0:
192,192,24705,1,0,0:0:0:0:
320,192,24705,1,8,0:0:0:0:
64,192,24705,1,4,0:0:0:0:
448,192,24780,1,0,0:0:0:0:
320,192,24855,1,0,0:0:0:0:
64,192,24855,1,0,0:0:0:0:
192,192,24930,1,0,0:0:0:0:
64,192,25005,1,8,0:0:0:0:
448,192,25005,1,0,0:0:0:0:
320,192,25005,1,0,0:0:0:0:
192,192,25080,1,0,0:0:0:0:
448,192,25155,1,0,0:0:0:0:
64,192,25155,1,0,0:0:0:0:
320,192,25230,1,0,0:0:0:0:
192,192,25305,1,0,0:0:0:0:
64,192,25305,1,8,0:0:0:0:
448,192,25305,1,0,0:0:0:0:
320,192,25380,1,0,0:0:0:0:
192,192,25455,1,0,0:0:0:0:
448,192,25455,1,0,0:0:0:0:
64,192,25530,1,0,0:0:0:0:
320,192,25605,1,8,0:0:0:0:
192,192,25605,1,0,0:0:0:0:
448,192,25605,1,0,0:0:0:0:
64,192,25680,1,0,0:0:0:0:
192,192,25755,1,0,0:0:0:0:
320,192,25755,1,0,0:0:0:0:
448,192,25830,1,0,0:0:0:0:
192,192,25905,1,0,0:0:0:0:
64,192,25905,1,8,0:0:0:0:
320,192,25905,1,0,0:0:0:0:
448,192,25980,1,0,0:0:0:0:
320,192,26055,1,0,0:0:0:0:
64,192,26055,1,0,0:0:0:0:
192,192,26130,1,0,0:0:0:0:
448,192,26205,1,8,0:0:0:0:
320,192,26205,1,0,0:0:0:0:
64,192,26205,1,0,0:0:0:0:
192,192,26280,1,0,0:0:0:0:
320,192,26355,1,0,0:0:0:0:
448,192,26355,1,0,0:0:0:0:
192,192,26430,1,0,0:0:0:0:
448,192,26505,1,8,0:0:0:0:
320,192,26505,1,0,0:0:0:0:
64,192,26505,1,0,0:0:0:0:
192,192,26580,1,0,0:0:0:0:
448,192,26655,1,0,0:0:0:0:
64,192,26655,1,0,0:0:0:0:
320,192,26730,1,0,0:0:0:0:
192,192,26805,1,0,0:0:0:0:
448,192,26805,1,8,0:0:0:0:
64,192,26805,1,0,0:0:0:0:
320,192,26880,1,0,0:0:0:0:
192,192,26955,1,0,0:0:0:0:
448,192,26955,1,0,0:0:0:0:
64,192,27030,1,0,0:0:0:0:
320,192,27105,1,0,0:0:0:0:
448,192,27105,1,8,0:0:0:0:
192,192,27105,1,0,0:0:0:0:
64,192,27180,1,0,0:0:0:0:
448,192,27255,1,0,0:0:0:0:
192,192,27255,1,0,0:0:0:0:
320,192,27330,1,0,0:0:0:0:
448,192,27405,1,0,0:0:0:0:
64,192,27405,1,8,0:0:0:0:
192,192,27405,1,0,0:0:0:0:
320,192,27480,1,0,0:0:0:0:
64,192,27555,1,0,0:0:0:0:
448,192,27555,1,0,0:0:0:0:
192,192,27630,1,0,0:0:0:0:
320,192,27705,1,8,0:0:0:0:
64,192,27705,1,0,0:0:0:0:
448,192,27705,1,0,0:0:0:0:
192,192,27780,1,0,0:0:0:0:
320,192,27855,1,0,0:0:0:0:
448,192,27855,1,0,0:0:0:0:
64,192,27930,1,0,0:0:0:0:
192,192,28005,1,0,0:0:0:0:
320,192,28005,1,8,0:0:0:0:
448,192,28005,1,0,0:0:0:0:
64,192,28080,1,0,0:0:0:0:
192,192,28155,1,0,0:0:0:0:
448,192,28155,1,0,0:0:0:0:
320,192,28230,1,0,0:0:0:0:
64,192,28305,1,8,0:0:0:0:
192,192,28305,1,0,0:0:0:0:
448,192,28305,1,4,0:0:0:0:
320,192,28380,1,0,0:0:0:0:
448,192,28455,1,0,0:0:0:0:
192,192,28455,1,0,0:0:0:0:
320,192,28530,1,0,0:0:0:0:
64,192,28605,1,8,0:0:0:0:
192,192,28605,1,0,0:0:0:0:
320,192,28680,1,0,0:0:0:0:
448,192,28680,1,8,0:0:0:0:
64,192,28755,1,0,0:0:0:0:
448,192,28830,1,0,0:0:0:0:
192,192,28905,1,0,0:0:0:0:
64,192,28905,1,0,0:0:0:0:
320,192,28980,1,0,0:0:0:0:
64,192,29055,1,0,0:0:0:0:
192,192,29130,1,0,0:0:0:0:
320,192,29205,1,0,0:0:0:0:
448,192,29205,1,8,0:0:0:0:
64,192,29280,1,0,0:0:0:0:
192,192,29280,1,8,0:0:0:0:
320,192,29355,1,0,0:0:0:0:
448,192,29355,1,8,0:0:0:0:
192,192,29430,1,0,0:0:0:0:
64,192,29430,1,0,0:0:0:0:
320,192,29505,1,0,0:0:0:0:
448,192,29505,1,4,0:0:0:0:
64,192,29655,1,0,0:0:0:0:
192,192,29655,1,8,0:0:0:0:
448,192,29655,1,0,0:0:0:0:
448,192,29805,1,0,0:0:0:0:
320,192,29805,1,0,0:0:0:0:
192,192,29880,1,0,0:0:0:0:
320,192,29955,1,8,0:0:0:0:
448,192,29955,1,0,0:0:0:0:
64,192,29955,1,0,0:0:0:0:
64,192,30105,1,0,0:0:0:0:
320,192,30105,1,0,0:0:0:0:
192,192,30255,1,0,0:0:0:0:
448,192,30255,1,8,0:0:0:0:
320,192,30255,1,0,0:0:0:0:
320,192,30405,1,0,0:0:0:0:
64,192,30405,1,0,0:0:0:0:
192,192,30480,1,0,0:0:0:0:
320,192,30555,1,8,0:0:0:0:
448,192,30555,1,0,0:0:0:0:
64,192,30555,1,0,0:0:0:0:
192,192,30705,1,0,0:0:0:0:
320,192,30705,1,0,0:0:0:0:
448,192,30855,1,0,0:0:0:0:
320,192,30855,1,8,0:0:0:0:
64,192,30855,1,0,0:0:0:0:
64,192,31005,1,0,0:0:0:0:
320,192,31005,1,0,0:0:0:0:
192,192,31080,1,0,0:0:0:0:
448,192,31155,1,8,0:0:0:0:
320,192,31155,1,0,0:0:0:0:
64,192,31155,1,0,0:0:0:0:
320,192,31305,1,0,0:0:0:0:
192,192,31305,1,0,0:0:0:0:
64,192,31455,1,0,0:0:0:0:
192,192,31455,1,8,0:0:0:0:
448,192,31455,1,0,0:0:0:0:
320,192,31605,1,0,0:0:0:0:
192,192,31605,1,0,0:0:0:0:
448,192,31680,1,0,0:0:0:0:
64,192,31755,1,0,0:0:0:0:
320,192,31755,1,8,0:0:0:0:
192,192,31755,1,0,0:0:0:0:
448,192,31905,1,0,0:0:0:0:
320,192,31905,1,0,0:0:0:0:
448,192,32055,1,8,0:0:0:0:
64,192,32055,1,0,0:0:0:0:
192,192,32055,1,0,0:0:0:0:
192,192,32205,1,0,0:0:0:0:
448,192,32205,1,0,0:0:0:0:
320,192,32280,1,0,0:0:0:0:
192,192,32355,1,0,0:0:0:0:
64,192,32355,1,8,0:0:0:0:
448,192,32355,1,0,0:0:0:0:
320,192,32505,1,0,0:0:0:0:
192,192,32505,1,0,0:0:0:0:
448,192,32655,1,0,0:0:0:0:
64,192,32655,1,8,0:0:0:0:
320,192,32655,1,0,0:0:0:0:
192,192,32805,1,0,0:0:0:0:
448,192,32805,1,0,0:0:0:0:
320,192,32880,1,0,0:0:0:0:
448,192,32955,1,0,0:0:0:0:
64,192,32955,1,8,0:0:0:0:
192,192,32955,1,0,0:0:0:0:
192,192,33105,1,0,0:0:0:0:
320,192,33105,1,0,0:0:0:0:
320,192,33255,1,0,0:0:0:0:
64,192,33255,1,8,0:0:0:0:
448,192,33255,1,0,0:0:0:0:
192,192,33405,1,0,0:0:0:0:
64,192,33405,1,0,0:0:0:0:
320,192,33480,1,0,0:0:0:0:
448,192,33555,1,0,0:0:0:0:
64,192,33555,1,8,0:0:0:0:
192,192,33555,1,0,0:0:0:0:
64,192,33705,1,0,0:0:0:0:
448,192,33705,1,0,0:0:0:0:
320,192,33855,1,0,0:0:0:0:
448,192,33855,1,8,0:0:0:0:
192,192,33855,1,0,0:0:0:0:
64,192,34005,1,0,0:0:0:0:
320,192,34005,1,0,0:0:0:0:
192,192,34080,1,0,0:0:0:0:
448,192,34155,1,0,0:0:0:0:
64,192,34155,1,8,0:0:0:0:
320,192,34155,1,0,0:0:0:0:
192,192,34305,1,4,0:0:0:0:
448,192,34305,1,0,0:0:0:0:
64,192,34455,1,8,0:0:0:0:
448,192,34455,1,0,0:0:0:0:
320,192,34455,1,0,0:0:0:0:
448,192,34605,1,0,0:0:0:0:
192,192,34605,1,0,0:0:0:0:
320,192,34680,1,0,0:0:0:0:
64,192,34755,1,8,0:0:0:0:
448,192,34755,1,0,0:0:0:0:
192,192,34755,1,0,0:0:0:0:
64,192,34905,1,0,0:0:0:0:
448,192,34905,1,0,0:0:0:0:
192,192,35055,1,0,0:0:0:0:
64,192,35055,1,8,0:0:0:0:
448,192,35055,1,0,0:0:0:0:
448,192,35205,1,0,0:0:0:0:
320,192,35205,1,0,0:0:0:0:
192,192,35280,1,0,0:0:0:0:
320,192,35355,1,8,0:0:0:0:
64,192,35355,1,0,0:0:0:0:
448,192,35355,1,0,0:0:0:0:
320,192,35505,1,0,0:0:0:0:
192,192,35505,1,0,0:0:0:0:
64,192,35655,1,0,0:0:0:0:
192,192,35655,1,8,0:0:0:0:
448,192,35655,1,0,0:0:0:0:
64,192,35805,1,0,0:0:0:0:
448,192,35805,1,0,0:0:0:0:
192,192,35880,1,0,0:0:0:0:
448,192,35955,1,0,0:0:0:0:
320,192,35955,1,8,0:0:0:0:
64,192,35955,1,0,0:0:0:0:
64,192,36105,1,0,0:0:0:0:
192,192,36105,1,0,0:0:0:0:
320,192,36255,1,8,0:0:0:0:
192,192,36255,1,0,0:0:0:0:
448,192,36255,1,0,0:0:0:0:
448,192,36405,1,0,0:0:0:0:
64,192,36405,1,0,0:0:0:0:
320,192,36480,1,0,0:0:0:0:
448,192,36555,1,0,0:0:0:0:
64,192,36555,1,8,0:0:0:0:
192,192,36555,1,0,0:0:0:0:
320,192,36630,1,0,0:0:0:0:
64,192,36705,1,4,2:0:0:0:
192,192,36705,1,0,0:0:0:0:
448,192,36705,1,4,0:0:0:0:
448,192,37005,1,0,0:0:0:0:
320,192,37005,1,8,0:0:0:0:
64,192,37005,1,0,0:0:0:0:
192,192,37155,1,0,0:0:0:0:
448,192,37155,1,4,0:0:0:0:
320,192,37155,1,8,0:0:0:0:
64,192,37155,1,4,2:0:0:0:
448,192,37455,1,0,0:0:0:0:
64,192,37455,1,0,0:0:0:0:
320,192,37530,1,0,0:0:0:0:
192,192,37605,1,8,0:0:0:0:
64,192,37605,1,0,0:0:0:0:
448,192,37605,1,0,0:0:0:0:
320,192,37755,1,8,0:0:0:0:
64,192,37755,1,4,2:0:0:0:
192,192,37755,1,0,0:0:0:0:
448,192,37755,1,4,0:0:0:0:
192,192,38055,1,0,0:0:0:0:
320,192,38055,1,0,0:0:0:0:
64,192,38205,1,8,0:0:0:0:
192,192,38205,1,0,0:0:0:0:
320,192,38280,1,8,0:0:0:0:
448,192,38280,1,0,0:0:0:0:
192,192,38355,1,8,0:0:0:0:
64,192,38355,1,0,0:0:0:0:
320,192,38430,1,8,0:0:0:0:
448,192,38430,1,0,0:0:0:0:
192,192,38505,1,8,0:0:0:0:
64,192,38505,1,0,0:0:0:0:
448,192,38655,1,0,0:0:0:0:
64,192,38655,1,8,0:0:0:0:
320,192,38655,1,0,0:0:0:0:
448,192,38955,1,4,0:0:0:0:
192,192,38955,1,8,0:0:0:0:
64,192,38955,1,0,0:0:0:0:
320,192,38955,1,0,0:0:0:0:
448,192,39255,1,0,0:0:0:0:
64,192,39255,1,0,0:0:0:0:
192,192,39330,1,0,0:0:0:0:
320,192,39330,1,0,0:0:0:0:
64,192,39405,1,0,0:0:0:0:
448,192,39405,1,0,0:0:0:0:
320,192,39480,1,0,0:0:0:0:
192,192,39480,1,0,0:0:0:0:
448,192,39555,1,0,0:0:0:0:
64,192,39555,1,0,0:0:0:0:
192,192,39630,1,0,0:0:0:0:
320,192,39630,1,0,0:0:0:0:
64,192,39705,1,8,0:0:0:0:
448,192,39705,1,0,0:0:0:0:
320,192,39855,1,0,0:0:0:0:
192,192,39855,1,0,0:0:0:0:
192,192,40005,1,0,0:0:0:0:
448,192,40005,1,0,0:0:0:0:
320,192,40155,1,4,0:0:0:0:
448,192,40155,1,0,0:0:0:0:
64,192,40155,1,0,0:0:0:0:
64,192,40455,1,0,0:0:0:0:
192,192,40455,1,0,0:0:0:0:
320,192,40530,1,0,0:0:0:0:
448,192,40530,1,0,0:0:0:0:
192,192,40605,1,0,0:0:0:0:
64,192,40605,1,0,0:0:0:0:
448,192,40680,1,0,0:0:0:0:
320,192,40680,1,0,0:0:0:0:
192,192,40755,1,0,0:0:0:0:
64,192,40755,1,0,0:0:0:0:
320,192,40830,1,0,0:0:0:0:
448,192,40830,1,0,0:0:0:0:
192,192,40905,1,8,0:0:0:0:
64,192,40905,1,0,0:0:0:0:
192,192,41055,1,0,0:0:0:0:
320,192,41055,1,0,0:0:0:0:
448,192,41205,1,0,0:0:0:0:
64,192,41205,1,0,0:0:0:0:
448,192,41355,1,0,0:0:0:0:
192,192,41355,1,4,0:0:0:0:
64,192,41355,1,0,0:0:0:0:
320,192,41655,1,0,0:0:0:0:
448,192,41655,1,0,0:0:0:0:
64,192,41730,1,0,0:0:0:0:
192,192,41730,1,0,0:0:0:0:
448,192,41805,1,0,0:0:0:0:
320,192,41805,1,0,0:0:0:0:
192,192,41880,1,0,0:0:0:0:
64,192,41880,1,0,0:0:0:0:
448,192,41955,1,0,0:0:0:0:
320,192,41955,1,0,0:0:0:0:
64,192,42030,1,0,0:0:0:0:
192,192,42030,1,0,0:0:0:0:
448,192,42105,1,0,0:0:0:0:
320,192,42105,1,8,0:0:0:0:
192,192,42255,1,0,0:0:0:0:
64,192,42255,1,0,0:0:0:0:
320,192,42405,1,0,0:0:0:0:
448,192,42405,1,0,0:0:0:0:
448,192,42555,1,0,0:0:0:0:
64,192,42555,1,4,0:0:0:0:
192,192,42555,1,0,0:0:0:0:
64,192,42855,1,0,0:0:0:0:
448,192,42855,1,0,0:0:0:0:
320,192,42930,1,0,0:0:0:0:
192,192,42930,1,0,0:0:0:0:
64,192,43005,1,0,0:0:0:0:
448,192,43005,1,0,0:0:0:0:
192,192,43080,1,0,0:0:0:0:
320,192,43080,1,0,0:0:0:0:
448,192,43155,1,0,0:0:0:0:
64,192,43155,1,0,0:0:0:0:
320,192,43230,1,0,0:0:0:0:
192,192,43230,1,0,0:0:0:0:
64,192,43305,1,8,0:0:0:0:
448,192,43305,1,0,0:0:0:0:
320,192,43455,1,0,0:0:0:0:
64,192,43455,1,0,0:0:0:0:
192,192,43605,1,0,0:0:0:0:
448,192,43605,1,0,0:0:0:0:
320,192,43755,1,4,0:0:0:0:
448,192,43755,1,0,0:0:0:0:
64,192,43755,1,0,0:0:0:0:
192,192,44055,1,0,0:0:0:0:
320,192,44055,1,0,0:0:0:0:
64,192,44130,1,0,0:0:0:0:
448,192,44130,1,0,0:0:0:0:
320,192,44205,1,0,0:0:0:0:
192,192,44205,1,0,0:0:0:0:
448,192,44280,1,0,0:0:0:0:
64,192,44280,1,0,0:0:0:0:
320,192,44355,1,0,0:0:0:0:
192,192,44355,1,0,0:0:0:0:
448,192,44430,1,0,0:0:0:0:
64,192,44430,1,0,0:0:0:0:
192,192,44505,1,8,0:0:0:0:
320,192,44505,1,0,0:0:0:0:
448,192,44655,1,0,0:0:0:0:
64,192,44655,1,0,0:0:0:0:
192,192,44805,1,0,0:0:0:0:
320,192,44805,1,0,0:0:0:0:
320,192,44955,1,4,0:0:0:0:
448,192,44955,1,0,0:0:0:0:
64,192,44955,1,0,0:0:0:0:
64,192,45255,1,0,0:0:0:0:
320,192,45255,1,0,0:0:0:0:
192,192,45330,1,0,0:0:0:0:
448,192,45330,1,0,0:0:0:0:
320,192,45405,1,0,0:0:0:0:
64,192,45405,1,0,0:0:0:0:
448,192,45480,1,0,0:0:0:0:
192,192,45480,1,0,0:0:0:0:
64,192,45555,1,0,0:0:0:0:
320,192,45555,1,0,0:0:0:0:
192,192,45630,1,0,0:0:0:0:
448,192,45630,1,0,0:0:0:0:
320,192,45705,1,8,0:0:0:0:
64,192,45705,1,0,0:0:0:0:
64,192,45855,1,0,0:0:0:0:
192,192,45855,1,0,0:0:0:0:
192,192,46005,1,0,0:0:0:0:
320,192,46005,1,0,0:0:0:0:
448,192,46155,1,0,0:0:0:0:
320,192,46155,1,4,0:0:0:0:
64,192,46155,1,0,0:0:0:0:
192,192,46455,1,0,0:0:0:0:
448,192,46455,1,0,0:0:0:0:
64,192,46530,1,0,0:0:0:0:
320,192,46530,1,0,0:0:0:0:
448,192,46605,1,0,0:0:0:0:
192,192,46605,1,0,0:0:0:0:
320,192,46680,1,0,0:0:0:0:
64,192,46680,1,0,0:0:0:0:
192,192,46755,1,0,0:0:0:0:
448,192,46755,1,0,0:0:0:0:
64,192,46830,1,0,0:0:0:0:
320,192,46830,1,0,0:0:0:0:
448,192,46905,1,0,0:0:0:0:
192,192,46905,1,8,0:0:0:0:
64,192,47055,1,0,0:0:0:0:
320,192,47055,1,0,0:0:0:0:
64,192,47205,1,8,0:0:0:0:
192,192,47205,1,0,0:0:0:0:
448,192,47205,1,0,0:0:0:0:
448,192,47355,1,0,0:0:0:0:
192,192,47355,1,4,0:0:0:0:
64,192,47355,1,0,0:0:0:0:
320,192,47355,1,0,0:0:0:0:
448,192,47655,1,0,0:0:0:0:
320,192,47655,1,8,0:0:0:0:
64,192,47730,1,0,0:0:0:0:
192,192,47730,1,8,0:0:0:0:
448,192,47805,1,0,0:0:0:0:
320,192,47805,1,8,0:0:0:0:
192,192,47880,1,8,0:0:0:0:
64,192,47880,1,0,0:0:0:0:
448,192,47955,1,0,0:0:0:0:
320,192,47955,1,8,0:0:0:0:
64,192,48030,1,0,0:0:0:0:
192,192,48030,1,8,0:0:0:0:
320,192,48105,1,8,0:0:0:0:
448,192,48105,1,0,0:0:0:0:
64,192,48180,1,0,0:0:0:0:
192,192,48180,1,8,0:0:0:0:
448,192,48255,1,0,0:0:0:0:
320,192,48255,1,8,0:0:0:0:
64,192,48330,1,0,0:0:0:0:
192,192,48330,1,8,0:0:0:0:
448,192,48405,1,0,0:0:0:0:
320,192,48405,1,8,0:0:0:0:
64,192,48480,1,0,0:0:0:0:
192,192,48480,1,8,0:0:0:0:
448,192,48555,1,0,0:0:0:0:
320,192,48555,1,4,0:0:0:0:
64,192,48555,1,0,0:0:0:0:
320,192,48855,1,0,0:0:0:0:
448,192,48855,1,0,0:0:0:0:
192,192,49005,1,0,0:0:0:0:
64,192,49005,1,8,0:0:0:0:
320,192,49005,1,0,0:0:0:0:
448,192,49155,1,0,0:0:0:0:
192,192,49305,1,0,0:0:0:0:
64,192,49305,1,0,0:0:0:0:
320,192,49455,1,0,0:0:0:0:
64,192,49455,1,0,0:0:0:0:
192,192,49605,1,0,0:0:0:0:
448,192,49605,1,8,0:0:0:0:
320,192,49605,1,0,0:0:0:0:
320,192,49755,1,0,0:0:0:0:
64,192,49755,1,4,0:0:0:0:
448,192,49755,1,0,0:0:0:0:
192,192,49755,1,0,0:0:0:0:
192,192,50055,1,0,0:0:0:0:
64,192,50055,1,0,0:0:0:0:
320,192,50205,1,0,0:0:0:0:
448,192,50205,1,8,0:0:0:0:
192,192,50205,1,0,0:0:0:0:
64,192,50355,1,0,0:0:0:0:
320,192,50505,1,0,0:0:0:0:
448,192,50505,1,0,0:0:0:0:
192,192,50655,1,0,0:0:0:0:
320,192,50655,1,0,0:0:0:0:
448,192,50805,1,8,0:0:0:0:
64,192,50805,1,0,0:0:0:0:
192,192,50805,1,0,0:0:0:0:
192,192,50955,1,4,0:0:0:0:
320,192,50955,1,0,0:0:0:0:
64,192,50955,1,0,0:0:0:0:
448,192,50955,1,0,0:0:0:0:
320,192,51255,1,0,0:0:0:0:
64,192,51255,1,0,0:0:0:0:
448,192,51405,1,8,0:0:0:0:
192,192,51405,1,0,0:0:0:0:
320,192,51405,1,0,0:0:0:0:
64,192,51555,1,0,0:0:0:0:
320,192,51705,1,0,0:0:0:0:
192,192,51705,1,0,0:0:0:0:
448,192,51855,1,0,0:0:0:0:
192,192,51855,1,0,0:0:0:0:
320,192,52005,1,0,0:0:0:0:
448,192,52005,1,8,0:0:0:0:
64,192,52005,1,0,0:0:0:0:
64,192,52155,1,0,0:0:0:0:
192,192,52155,1,4,0:0:0:0:
448,192,52155,1,0,0:0:0:0:
320,192,52155,1,0,0:0:0:0:
448,192,52455,1,0,0:0:0:0:
192,192,52455,1,0,0:0:0:0:
320,192,52605,1,8,0:0:0:0:
64,192,52605,1,0,0:0:0:0:
448,192,52605,1,0,0:0:0:0:
192,192,52755,1,0,0:0:0:0:
320,192,52905,1,0,0:0:0:0:
320,192,53055,1,0,0:0:0:0:
192,192,53055,1,0,0:0:0:0:
192,192,53205,1,0,0:0:0:0:
64,192,53205,1,8,0:0:0:0:
448,192,53205,1,0,0:0:0:0:
448,192,53355,1,0,0:0:0:0:
320,192,53355,1,4,0:0:0:0:
64,192,53355,1,0,0:0:0:0:
192,192,53355,1,0,0:0:0:0:
192,192,53655,1,0,0:0:0:0:
320,192,53655,1,0,0:0:0:0:
448,192,53805,1,8,0:0:0:0:
64,192,53805,1,0,0:0:0:0:
192,192,53805,1,0,0:0:0:0:
320,192,53955,1,0,0:0:0:0:
64,192,54105,1,0,0:0:0:0:
192,192,54105,1,0,0:0:0:0:
192,192,54255,1,0,0:0:0:0:
448,192,54255,1,0,0:0:0:0:
320,192,54405,1,0,0:0:0:0:
64,192,54405,1,8,0:0:0:0:
192,192,54405,1,0,0:0:0:0:
448,192,54555,1,4,0:0:0:0:
192,192,54555,1,0,0:0:0:0:
64,192,54555,1,0,0:0:0:0:
320,192,54555,1,0,0:0:0:0:
320,192,54855,1,0,0:0:0:0:
448,192,54855,1,0,0:0:0:0:
192,192,55005,1,0,0:0:0:0:
448,192,55005,1,8,0:0:0:0:
64,192,55005,1,0,0:0:0:0:
320,192,55155,1,0,0:0:0:0:
64,192,55305,1,0,0:0:0:0:
448,192,55305,1,0,0:0:0:0:
192,192,55455,1,0,0:0:0:0:
64,192,55455,1,0,0:0:0:0:
320,192,55605,1,8,0:0:0:0:
448,192,55605,1,0,0:0:0:0:
192,192,55605,1,0,0:0:0:0:
64,192,55755,1,0,0:0:0:0:
192,192,55755,1,4,0:0:0:0:
448,192,55755,1,0,0:0:0:0:
320,192,55755,1,0,0:0:0:0:
192,192,56055,1,0,0:0:0:0:
448,192,56055,1,0,0:0:0:0:
64,192,56205,1,0,0:0:0:0:
192,192,56205,1,8,0:0:0:0:
448,192,56205,1,0,0:0:0:0:
320,192,56355,1,0,0:0:0:0:
448,192,56505,1,0,0:0:0:0:
64,192,56505,1,0,0:0:0:0:
192,192,56655,1,0,0:0:0:0:
320,192,56655,1,0,0:0:0:0:
320,192,56805,1,8,0:0:0:0:
64,192,56805,1,0,0:0:0:0:
192,192,56805,1,0,0:0:0:0:
192,192,56955,1,4,0:0:0:0:
448,192,56955,1,0,0:0:0:0:
320,192,56955,1,0,0:0:0:0:
64,192,56955,1,0,0:0:0:0:
320,192,57255,1,0,0:0:0:0:
192,192,57255,1,0,0:0:0:0:
192,192,57405,1,8,0:0:0:0:
64,192,57405,1,0,0:0:0:0:
448,192,57480,1,0,0:0:0:0:
320,192,57480,1,0,0:0:0:0:
64,192,57555,1,0,0:0:0:0:
192,192,57555,1,0,0:0:0:0:
448,192,57630,1,8,0:0:0:0:
320,192,57630,1,0,0:0:0:0:
192,192,57705,1,0,0:0:0:0:
64,192,57705,1,8,0:0:0:0:
320,192,57855,1,0,0:0:0:0:
448,192,57855,1,0,0:0:0:0:
320,192,58005,1,8,0:0:0:0:
448,192,58005,1,0,0:0:0:0:
192,192,58005,1,0,0:0:0:0:
192,192,58155,1,4,0:0:0:0:
64,192,58155,1,0,0:0:0:0:
448,192,58155,1,0,0:0:0:0:
320,192,58155,1,0,0:0:0:0:
192,192,58455,1,0,0:0:0:0:
320,192,58455,1,0,0:0:0:0:
320,192,58605,1,0,0:0:0:0:
448,192,58605,1,8,0:0:0:0:
64,192,58605,1,0,0:0:0:0:
192,192,58755,1,0,0:0:0:0:
64,192,58905,1,0,0:0:0:0:
448,192,58905,1,0,0:0:0:0:
192,192,59055,1,0,0:0:0:0:
64,192,59055,1,0,0:0:0:0:
320,192,59205,1,0,0:0:0:0:
448,192,59205,1,8,0:0:0:0:
192,192,59205,1,0,0:0:0:0:
64,192,59355,1,0,0:0:0:0:
192,192,59355,1,4,0:0:0:0:
448,192,59355,1,0,0:0:0:0:
320,192,59355,1,0,0:0:0:0:
320,192,59655,1,0,0:0:0:0:
448,192,59655,1,0,0:0:0:0:
192,192,59805,1,0,0:0:0:0:
64,192,59805,1,8,0:0:0:0:
320,192,59805,1,0,0:0:0:0:
448,192,59955,1,0,0:0:0:0:
320,192,60105,1,0,0:0:0:0:
64,192,60105,1,0,0:0:0:0:
320,192,60255,1,0,0:0:0:0:
448,192,60255,1,0,0:0:0:0:
192,192,60405,1,0,0:0:0:0:
64,192,60405,1,8,0:0:0:0:
448,192,60405,1,0,0:0:0:0:
320,192,60555,1,4,0:0:0:0:
448,192,60555,1,0,0:0:0:0:
64,192,60555,1,0,0:0:0:0:
192,192,60555,1,0,0:0:0:0:
192,192,60855,1,0,0:0:0:0:
64,192,60855,1,0,0:0:0:0:
64,192,61005,1,8,0:0:0:0:
320,192,61005,1,0,0:0:0:0:
448,192,61005,1,0,0:0:0:0:
448,192,61155,1,0,0:0:0:0:
192,192,61305,1,0,0:0:0:0:
64,192,61305,1,0,0:0:0:0:
192,192,61455,1,0,0:0:0:0:
448,192,61455,1,0,0:0:0:0:
64,192,61605,1,8,0:0:0:0:
448,192,61605,1,0,0:0:0:0:
320,192,61605,1,0,0:0:0:0:
320,192,61755,1,4,0:0:0:0:
192,192,61755,1,0,0:0:0:0:
448,192,61755,1,0,0:0:0:0:
64,192,61755,1,0,0:0:0:0:
64,192,62055,1,0,0:0:0:0:
448,192,62055,1,0,0:0:0:0:
320,192,62205,1,0,0:0:0:0:
192,192,62205,1,8,0:0:0:0:
64,192,62205,1,0,0:0:0:0:
448,192,62355,1,0,0:0:0:0:
320,192,62505,1,0,0:0:0:0:
192,192,62505,1,0,0:0:0:0:
192,192,62655,1,0,0:0:0:0:
64,192,62655,1,0,0:0:0:0:
448,192,62805,1,8,0:0:0:0:
320,192,62805,1,0,0:0:0:0:
64,192,62805,1,0,0:0:0:0:
64,192,62955,1,0,0:0:0:0:
192,192,62955,1,4,0:0:0:0:
448,192,62955,1,0,0:0:0:0:
320,192,62955,1,0,0:0:0:0:
320,192,63255,1,0,0:0:0:0:
448,192,63255,1,0,0:0:0:0:
192,192,63405,1,0,0:0:0:0:
64,192,63405,1,8,0:0:0:0:
320,192,63405,1,0,0:0:0:0:
448,192,63555,1,0,0:0:0:0:
192,192,63705,1,0,0:0:0:0:
64,192,63705,1,0,0:0:0:0:
192,192,63855,1,0,0:0:0:0:
448,192,63855,1,0,0:0:0:0:
448,192,64005,1,0,0:0:0:0:
64,192,64005,1,8,0:0:0:0:
320,192,64005,1,0,0:0:0:0:
320,192,64155,1,4,0:0:0:0:
448,192,64155,1,0,0:0:0:0:
64,192,64155,1,0,0:0:0:0:
192,192,64155,1,0,0:0:0:0:
192,192,64455,1,0,0:0:0:0:
64,192,64455,1,0,0:0:0:0:
64,192,64605,1,8,0:0:0:0:
320,192,64605,1,0,0:0:0:0:
448,192,64605,1,0,0:0:0:0:
448,192,64755,1,0,0:0:0:0:
192,192,64905,1,0,0:0:0:0:
64,192,64905,1,0,0:0:0:0:
320,192,65055,1,0,0:0:0:0:
192,192,65055,1,0,0:0:0:0:
64,192,65205,1,8,0:0:0:0:
448,192,65205,1,0,0:0:0:0:
192,192,65205,1,0,0:0:0:0:
320,192,65355,1,4,0:0:0:0:
192,192,65355,1,0,0:0:0:0:
64,192,65355,1,0,0:0:0:0:
448,192,65355,1,0,0:0:0:0:
448,192,65655,1,0,0:0:0:0:
64,192,65655,1,0,0:0:0:0:
64,192,65805,1,0,0:0:0:0:
320,192,65805,1,8,0:0:0:0:
448,192,65805,1,0,0:0:0:0:
192,192,65955,1,0,0:0:0:0:
64,192,66105,1,0,0:0:0:0:
448,192,66105,1,0,0:0:0:0:
320,192,66255,1,0,0:0:0:0:
192,192,66255,1,0,0:0:0:0:
448,192,66405,1,0,0:0:0:0:
192,192,66405,1,8,0:0:0:0:
64,192,66405,1,0,0:0:0:0:
64,192,66555,1,0,0:0:0:0:
320,192,66555,1,4,0:0:0:0:
448,192,66555,1,0,0:0:0:0:
192,192,66555,1,0,0:0:0:0:
320,192,66855,1,0,0:0:0:0:
448,192,67005,1,0,0:0:0:0:
192,192,67005,1,8,0:0:0:0:
320,192,67080,1,8,0:0:0:0:
64,192,67080,1,0,0:0:0:0:
192,192,67155,1,0,0:0:0:0:
448,192,67155,1,0,0:0:0:0:
320,192,67230,1,0,0:0:0:0:
64,192,67305,1,0,0:0:0:0:
192,192,67305,1,8,0:0:0:0:
448,192,67380,1,8,0:0:0:0:
320,192,67380,1,0,0:0:0:0:
192,192,67455,1,0,0:0:0:0:
64,192,67455,1,0,0:0:0:0:
320,192,67530,1,0,0:0:0:0:
448,192,67605,1,0,0:0:0:0:
192,192,67605,1,0,0:0:0:0:
320,192,67680,1,0,0:0:0:0:
64,192,67680,1,0,0:0:0:0:
192,192,67755,1,0,0:0:0:0:
448,192,67755,1,0,0:0:0:0:
64,192,67830,1,0,0:0:0:0:
320,192,67830,1,0,0:0:0:0:
192,192,67905,1,4,0:0:0:0:
448,192,67905,1,8,0:0:0:0:
320,192,67980,1,0,0:0:0:0:
64,192,68055,1,0,0:0:0:0:
192,192,68055,1,0,0:0:0:0:
448,192,68130,1,0,0:0:0:0:
192,192,68205,1,0,0:0:0:0:
320,192,68205,1,8,0:0:0:0:
64,192,68205,1,0,0:0:0:0:
448,192,68280,1,0,0:0:0:0:
64,192,68355,1,0,0:0:0:0:
320,192,68355,1,0,0:0:0:0:
192,192,68430,1,0,0:0:0:0:
448,192,68505,1,8,0:0:0:0:
320,192,68505,1,0,0:0:0:0:
64,192,68505,1,0,0:0:0:0:
192,192,68580,1,0,0:0:0:0:
64,192,68655,1,0,0:0:0:0:
448,192,68655,1,0,0:0:0:0:
320,192,68730,1,0,0:0:0:0:
192,192,68805,1,0,0:0:0:0:
448,192,68805,1,8,0:0:0:0:
64,192,68805,1,0,0:0:0:0:
320,192,68880,1,0,0:0:0:0:
64,192,68955,1,0,0:0:0:0:
448,192,68955,1,0,0:0:0:0:
192,192,69030,1,0,0:0:0:0:
320,192,69105,1,0,0:0:0:0:
448,192,69105,1,8,0:0:0:0:
64,192,69105,1,0,0:0:0:0:
192,192,69180,1,0,0:0:0:0:
320,192,69255,1,0,0:0:0:0:
64,192,69255,1,0,0:0:0:0:
448,192,69330,1,0,0:0:0:0:
64,192,69405,1,8,0:0:0:0:
192,192,69405,1,0,0:0:0:0:
320,192,69405,1,0,0:0:0:0:
448,192,69480,1,0,0:0:0:0:
192,192,69555,1,0,0:0:0:0:
64,192,69555,1,0,0:0:0:0:
320,192,69630,1,0,0:0:0:0:
192,192,69705,1,0,0:0:0:0:
64,192,69705,1,8,0:0:0:0:
448,192,69705,1,0,0:0:0:0:
320,192,69780,1,0,0:0:0:0:
192,192,69855,1,0,0:0:0:0:
448,192,69855,1,0,0:0:0:0:
64,192,69930,1,0,0:0:0:0:
192,192,70005,1,0,0:0:0:0:
320,192,70005,1,8,0:0:0:0:
448,192,70005,1,0,0:0:0:0:
64,192,70080,1,0,0:0:0:0:
192,192,70155,1,0,0:0:0:0:
320,192,70155,1,0,0:0:0:0:
448,192,70230,1,0,0:0:0:0:
192,192,70305,1,0,0:0:0:0:
64,192,70305,1,8,0:0:0:0:
320,192,70305,1,0,0:0:0:0:
448,192,70380,1,0,0:0:0:0:
320,192,70455,1,0,0:0:0:0:
64,192,70455,1,0,0:0:0:0:
192,192,70530,1,0,0:0:0:0:
320,192,70605,1,0,0:0:0:0:
448,192,70605,1,8,0:0:0:0:
64,192,70605,1,0,0:0:0:0:
192,192,70680,1,0,0:0:0:0:
320,192,70755,1,0,0:0:0:0:
448,192,70755,1,0,0:0:0:0:
192,192,70830,1,0,0:0:0:0:
448,192,70905,1,8,0:0:0:0:
320,192,70905,1,0,0:0:0:0:
64,192,70905,1,0,0:0:0:0:
192,192,70980,1,0,0:0:0:0:
64,192,71055,1,0,0:0:0:0:
448,192,71055,1,0,0:0:0:0:
320,192,71130,1,0,0:0:0:0:
448,192,71205,1,8,0:0:0:0:
192,192,71205,1,0,0:0:0:0:
64,192,71205,1,0,0:0:0:0:
320,192,71280,1,0,0:0:0:0:
64,192,71355,1,0,0:0:0:0:
448,192,71355,1,0,0:0:0:0:
192,192,71430,1,0,0:0:0:0:
320,192,71505,1,0,0:0:0:0:
448,192,71505,1,8,0:0:0:0:
64,192,71505,1,0,0:0:0:0:
192,192,71580,1,0,0:0:0:0:
64,192,71655,1,0,0:0:0:0:
320,192,71655,1,0,0:0:0:0:
448,192,71730,1,0,0:0:0:0:
64,192,71805,1,8,0:0:0:0:
192,192,71805,1,0,0:0:0:0:
320,192,71805,1,0,0:0:0:0:
448,192,71880,1,0,0:0:0:0:
192,192,71955,1,0,0:0:0:0:
64,192,71955,1,0,0:0:0:0:
320,192,72030,1,0,0:0:0:0:
192,192,72105,1,0,0:0:0:0:
64,192,72105,1,8,0:0:0:0:
448,192,72105,1,0,0:0:0:0:
320,192,72180,1,0,0:0:0:0:
192,192,72255,1,0,0:0:0:0:
64,192,72255,1,0,0:0:0:0:
448,192,72330,1,0,0:0:0:0:
64,192,72405,1,8,0:0:0:0:
192,192,72405,1,0,0:0:0:0:
320,192,72405,1,0,0:0:0:0:
448,192,72480,1,0,0:0:0:0:
192,192,72555,1,0,0:0:0:0:
64,192,72555,1,0,0:0:0:0:
320,192,72630,1,0,0:0:0:0:
192,192,72705,1,0,0:0:0:0:
64,192,72705,1,8,0:0:0:0:
448,192,72705,1,4,0:0:0:0:
320,192,72780,1,0,0:0:0:0:
192,192,72855,1,0,0:0:0:0:
448,192,72855,1,0,0:0:0:0:
320,192,72930,1,0,0:0:0:0:
64,192,73005,1,0,0:0:0:0:
448,192,73005,1,8,0:0:0:0:
192,192,73005,1,0,0:0:0:0:
320,192,73080,1,0,0:0:0:0:
64,192,73155,1,0,0:0:0:0:
448,192,73155,1,0,0:0:0:0:
192,192,73230,1,0,0:0:0:0:
320,192,73305,1,0,0:0:0:0:
448,192,73305,1,8,0:0:0:0:
64,192,73305,1,0,0:0:0:0:
192,192,73380,1,0,0:0:0:0:
320,192,73455,1,0,0:0:0:0:
448,192,73455,1,0,0:0:0:0:
64,192,73530,1,0,0:0:0:0:
448,192,73605,1,8,0:0:0:0:
320,192,73605,1,0,0:0:0:0:
192,192,73605,1,0,0:0:0:0:
64,192,73680,1,0,0:0:0:0:
320,192,73755,1,0,0:0:0:0:
448,192,73755,1,0,0:0:0:0:
64,192,73830,1,0,0:0:0:0:
448,192,73905,1,8,0:0:0:0:
320,192,73905,1,0,0:0:0:0:
192,192,73905,1,0,0:0:0:0:
64,192,73980,1,0,0:0:0:0:
192,192,74055,1,0,0:0:0:0:
448,192,74055,1,0,0:0:0:0:
320,192,74130,1,0,0:0:0:0:
192,192,74205,1,0,0:0:0:0:
64,192,74205,1,8,0:0:0:0:
448,192,74205,1,0,0:0:0:0:
320,192,74280,1,0,0:0:0:0:
192,192,74355,1,0,0:0:0:0:
64,192,74355,1,0,0:0:0:0:
320,192,74430,1,0,0:0:0:0:
192,192,74505,1,0,0:0:0:0:
64,192,74505,1,8,0:0:0:0:
448,192,74505,1,0,0:0:0:0:
320,192,74580,1,0,0:0:0:0:
192,192,74655,1,0,0:0:0:0:
64,192,74655,1,0,0:0:0:0:
320,192,74730,1,0,0:0:0:0:
64,192,74805,1,8,0:0:0:0:
192,192,74805,1,0,0:0:0:0:
448,192,74805,1,0,0:0:0:0:
320,192,74880,1,0,0:0:0:0:
448,192,74955,1,0,0:0:0:0:
64,192,74955,1,0,0:0:0:0:
192,192,75030,1,0,0:0:0:0:
448,192,75105,1,0,0:0:0:0:
64,192,75105,1,8,0:0:0:0:
320,192,75105,1,0,0:0:0:0:
192,192,75180,1,0,0:0:0:0:
320,192,75255,1,0,0:0:0:0:
64,192,75255,1,0,0:0:0:0:
192,192,75330,1,0,0:0:0:0:
320,192,75405,1,0,0:0:0:0:
448,192,75405,1,8,0:0:0:0:
64,192,75405,1,0,0:0:0:0:
192,192,75480,1,0,0:0:0:0:
320,192,75555,1,0,0:0:0:0:
64,192,75555,1,0,0:0:0:0:
448,192,75630,1,0,0:0:0:0:
320,192,75705,1,0,0:0:0:0:
64,192,75705,1,8,0:0:0:0:
192,192,75705,1,0,0:0:0:0:
448,192,75780,1,0,0:0:0:0:
320,192,75855,1,0,0:0:0:0:
192,192,75855,1,0,0:0:0:0:
64,192,75930,1,0,0:0:0:0:
320,192,76005,1,0,0:0:0:0:
448,192,76005,1,8,0:0:0:0:
192,192,76005,1,0,0:0:0:0:
64,192,76080,1,0,0:0:0:0:
320,192,76155,1,0,0:0:0:0:
448,192,76155,1,0,0:0:0:0:
192,192,76230,1,0,0:0:0:0:
448,192,76305,1,8,0:0:0:0:
64,192,76305,1,4,0:0:0:0:
320,192,76305,1,0,0:0:0:0:
192,192,76380,1,0,0:0:0:0:
448,192,76455,1,0,0:0:0:0:
64,192,76455,1,0,0:0:0:0:
320,192,76530,1,0,0:0:0:0:
192,192,76605,1,0,0:0:0:0:
64,192,76605,1,8,0:0:0:0:
448,192,76605,1,0,0:0:0:0:
320,192,76680,1,0,0:0:0:0:
192,192,76755,1,0,0:0:0:0:
64,192,76755,1,0,0:0:0:0:
320,192,76830,1,0,0:0:0:0:
448,192,76905,1,0,0:0:0:0:
64,192,76905,1,0,0:0:0:0:
192,192,76905,1,0,0:0:0:0:
448,192,77055,1,0,0:0:0:0:
64,192,77055,1,0,0:0:0:0:
320,192,77055,1,0,0:0:0:0:
448,192,77205,1,0,0:0:0:0:
64,192,77205,1,0,0:0:0:0:
192,192,77205,1,0,0:0:0:0:
448,192,77355,1,0,0:0:0:0:
64,192,77355,1,0,0:0:0:0:
320,192,77355,1,0,0:0:0:0:
192,192,77505,1,0,0:0:0:0:
192,192,77655,1,0,0:0:0:0:
64,192,77805,1,0,0:0:0:0:
320,192,77805,1,0,0:0:0:0:
448,192,77805,1,2,2:0:0:0:
448,192,77955,1,0,0:0:0:0:
320,192,77955,1,0,0:0:0:0:
192,192,78105,1,0,0:0:0:0:
64,192,78105,1,0,0:0:0:0:
64,192,78255,1,0,0:0:0:0:
320,192,78405,1,0,0:0:0:0:
448,192,78405,1,0,0:0:0:0:
64,192,78555,1,0,0:0:0:0:
448,192,78555,1,0,0:0:0:0:
192,192,78705,1,0,0:0:0:0:
448,192,78855,1,0,0:0:0:0:
192,192,78855,1,0,0:0:0:0:
192,192,79005,1,0,0:0:0:0:
320,192,79005,1,0,0:0:0:0:
64,192,79005,1,2,2:0:0:0:
320,192,79155,1,0,0:0:0:0:
64,192,79305,1,0,0:0:0:0:
64,192,79455,1,0,0:0:0:0:
320,192,79605,1,0,0:0:0:0:
448,192,79605,1,0,0:0:0:0:
448,192,79755,1,0,0:0:0:0:
320,192,79905,1,0,0:0:0:0:
192,192,79905,1,0,0:0:0:0:
192,192,80055,1,0,0:0:0:0:
64,192,80205,1,0,0:0:0:0:
320,192,80205,1,0,0:0:0:0:
448,192,80205,1,2,2:0:0:0:
64,192,80355,1,0,0:0:0:0:
320,192,80355,1,0,0:0:0:0:
192,192,80505,1,0,0:0:0:0:
320,192,80655,1,0,0:0:0:0:
192,192,80655,1,0,0:0:0:0:
64,192,80805,1,0,0:0:0:0:
320,192,80805,1,0,0:0:0:0:
448,192,80805,1,2,2:0:0:0:
192,192,80955,1,0,0:0:0:0:
448,192,80955,1,0,0:0:0:0:
64,192,81105,1,0,0:0:0:0:
64,192,81255,1,0,0:0:0:0:
320,192,81405,1,0,0:0:0:0:
64,192,81405,1,0,0:0:0:0:
448,192,81405,1,2,2:0:0:0:
320,192,81555,1,0,0:0:0:0:
192,192,81705,1,0,0:0:0:0:
192,192,81855,1,0,0:0:0:0:
320,192,82005,1,0,0:0:0:0:
64,192,82005,1,0,0:0:0:0:
448,192,82005,1,2,2:0:0:0:
448,192,82155,1,0,0:0:0:0:
64,192,82305,1,0,0:0:0:0:
320,192,82305,1,0,0:0:0:0:
64,192,82455,1,0,0:0:0:0:
320,192,82605,1,0,0:0:0:0:
192,192,82605,1,0,0:0:0:0:
448,192,82605,1,2,2:0:0:0:
320,192,82755,1,0,0:0:0:0:
192,192,82755,1,0,0:0:0:0:
64,192,82905,1,0,0:0:0:0:
448,192,82905,1,0,0:0:0:0:
448,192,83055,1,0,0:0:0:0:
192,192,83205,1,0,0:0:0:0:
64,192,83205,1,0,0:0:0:0:
320,192,83355,1,0,0:0:0:0:
64,192,83355,1,0,0:0:0:0:
448,192,83505,1,0,0:0:0:0:
64,192,83655,1,0,0:0:0:0:
448,192,83655,1,0,0:0:0:0:
64,192,83805,1,0,0:0:0:0:
192,192,83805,1,0,0:0:0:0:
448,192,83805,1,2,2:0:0:0:
192,192,83955,1,0,0:0:0:0:
320,192,84105,1,0,0:0:0:0:
320,192,84255,1,0,0:0:0:0:
192,192,84405,1,0,0:0:0:0:
64,192,84405,1,0,0:0:0:0:
64,192,84555,1,0,0:0:0:0:
192,192,84705,1,0,0:0:0:0:
448,192,84705,1,0,0:0:0:0:
448,192,84855,1,0,0:0:0:0:
320,192,85005,1,0,0:0:0:0:
192,192,85005,1,0,0:0:0:0:
448,192,85005,1,2,2:0:0:0:
64,192,85155,1,0,0:0:0:0:
192,192,85155,1,0,0:0:0:0:
448,192,85305,1,0,0:0:0:0:
192,192,85455,1,0,0:0:0:0:
448,192,85455,1,0,0:0:0:0:
320,192,85605,1,0,0:0:0:0:
64,192,85605,1,0,0:0:0:0:
192,192,85605,1,2,2:0:0:0:
448,192,85755,1,0,0:0:0:0:
64,192,85755,1,0,0:0:0:0:
320,192,85905,1,0,0:0:0:0:
320,192,86055,1,0,0:0:0:0:
64,192,86205,1,0,0:0:0:0:
448,192,86205,1,0,0:0:0:0:
64,192,86355,1,0,0:0:0:0:
192,192,86505,1,0,0:0:0:0:
320,192,86505,1,8,0:0:0:0:
448,192,86505,1,0,0:0:0:0:
448,192,86655,1,8,0:0:0:0:
64,192,86655,128,0,86955:0:0:0:0:
192,192,86655,1,0,0:0:0:0:
448,192,86955,1,4,0:0:0:0:
192,192,86955,1,0,0:0:0:0:
320,192,86955,1,0,0:0:0:0:
64,192,87255,1,0,0:0:0:0:
448,192,87255,1,0,0:0:0:0:
192,192,87330,1,0,0:0:0:0:
320,192,87405,1,0,0:0:0:0:
64,192,87405,1,8,0:0:0:0:
448,192,87405,1,0,0:0:0:0:
192,192,87480,1,0,0:0:0:0:
320,192,87555,1,0,0:0:0:0:
64,192,87555,1,0,0:0:0:0:
448,192,87630,1,0,0:0:0:0:
192,192,87705,1,0,0:0:0:0:
64,192,87705,1,8,0:0:0:0:
320,192,87705,1,0,0:0:0:0:
448,192,87780,1,0,0:0:0:0:
320,192,87855,1,0,0:0:0:0:
192,192,87855,1,0,0:0:0:0:
64,192,87930,1,0,0:0:0:0:
320,192,88005,1,0,0:0:0:0:
192,192,88005,1,8,0:0:0:0:
448,192,88005,1,0,0:0:0:0:
64,192,88080,1,0,0:0:0:0:
448,192,88155,1,0,0:0:0:0:
192,192,88155,1,0,0:0:0:0:
320,192,88230,1,0,0:0:0:0:
448,192,88305,1,0,0:0:0:0:
64,192,88305,1,8,0:0:0:0:
192,192,88305,1,0,0:0:0:0:
320,192,88380,1,0,0:0:0:0:
448,192,88455,1,0,0:0:0:0:
64,192,88455,1,0,0:0:0:0:
320,192,88530,1,0,0:0:0:0:
448,192,88605,1,0,0:0:0:0:
64,192,88605,1,8,0:0:0:0:
192,192,88605,1,0,0:0:0:0:
320,192,88680,1,0,0:0:0:0:
192,192,88755,1,0,0:0:0:0:
448,192,88755,1,0,0:0:0:0:
64,192,88830,1,0,0:0:0:0:
192,192,88905,1,8,0:0:0:0:
448,192,88905,1,0,0:0:0:0:
320,192,88905,1,0,0:0:0:0:
64,192,88980,1,0,0:0:0:0:
192,192,89055,1,0,0:0:0:0:
448,192,89055,1,0,0:0:0:0:
320,192,89130,1,0,0:0:0:0:
192,192,89205,1,8,0:0:0:0:
448,192,89205,1,0,0:0:0:0:
64,192,89205,1,0,0:0:0:0:
320,192,89280,1,0,0:0:0:0:
448,192,89355,1,0,0:0:0:0:
64,192,89355,1,4,0:0:0:0:
192,192,89355,1,0,0:0:0:0:
448,192,89655,1,0,0:0:0:0:
64,192,89655,1,0,0:0:0:0:
320,192,89730,1,0,0:0:0:0:
192,192,89805,1,0,0:0:0:0:
448,192,89805,1,8,0:0:0:0:
64,192,89805,1,0,0:0:0:0:
320,192,89880,1,0,0:0:0:0:
64,192,89955,1,0,0:0:0:0:
448,192,89955,1,0,0:0:0:0:
192,192,90030,1,0,0:0:0:0:
64,192,90105,1,0,0:0:0:0:
448,192,90105,1,8,0:0:0:0:
320,192,90105,1,0,0:0:0:0:
192,192,90180,1,0,0:0:0:0:
448,192,90255,1,0,0:0:0:0:
64,192,90255,1,0,0:0:0:0:
192,192,90330,1,0,0:0:0:0:
64,192,90405,1,0,0:0:0:0:
448,192,90405,1,8,0:0:0:0:
320,192,90405,1,0,0:0:0:0:
192,192,90480,1,0,0:0:0:0:
320,192,90555,1,0,0:0:0:0:
448,192,90555,1,0,0:0:0:0:
64,192,90630,1,0,0:0:0:0:
192,192,90705,1,0,0:0:0:0:
448,192,90705,1,8,0:0:0:0:
320,192,90705,1,0,0:0:0:0:
64,192,90780,1,0,0:0:0:0:
320,192,90855,1,0,0:0:0:0:
192,192,90855,1,0,0:0:0:0:
448,192,90930,1,0,0:0:0:0:
192,192,91005,1,8,0:0:0:0:
64,192,91005,1,0,0:0:0:0:
320,192,91005,1,0,0:0:0:0:
448,192,91080,1,0,0:0:0:0:
320,192,91155,1,0,0:0:0:0:
64,192,91155,1,0,0:0:0:0:
192,192,91230,1,0,0:0:0:0:
64,192,91305,1,0,0:0:0:0:
320,192,91305,1,8,0:0:0:0:
448,192,91305,1,0,0:0:0:0:
448,192,91755,1,4,0:0:0:0:
64,192,91755,1,0,0:0:0:0:
192,192,91755,1,0,0:0:0:0:
448,192,92055,1,0,0:0:0:0:
192,192,92055,1,0,0:0:0:0:
320,192,92130,1,0,0:0:0:0:
448,192,92205,1,8,0:0:0:0:
192,192,92205,1,0,0:0:0:0:
64,192,92205,1,0,0:0:0:0:
320,192,92280,1,0,0:0:0:0:
64,192,92355,1,0,0:0:0:0:
448,192,92355,1,0,0:0:0:0:
192,192,92430,1,0,0:0:0:0:
64,192,92505,1,0,0:0:0:0:
448,192,92505,1,8,0:0:0:0:
320,192,92505,1,0,0:0:0:0:
192,192,92580,1,0,0:0:0:0:
448,192,92655,1,0,0:0:0:0:
64,192,92655,1,0,0:0:0:0:
320,192,92730,1,0,0:0:0:0:
192,192,92805,1,0,0:0:0:0:
448,192,92805,1,8,0:0:0:0:
64,192,92805,1,0,0:0:0:0:
320,192,92880,1,0,0:0:0:0:
64,192,92955,1,0,0:0:0:0:
192,192,92955,1,0,0:0:0:0:
448,192,93030,1,0,0:0:0:0:
64,192,93105,1,0,0:0:0:0:
192,192,93105,1,8,0:0:0:0:
320,192,93105,1,0,0:0:0:0:
448,192,93180,1,0,0:0:0:0:
320,192,93255,1,0,0:0:0:0:
192,192,93330,1,0,0:0:0:0:
64,192,93405,1,0,0:0:0:0:
448,192,93405,1,8,0:0:0:0:
320,192,93405,1,0,0:0:0:0:
192,192,93480,1,0,0:0:0:0:
320,192,93555,1,0,0:0:0:0:
64,192,93555,1,0,0:0:0:0:
192,192,93630,1,0,0:0:0:0:
320,192,93705,1,8,0:0:0:0:
64,192,93705,1,0,0:0:0:0:
448,192,93705,1,0,0:0:0:0:
192,192,93780,1,0,0:0:0:0:
448,192,93855,1,0,0:0:0:0:
64,192,93855,1,0,0:0:0:0:
320,192,93930,1,0,0:0:0:0:
448,192,94005,1,8,0:0:0:0:
64,192,94005,1,0,0:0:0:0:
192,192,94005,1,0,0:0:0:0:
320,192,94080,1,0,0:0:0:0:
64,192,94155,1,0,0:0:0:0:
448,192,94155,1,4,0:0:0:0:
192,192,94155,1,0,0:0:0:0:
64,192,94455,1,0,0:0:0:0:
448,192,94455,1,0,0:0:0:0:
192,192,94530,1,0,0:0:0:0:
320,192,94605,1,0,0:0:0:0:
64,192,94605,1,8,0:0:0:0:
448,192,94605,1,0,0:0:0:0:
192,192,94680,1,0,0:0:0:0:
448,192,94755,1,0,0:0:0:0:
64,192,94755,1,0,0:0:0:0:
192,192,94830,1,0,0:0:0:0:
448,192,94905,1,0,0:0:0:0:
64,192,94905,1,8,0:0:0:0:
320,192,94905,1,0,0:0:0:0:
192,192,94980,1,0,0:0:0:0:
320,192,95055,1,0,0:0:0:0:
448,192,95055,1,0,0:0:0:0:
192,192,95130,1,0,0:0:0:0:
64,192,95205,1,8,0:0:0:0:
320,192,95205,1,0,0:0:0:0:
448,192,95205,1,0,0:0:0:0:
192,192,95280,1,0,0:0:0:0:
448,192,95355,1,0,0:0:0:0:
64,192,95355,1,0,0:0:0:0:
320,192,95430,1,0,0:0:0:0:
64,192,95505,1,8,0:0:0:0:
448,192,95505,1,0,0:0:0:0:
192,192,95505,1,0,0:0:0:0:
320,192,95580,1,0,0:0:0:0:
192,192,95655,1,0,0:0:0:0:
448,192,95655,1,0,0:0:0:0:
320,192,95730,1,0,0:0:0:0:
448,192,95805,1,0,0:0:0:0:
64,192,95805,1,8,0:0:0:0:
192,192,95805,1,0,0:0:0:0:
320,192,95880,1,0,0:0:0:0:
192,192,95955,1,0,0:0:0:0:
64,192,95955,1,0,0:0:0:0:
320,192,96030,1,0,0:0:0:0:
192,192,96105,1,8,0:0:0:0:
448,192,96105,1,0,0:0:0:0:
64,192,96105,1,0,0:0:0:0:
320,192,96180,1,0,0:0:0:0:
448,192,96255,1,0,0:0:0:0:
64,192,96255,1,8,0:0:0:0:
192,192,96255,1,0,0:0:0:0:
64,192,96555,1,4,0:0:0:0:
320,192,96555,1,8,0:0:0:0:
448,192,96555,1,0,0:0:0:0:
192,192,96555,1,0,0:0:0:0:
448,192,96855,1,0,0:0:0:0:
64,192,96855,1,0,0:0:0:0:
192,192,96930,1,0,0:0:0:0:
320,192,96930,1,0,0:0:0:0:
448,192,97005,1,0,0:0:0:0:
64,192,97005,1,0,0:0:0:0:
192,192,97080,1,0,0:0:0:0:
320,192,97080,1,0,0:0:0:0:
448,192,97155,1,0,0:0:0:0:
64,192,97155,1,0,0:0:0:0:
192,192,97230,1,0,0:0:0:0:
320,192,97230,1,0,0:0:0:0:
64,192,97305,1,8,0:0:0:0:
448,192,97305,1,0,0:0:0:0:
320,192,97455,1,0,0:0:0:0:
64,192,97455,1,0,0:0:0:0:
192,192,97605,1,0,0:0:0:0:
448,192,97605,1,0,0:0:0:0:
448,192,97755,1,0,0:0:0:0:
320,192,97755,1,4,0:0:0:0:
64,192,97755,1,0,0:0:0:0:
64,192,98055,1,0,0:0:0:0:
192,192,98055,1,0,0:0:0:0:
448,192,98130,1,0,0:0:0:0:
320,192,98130,1,0,0:0:0:0:
64,192,98205,1,0,0:0:0:0:
192,192,98205,1,0,0:0:0:0:
320,192,98280,1,0,0:0:0:0:
448,192,98280,1,0,0:0:0:0:
64,192,98355,1,0,0:0:0:0:
192,192,98355,1,0,0:0:0:0:
448,192,98430,1,0,0:0:0:0:
320,192,98430,1,0,0:0:0:0:
64,192,98505,1,0,0:0:0:0:
192,192,98505,1,8,0:0:0:0:
448,192,98655,1,0,0:0:0:0:
64,192,98655,1,0,0:0:0:0:
320,192,98805,1,0,0:0:0:0:
192,192,98805,1,0,0:0:0:0:
448,192,98955,1,0,0:0:0:0:
192,192,98955,1,4,0:0:0:0:
64,192,98955,1,0,0:0:0:0:
320,192,99255,1,0,0:0:0:0:
448,192,99255,1,0,0:0:0:0:
192,192,99330,1,0,0:0:0:0:
64,192,99330,1,0,0:0:0:0:
320,192,99405,1,0,0:0:0:0:
448,192,99405,1,0,0:0:0:0:
64,192,99480,1,0,0:0:0:0:
192,192,99480,1,0,0:0:0:0:
448,192,99555,1,0,0:0:0:0:
320,192,99555,1,0,0:0:0:0:
64,192,99630,1,0,0:0:0:0:
192,192,99630,1,0,0:0:0:0:
320,192,99705,1,8,0:0:0:0:
448,192,99705,1,0,0:0:0:0:
448,192,99855,1,0,0:0:0:0:
64,192,99855,1,0,0:0:0:0:
320,192,100005,1,0,0:0:0:0:
192,192,100005,1,0,0:0:0:0:
192,192,100155,1,4,0:0:0:0:
64,192,100155,1,0,0:0:0:0:
448,192,100155,1,0,0:0:0:0:
320,192,100455,1,0,0:0:0:0:
192,192,100455,1,0,0:0:0:0:
64,192,100530,1,0,0:0:0:0:
448,192,100530,1,0,0:0:0:0:
320,192,100605,1,0,0:0:0:0:
192,192,100605,1,0,0:0:0:0:
64,192,100680,1,0,0:0:0:0:
448,192,100680,1,0,0:0:0:0:
320,192,100755,1,0,0:0:0:0:
192,192,100755,1,0,0:0:0:0:
448,192,100830,1,0,0:0:0:0:
64,192,100830,1,0,0:0:0:0:
192,192,100905,1,8,0:0:0:0:
320,192,100905,1,0,0:0:0:0:
320,192,101055,1,0,0:0:0:0:
448,192,101055,1,0,0:0:0:0:
192,192,101205,1,0,0:0:0:0:
64,192,101205,1,0,0:0:0:0:
320,192,101355,1,4,0:0:0:0:
64,192,101355,1,0,0:0:0:0:
448,192,101355,1,0,0:0:0:0:
64,192,101655,1,0,0:0:0:0:
448,192,101655,1,0,0:0:0:0:
320,192,101730,1,0,0:0:0:0:
192,192,101730,1,0,0:0:0:0:
448,192,101805,1,0,0:0:0:0:
64,192,101805,1,0,0:0:0:0:
192,192,101880,1,0,0:0:0:0:
320,192,101880,1,0,0:0:0:0:
64,192,101955,1,0,0:0:0:0:
448,192,101955,1,0,0:0:0:0:
320,192,102030,1,0,0:0:0:0:
192,192,102030,1,0,0:0:0:0:
64,192,102105,1,8,0:0:0:0:
448,192,102105,1,0,0:0:0:0:
448,192,102255,1,0,0:0:0:0:
192,192,102255,1,0,0:0:0:0:
320,192,102405,1,0,0:0:0:0:
64,192,102405,1,0,0:0:0:0:
192,192,102555,1,4,0:0:0:0:
64,192,102555,1,0,0:0:0:0:
448,192,102555,1,0,0:0:0:0:
320,192,102855,1,0,0:0:0:0:
448,192,102855,1,0,0:0:0:0:
64,192,102930,1,0,0:0:0:0:
192,192,102930,1,0,0:0:0:0:
448,192,103005,1,0,0:0:0:0:
320,192,103005,1,0,0:0:0:0:
64,192,103080,1,0,0:0:0:0:
192,192,103080,1,0,0:0:0:0:
320,192,103155,1,0,0:0:0:0:
448,192,103155,1,0,0:0:0:0:
64,192,103230,1,0,0:0:0:0:
192,192,103230,1,0,0:0:0:0:
448,192,103305,1,0,0:0:0:0:
320,192,103305,1,8,0:0:0:0:
192,192,103455,1,0,0:0:0:0:
448,192,103455,1,0,0:0:0:0:
320,192,103605,1,0,0:0:0:0:
64,192,103605,1,0,0:0:0:0:
192,192,103755,1,4,0:0:0:0:
64,192,103755,1,0,0:0:0:0:
448,192,103755,1,0,0:0:0:0:
448,192,104055,1,0,0:0:0:0:
64,192,104055,1,0,0:0:0:0:
320,192,104130,1,0,0:0:0:0:
192,192,104130,1,0,0:0:0:0:
64,192,104205,1,0,0:0:0:0:
448,192,104205,1,0,0:0:0:0:
192,192,104280,1,0,0:0:0:0:
320,192,104280,1,0,0:0:0:0:
448,192,104355,1,0,0:0:0:0:
64,192,104355,1,0,0:0:0:0:
192,192,104430,1,0,0:0:0:0:
320,192,104430,1,0,0:0:0:0:
448,192,104505,1,8,0:0:0:0:
64,192,104505,1,0,0:0:0:0:
320,192,104655,1,0,0:0:0:0:
192,192,104655,1,0,0:0:0:0:
192,192,104805,1,0,0:0:0:0:
64,192,104805,1,8,0:0:0:0:
448,192,104805,1,0,0:0:0:0:
320,192,104955,1,0,0:0:0:0:
448,192,104955,1,4,0:0:0:0:
64,192,104955,1,0,0:0:0:0:
192,192,104955,1,0,0:0:0:0:
448,192,105405,1,0,0:0:0:0:
64,192,105405,1,8,0:0:0:0:
320,192,105405,1,4,2:0:0:0:
192,192,105405,1,0,0:0:0:0:
448,192,105705,1,0,0:0:0:0:
192,192,105705,1,4,2:0:0:0:
64,192,105705,1,8,0:0:0:0:
320,192,105705,1,0,0:0:0:0:
448,192,106005,1,0,0:0:0:0:
320,192,106005,1,4,2:0:0:0:
64,192,106005,1,8,0:0:0:0:
192,192,106005,1,0,0:0:0:0:
64,192,106155,1,0,0:0:0:0:
448,192,106155,1,4,0:0:0:0:
320,192,106155,1,0,0:0:0:0:
320,192,106455,1,0,0:0:0:0:
64,192,106455,1,0,0:0:0:0:
320,192,106605,1,0,0:0:0:0:
448,192,106605,1,8,0:0:0:0:
192,192,106605,1,0,0:0:0:0:
64,192,106755,1,0,0:0:0:0:
320,192,106905,1,0,0:0:0:0:
448,192,106905,1,0,0:0:0:0:
320,192,107055,1,0,0:0:0:0:
64,192,107055,1,0,0:0:0:0:
448,192,107205,1,8,0:0:0:0:
320,192,107205,1,0,0:0:0:0:
192,192,107205,1,0,0:0:0:0:
64,192,107355,1,0,0:0:0:0:
192,192,107355,1,4,0:0:0:0:
448,192,107355,1,0,0:0:0:0:
320,192,107355,1,0,0:0:0:0:
320,192,107655,1,0,0:0:0:0:
448,192,107655,1,0,0:0:0:0:
192,192,107805,1,0,0:0:0:0:
64,192,107805,1,8,0:0:0:0:
320,192,107805,1,0,0:0:0:0:
448,192,107955,1,0,0:0:0:0:
192,192,108105,1,0,0:0:0:0:
64,192,108105,1,0,0:0:0:0:
192,192,108255,1,0,0:0:0:0:
448,192,108255,1,0,0:0:0:0:
64,192,108405,1,8,0:0:0:0:
320,192,108405,1,0,0:0:0:0:
448,192,108405,1,0,0:0:0:0:
320,192,108555,1,4,0:0:0:0:
448,192,108555,1,0,0:0:0:0:
64,192,108555,1,0,0:0:0:0:
192,192,108555,1,0,0:0:0:0:
192,192,108855,1,0,0:0:0:0:
64,192,108855,1,0,0:0:0:0:
64,192,109005,1,8,0:0:0:0:
320,192,109005,1,0,0:0:0:0:
448,192,109005,1,0,0:0:0:0:
448,192,109155,1,0,0:0:0:0:
320,192,109305,1,0,0:0:0:0:
64,192,109305,1,0,0:0:0:0:
320,192,109455,1,0,0:0:0:0:
192,192,109455,1,0,0:0:0:0:
64,192,109605,1,8,0:0:0:0:
448,192,109605,1,0,0:0:0:0:
192,192,109605,1,0,0:0:0:0:
192,192,109755,1,0,0:0:0:0:
320,192,109755,1,4,0:0:0:0:
448,192,109755,1,0,0:0:0:0:
64,192,109755,1,0,0:0:0:0:
64,192,110055,1,0,0:0:0:0:
320,192,110055,1,0,0:0:0:0:
192,192,110205,1,8,0:0:0:0:
320,192,110205,1,0,0:0:0:0:
448,192,110205,1,0,0:0:0:0:
64,192,110355,1,0,0:0:0:0:
192,192,110505,1,0,0:0:0:0:
448,192,110505,1,0,0:0:0:0:
192,192,110655,1,0,0:0:0:0:
320,192,110655,1,0,0:0:0:0:
320,192,110805,1,0,0:0:0:0:
448,192,110805,1,8,0:0:0:0:
64,192,110805,1,0,0:0:0:0:
64,192,110955,1,0,0:0:0:0:
192,192,110955,1,4,0:0:0:0:
448,192,110955,1,0,0:0:0:0:
320,192,110955,1,0,0:0:0:0:
320,192,111255,1,0,0:0:0:0:
448,192,111255,1,0,0:0:0:0:
64,192,111405,1,8,0:0:0:0:
192,192,111405,1,0,0:0:0:0:
320,192,111405,1,0,0:0:0:0:
448,192,111555,1,0,0:0:0:0:
320,192,111705,1,0,0:0:0:0:
64,192,111705,1,0,0:0:0:0:
320,192,111855,1,0,0:0:0:0:
448,192,111855,1,0,0:0:0:0:
64,192,112005,1,8,0:0:0:0:
192,192,112005,1,0,0:0:0:0:
448,192,112005,1,0,0:0:0:0:
320,192,112155,1,4,0:0:0:0:
448,192,112155,1,0,0:0:0:0:
64,192,112155,1,0,0:0:0:0:
192,192,112155,1,0,0:0:0:0:
192,192,112455,1,0,0:0:0:0:
64,192,112455,1,0,0:0:0:0:
320,192,112605,1,0,0:0:0:0:
64,192,112605,1,8,0:0:0:0:
448,192,112605,1,0,0:0:0:0:
448,192,112755,1,0,0:0:0:0:
320,192,112905,1,0,0:0:0:0:
64,192,112905,1,0,0:0:0:0:
320,192,113055,1,0,0:0:0:0:
192,192,113055,1,0,0:0:0:0:
448,192,113205,1,0,0:0:0:0:
64,192,113205,1,8,0:0:0:0:
192,192,113205,1,0,0:0:0:0:
320,192,113355,1,4,0:0:0:0:
192,192,113355,1,0,0:0:0:0:
64,192,113355,1,0,0:0:0:0:
448,192,113355,1,0,0:0:0:0:
448,192,113655,1,0,0:0:0:0:
64,192,113655,1,0,0:0:0:0:
320,192,113805,1,8,0:0:0:0:
64,192,113805,1,0,0:0:0:0:
448,192,113805,1,0,0:0:0:0:
192,192,113955,1,0,0:0:0:0:
64,192,114105,1,0,0:0:0:0:
448,192,114105,1,0,0:0:0:0:
320,192,114255,1,0,0:0:0:0:
192,192,114255,1,0,0:0:0:0:
192,192,114405,1,8,0:0:0:0:
448,192,114405,1,0,0:0:0:0:
64,192,114405,1,0,0:0:0:0:
64,192,114555,1,0,0:0:0:0:
320,192,114555,1,4,0:0:0:0:
448,192,114555,1,0,0:0:0:0:
192,192,114555,1,0,0:0:0:0:
448,192,114855,1,0,0:0:0:0:
320,192,114855,1,0,0:0:0:0:
64,192,115005,1,0,0:0:0:0:
192,192,115005,1,8,0:0:0:0:
320,192,115080,1,8,0:0:0:0:
448,192,115080,1,0,0:0:0:0:
192,192,115155,1,8,0:0:0:0:
64,192,115155,1,0,0:0:0:0:
320,192,115230,1,8,0:0:0:0:
448,192,115230,1,0,0:0:0:0:
64,192,115305,1,0,0:0:0:0:
192,192,115380,1,0,0:0:0:0:
448,192,115455,1,0,0:0:0:0:
64,192,115455,1,0,0:0:0:0:
320,192,115530,1,0,0:0:0:0:
192,192,115605,1,0,0:0:0:0:
64,192,115605,1,0,0:0:0:0:
448,192,115755,1,0,0:0:0:0:
320,192,115755,1,4,0:0:0:0:
64,192,115755,1,0,0:0:0:0:
192,192,115755,1,0,0:0:0:0:
320,192,116055,1,0,0:0:0:0:
448,192,116055,1,0,0:0:0:0:
192,192,116205,1,0,0:0:0:0:
64,192,116205,1,8,0:0:0:0:
320,192,116205,1,0,0:0:0:0:
448,192,116355,1,0,0:0:0:0:
192,192,116505,1,0,0:0:0:0:
64,192,116505,1,0,0:0:0:0:
320,192,116655,1,0,0:0:0:0:
448,192,116655,1,0,0:0:0:0:
192,192,116805,1,0,0:0:0:0:
64,192,116805,1,8,0:0:0:0:
320,192,116955,1,4,0:0:0:0:
448,192,116955,1,0,0:0:0:0:
64,192,116955,1,0,0:0:0:0:
192,192,116955,1,0,0:0:0:0:
192,192,117255,1,0,0:0:0:0:
64,192,117255,1,0,0:0:0:0:
320,192,117405,1,0,0:0:0:0:
448,192,117405,1,8,0:0:0:0:
64,192,117405,1,0,0:0:0:0:
192,192,117555,1,0,0:0:0:0:
320,192,117705,1,0,0:0:0:0:
448,192,117705,1,0,0:0:0:0:
320,192,117855,1,0,0:0:0:0:
64,192,117855,1,0,0:0:0:0:
448,192,118005,1,8,0:0:0:0:
192,192,118005,1,0,0:0:0:0:
64,192,118005,1,0,0:0:0:0:
64,192,118155,1,0,0:0:0:0:
192,192,118155,1,4,0:0:0:0:
448,192,118155,1,0,0:0:0:0:
320,192,118155,1,0,0:0:0:0:
320,192,118455,1,0,0:0:0:0:
192,192,118455,1,0,0:0:0:0:
192,192,118605,1,0,0:0:0:0:
448,192,118605,1,8,0:0:0:0:
64,192,118605,1,0,0:0:0:0:
64,192,118755,1,0,0:0:0:0:
320,192,118905,1,0,0:0:0:0:
448,192,118905,1,0,0:0:0:0:
192,192,119055,1,0,0:0:0:0:
320,192,119055,1,0,0:0:0:0:
448,192,119205,1,8,0:0:0:0:
64,192,119205,1,0,0:0:0:0:
192,192,119205,1,0,0:0:0:0:
320,192,119355,1,8,0:0:0:0:
192,192,119355,1,4,0:0:0:0:
448,192,119355,1,0,0:0:0:0:
64,192,119355,1,0,0:0:0:0:
448,192,119655,1,0,0:0:0:0:
192,192,119655,1,0,0:0:0:0:
320,192,119805,1,8,0:0:0:0:
192,192,119805,1,0,0:0:0:0:
448,192,119805,1,0,0:0:0:0:
64,192,119955,1,0,0:0:0:0:
448,192,120105,1,0,0:0:0:0:
320,192,120105,1,0,0:0:0:0:
64,192,120255,1,0,0:0:0:0:
192,192,120255,1,0,0:0:0:0:
320,192,120405,1,8,0:0:0:0:
192,192,120405,1,0,0:0:0:0:
448,192,120405,1,0,0:0:0:0:
448,192,120555,1,0,0:0:0:0:
64,192,120555,1,4,0:0:0:0:
320,192,120555,1,0,0:0:0:0:
192,192,120555,1,0,0:0:0:0:
320,192,120855,1,0,0:0:0:0:
64,192,120855,1,0,0:0:0:0:
448,192,121005,1,8,0:0:0:0:
64,192,121005,1,0,0:0:0:0:
320,192,121005,1,0,0:0:0:0:
192,192,121155,1,0,0:0:0:0:
448,192,121305,1,0,0:0:0:0:
64,192,121305,1,0,0:0:0:0:
448,192,121455,1,0,0:0:0:0:
192,192,121455,1,0,0:0:0:0:
320,192,121605,1,0,0:0:0:0:
192,192,121605,1,8,0:0:0:0:
64,192,121605,1,0,0:0:0:0:
448,192,121755,1,4,0:0:0:0:
64,192,121755,1,0,0:0:0:0:
192,192,121755,1,8,0:0:0:0:
320,192,121755,1,0,0:0:0:0:
320,192,122055,1,0,0:0:0:0:
448,192,122055,1,0,0:0:0:0:
192,192,122205,1,0,0:0:0:0:
64,192,122205,1,8,0:0:0:0:
320,192,122205,1,0,0:0:0:0:
448,192,122355,1,0,0:0:0:0:
64,192,122505,1,0,0:0:0:0:
192,192,122505,1,0,0:0:0:0:
320,192,122655,1,0,0:0:0:0:
64,192,122655,1,0,0:0:0:0:
192,192,122805,1,0,0:0:0:0:
448,192,122805,1,8,0:0:0:0:
320,192,122805,1,0,0:0:0:0:
320,192,122955,1,0,0:0:0:0:
64,192,122955,1,4,0:0:0:0:
448,192,122955,1,0,0:0:0:0:
192,192,122955,1,0,0:0:0:0:
64,192,123255,1,0,0:0:0:0:
192,192,123255,1,0,0:0:0:0:
320,192,123405,1,8,0:0:0:0:
448,192,123405,1,0,0:0:0:0:
64,192,123405,1,0,0:0:0:0:
192,192,123555,1,0,0:0:0:0:
448,192,123705,1,0,0:0:0:0:
320,192,123705,1,0,0:0:0:0:
64,192,123855,1,0,0:0:0:0:
192,192,123855,1,0,0:0:0:0:
320,192,124005,1,8,0:0:0:0:
192,192,124005,1,0,0:0:0:0:
448,192,124005,1,0,0:0:0:0:
64,192,124155,1,4,0:0:0:0:
448,192,124155,1,0,0:0:0:0:
192,192,124155,1,0,0:0:0:0:
320,192,124155,1,0,0:0:0:0:
320,192,124471,1,0,0:0:0:0:
192,192,124471,1,0,0:0:0:0:
192,192,124638,1,0,0:0:0:0:
448,192,124638,1,8,0:0:0:0:
64,192,124638,128,4,125013:2:0:0:0:
320,192,124638,1,0,0:0:0:0:
320,192,125013,1,0,0:0:0:0:
448,192,125013,128,4,125441:2:0:0:0:
192,192,125013,1,0,0:0:0:0:
320,192,125441,1,0,0:0:0:0:
192,192,125441,128,4,125941:2:0:0:0:
64,192,125441,1,0,0:0:0:0:
448,192,125941,1,0,0:0:0:0:
64,192,125941,1,0,0:0:0:0:
320,192,125941,1,4,2:0:0:0:
64,192,126991,1,0,0:0:0:0:
320,192,127291,1,0,0:0:0:0:
192,192,127441,1,0,0:0:0:0:
64,192,127441,1,0,2:0:0:0:
192,192,127591,1,0,0:0:0:0:
448,192,127741,1,0,0:0:0:0:
448,192,127891,1,0,0:0:0:0:
320,192,128041,1,0,2:0:0:0:
64,192,128041,1,0,0:0:0:0:
192,192,128191,1,0,0:0:0:0:
192,192,128491,1,0,0:0:0:0:
448,192,128641,1,0,2:0:0:0:
64,192,128641,1,0,0:0:0:0:
448,192,128791,1,0,0:0:0:0:
192,192,128941,1,0,0:0:0:0:
320,192,129091,1,0,0:0:0:0:
64,192,129241,1,0,2:0:0:0:
192,192,129241,1,0,0:0:0:0:
448,192,129391,1,0,0:0:0:0:
448,192,129691,1,0,0:0:0:0:
192,192,129841,1,0,2:0:0:0:
64,192,129841,1,0,0:0:0:0:
64,192,129991,1,0,0:0:0:0:
320,192,130141,1,0,0:0:0:0:
320,192,130291,1,0,0:0:0:0:
192,192,130441,1,0,2:0:0:0:
64,192,130441,1,0,0:0:0:0:
320,192,130591,1,0,0:0:0:0:
320,192,130891,1,0,0:0:0:0:
64,192,131041,1,0,0:0:0:0:
192,192,131041,1,0,2:0:0:0:
448,192,131191,1,0,0:0:0:0:
320,192,131341,1,0,0:0:0:0:
320,192,131491,1,0,0:0:0:0:
448,192,131641,1,0,0:0:0:0:
64,192,131641,1,0,2:0:0:0:
448,192,131791,1,0,0:0:0:0:
192,192,131791,1,8,0:0:0:0:
320,192,131791,1,4,2:0:0:0:
64,192,131791,1,0,0:0:0:0:
320,192,132091,1,8,0:0:0:0:
192,192,132091,1,4,2:0:0:0:
64,192,132091,1,0,0:0:0:0:
448,192,132091,1,0,0:0:0:0:
448,192,132241,1,0,0:0:0:0:
192,192,132241,1,0,2:0:0:0:
448,192,132391,1,0,0:0:0:0:
64,192,132541,1,0,0:0:0:0:
64,192,132691,1,0,0:0:0:0:
448,192,132841,1,0,0:0:0:0:
192,192,132841,1,0,2:0:0:0:
64,192,132991,1,0,0:0:0:0:
320,192,132991,1,4,2:0:0:0:
448,192,132991,1,8,0:0:0:0:
192,192,132991,1,0,0:0:0:0:
192,192,133291,1,0,0:0:0:0:
64,192,133291,1,4,2:0:0:0:
448,192,133291,1,8,0:0:0:0:
320,192,133291,1,0,0:0:0:0:
320,192,133441,1,0,2:0:0:0:
64,192,133441,1,0,0:0:0:0:
448,192,133591,1,0,0:0:0:0:
192,192,133741,1,0,0:0:0:0:
192,192,133891,1,0,0:0:0:0:
448,192,134041,1,0,2:0:0:0:
64,192,134041,1,0,0:0:0:0:
320,192,134191,1,4,2:0:0:0:
192,192,134191,1,8,0:0:0:0:
64,192,134191,1,0,0:0:0:0:
448,192,134191,1,0,0:0:0:0:
448,192,134491,1,8,0:0:0:0:
320,192,134491,1,4,2:0:0:0:
192,192,134491,1,0,0:0:0:0:
64,192,134491,1,0,0:0:0:0:
448,192,134641,1,0,2:0:0:0:
64,192,134641,1,0,0:0:0:0:
64,192,134791,1,0,0:0:0:0:
320,192,134941,1,0,0:0:0:0:
320,192,135091,1,0,0:0:0:0:
448,192,135241,1,0,2:0:0:0:
192,192,135241,1,0,0:0:0:0:
64,192,135391,1,8,0:0:0:0:
320,192,135391,1,4,0:0:0:0:
192,192,135391,1,0,0:0:0:0:
448,192,135391,128,0,137341:0:0:0:0:
320,192,137341,1,0,0:0:0:0:
192,192,137341,1,8,0:0:0:0:
64,192,137341,1,0,0:0:0:0:
320,192,137491,1,0,0:0:0:0:
192,192,137491,1,8,0:0:0:0:
448,192,137491,1,0,0:0:0:0:
320,192,137641,1,0,0:0:0:0:
192,192,137641,1,8,0:0:0:0:
64,192,137641,1,0,0:0:0:0:
448,192,137791,1,0,0:0:0:0:
192,192,137791,1,8,0:0:0:0:
64,192,137791,1,4,2:0:0:0:
320,192,137791,1,0,0:0:0:0:
320,192,138091,1,0,0:0:0:0:
64,192,138091,1,0,0:0:0:0:
192,192,138241,1,8,0:0:0:0:
448,192,138241,1,0,0:0:0:0:
64,192,138241,1,0,0:0:0:0:
320,192,138391,1,0,0:0:0:0:
64,192,138541,1,0,0:0:0:0:
448,192,138541,1,0,0:0:0:0:
192,192,138691,1,0,0:0:0:0:
64,192,138691,1,0,0:0:0:0:
320,192,138841,1,8,0:0:0:0:
448,192,138841,1,0,0:0:0:0:
192,192,138841,1,0,0:0:0:0:
64,192,138991,1,0,0:0:0:0:
192,192,138991,1,4,2:0:0:0:
448,192,138991,1,0,0:0:0:0:
320,192,138991,1,0,0:0:0:0:
448,192,139291,1,0,0:0:0:0:
192,192,139291,1,0,0:0:0:0:
320,192,139441,1,8,0:0:0:0:
64,192,139441,1,0,0:0:0:0:
192,192,139441,1,0,0:0:0:0:
320,192,139591,1,0,0:0:0:0:
192,192,139741,1,0,0:0:0:0:
448,192,139741,1,0,0:0:0:0:
320,192,139891,1,0,0:0:0:0:
64,192,139891,1,0,0:0:0:0:
448,192,140041,1,8,0:0:0:0:
64,192,140041,1,0,0:0:0:0:
192,192,140041,1,0,0:0:0:0:
320,192,140191,1,4,2:0:0:0:
192,192,140191,1,0,0:0:0:0:
64,192,140191,1,0,0:0:0:0:
448,192,140191,1,0,0:0:0:0:
448,192,140491,1,0,0:0:0:0:
64,192,140491,1,0,0:0:0:0:
192,192,140641,1,0,0:0:0:0:
64,192,140641,1,8,0:0:0:0:
320,192,140641,1,0,0:0:0:0:
192,192,140791,1,0,0:0:0:0:
448,192,140941,1,0,0:0:0:0:
64,192,140941,1,0,0:0:0:0:
320,192,141091,1,0,0:0:0:0:
64,192,141091,1,0,0:0:0:0:
448,192,141241,1,0,0:0:0:0:
192,192,141241,1,8,0:0:0:0:
64,192,141241,1,0,0:0:0:0:
320,192,141391,1,4,2:0:0:0:
64,192,141391,1,0,0:0:0:0:
448,192,141391,1,0,0:0:0:0:
192,192,141391,1,0,0:0:0:0:
192,192,141691,1,0,0:0:0:0:
320,192,141691,1,0,0:0:0:0:
320,192,141841,1,0,0:0:0:0:
64,192,141841,1,8,0:0:0:0:
448,192,141841,1,0,0:0:0:0:
64,192,142141,1,0,0:0:0:0:
448,192,142141,1,8,0:0:0:0:
192,192,142141,1,0,0:0:0:0:
64,192,142291,1,0,0:0:0:0:
448,192,142291,1,8,0:0:0:0:
320,192,142291,1,0,0:0:0:0:
448,192,142441,1,8,0:0:0:0:
64,192,142441,1,0,0:0:0:0:
192,192,142441,1,0,0:0:0:0:
320,192,142591,1,8,0:0:0:0:
64,192,142591,1,0,0:0:0:0:
448,192,142591,1,4,2:0:0:0:
192,192,142591,1,0,0:0:0:0:
192,192,142891,1,0,0:0:0:0:
320,192,142891,1,0,0:0:0:0:
320,192,143041,1,8,0:0:0:0:
64,192,143041,1,0,0:0:0:0:
448,192,143041,1,0,0:0:0:0:
192,192,143041,1,0,0:0:0:0:
192,192,143191,1,0,0:0:0:0:
448,192,143341,1,0,0:0:0:0:
64,192,143341,1,0,0:0:0:0:
320,192,143491,1,0,0:0:0:0:
192,192,143491,1,0,0:0:0:0:
64,192,143641,1,0,0:0:0:0:
192,192,143641,1,8,0:0:0:0:
448,192,143641,1,0,0:0:0:0:
320,192,143791,1,4,2:0:0:0:
448,192,143791,1,0,0:0:0:0:
64,192,143791,1,0,0:0:0:0:
192,192,143791,1,0,0:0:0:0:
64,192,144091,1,0,0:0:0:0:
448,192,144091,1,0,0:0:0:0:
448,192,144241,1,0,0:0:0:0:
192,192,144241,1,8,0:0:0:0:
320,192,144241,1,0,0:0:0:0:
192,192,144391,1,0,0:0:0:0:
320,192,144541,1,0,0:0:0:0:
64,192,144541,1,0,0:0:0:0:
192,192,144691,1,0,0:0:0:0:
448,192,144691,1,0,0:0:0:0:
448,192,144841,1,0,0:0:0:0:
64,192,144841,1,8,0:0:0:0:
192,192,144841,1,0,0:0:0:0:
192,192,144991,1,4,2:0:0:0:
320,192,144991,1,0,0:0:0:0:
448,192,144991,1,0,0:0:0:0:
64,192,144991,1,0,0:0:0:0:
64,192,145291,1,0,0:0:0:0:
448,192,145291,1,0,0:0:0:0:
448,192,145441,1,8,0:0:0:0:
320,192,145441,1,0,0:0:0:0:
192,192,145441,1,0,0:0:0:0:
192,192,145591,1,0,0:0:0:0:
64,192,145741,1,0,0:0:0:0:
448,192,145741,1,0,0:0:0:0:
192,192,145891,1,0,0:0:0:0:
320,192,145891,1,0,0:0:0:0:
64,192,146041,1,0,0:0:0:0:
320,192,146041,1,8,0:0:0:0:
192,192,146041,1,0,0:0:0:0:
448,192,146191,1,0,0:0:0:0:
192,192,146191,1,4,2:0:0:0:
320,192,146191,1,0,0:0:0:0:
64,192,146191,1,0,0:0:0:0:
320,192,146491,1,0,0:0:0:0:
192,192,146491,1,0,0:0:0:0:
448,192,146641,1,8,0:0:0:0:
192,192,146641,1,0,0:0:0:0:
64,192,146641,1,0,0:0:0:0:
320,192,146641,1,0,0:0:0:0:
64,192,146791,1,0,0:0:0:0:
320,192,146941,1,0,0:0:0:0:
192,192,146941,1,8,0:0:0:0:
448,192,146941,1,0,0:0:0:0:
320,192,147091,1,0,0:0:0:0:
192,192,147091,1,8,0:0:0:0:
64,192,147091,1,0,0:0:0:0:
320,192,147241,1,0,0:0:0:0:
192,192,147241,1,8,0:0:0:0:
448,192,147241,1,0,0:0:0:0:
64,192,147391,1,4,2:0:0:0:
448,192,147391,1,0,0:0:0:0:
192,192,147391,1,8,0:0:0:0:
320,192,147391,1,0,0:0:0:0:
320,192,147691,1,0,0:0:0:0:
192,192,147691,1,0,0:0:0:0:
448,192,147841,1,4,2:0:0:0:
64,192,147841,1,0,0:0:0:0:
320,192,147841,1,0,0:0:0:0:
64,192,148141,1,0,0:0:0:0:
320,192,148141,1,8,0:0:0:0:
448,192,148141,1,0,0:0:0:0:
192,192,148291,1,0,0:0:0:0:
64,192,148291,1,0,0:0:0:0:
320,192,148441,1,0,0:0:0:0:
448,192,148441,1,0,0:0:0:0:
64,192,148591,1,0,0:0:0:0:
448,192,148591,1,4,2:0:0:0:
192,192,148591,1,0,0:0:0:0:
320,192,148591,1,0,0:0:0:0:
448,192,148891,1,0,0:0:0:0:
192,192,148891,1,0,0:0:0:0:
64,192,148966,1,0,0:0:0:0:
320,192,149041,1,4,2:0:0:0:
192,192,149041,1,0,0:0:0:0:
448,192,149041,1,0,0:0:0:0:
192,192,149341,1,0,0:0:0:0:
448,192,149341,1,8,0:0:0:0:
320,192,149341,1,0,0:0:0:0:
64,192,149491,1,0,0:0:0:0:
192,192,149491,1,0,0:0:0:0:
320,192,149641,1,0,0:0:0:0:
448,192,149641,1,0,0:0:0:0:
448,192,149791,1,4,2:0:0:0:
192,192,149791,1,0,0:0:0:0:
64,192,149791,1,0,0:0:0:0:
320,192,149791,1,0,0:0:0:0:
448,192,150091,1,0,0:0:0:0:
192,192,150091,1,0,0:0:0:0:
64,192,150241,1,4,2:0:0:0:
320,192,150241,1,0,0:0:0:0:
448,192,150241,1,0,0:0:0:0:
448,192,150541,1,0,0:0:0:0:
320,192,150541,1,8,0:0:0:0:
64,192,150541,1,0,0:0:0:0:
192,192,150691,1,0,0:0:0:0:
64,192,150691,1,0,0:0:0:0:
448,192,150841,1,0,0:0:0:0:
320,192,150841,1,0,0:0:0:0:
64,192,150991,1,0,0:0:0:0:
320,192,150991,1,4,2:0:0:0:
192,192,150991,1,0,0:0:0:0:
448,192,150991,1,0,0:0:0:0:
64,192,151291,1,0,0:0:0:0:
320,192,151291,1,0,0:0:0:0:
448,192,151366,1,0,0:0:0:0:
64,192,151441,1,4,2:0:0:0:
320,192,151441,1,0,0:0:0:0:
192,192,151441,1,0,0:0:0:0:
192,192,151591,1,0,0:0:0:0:
320,192,151591,1,0,0:0:0:0:
320,192,151741,1,8,0:0:0:0:
64,192,151741,1,0,0:0:0:0:
448,192,151741,1,0,0:0:0:0:
320,192,151891,1,8,0:0:0:0:
64,192,151891,1,0,0:0:0:0:
448,192,151891,1,0,0:0:0:0:
320,192,152041,1,8,0:0:0:0:
64,192,152041,1,0,0:0:0:0:
448,192,152041,1,0,0:0:0:0:
448,192,152191,1,4,2:0:0:0:
64,192,152191,1,0,0:0:0:0:
320,192,152191,1,8,0:0:0:0:
192,192,152191,1,0,0:0:0:0:
320,192,152491,1,0,0:0:0:0:
192,192,152491,1,0,0:0:0:0:
192,192,152641,1,4,2:0:0:0:
64,192,152641,1,0,0:0:0:0:
448,192,152641,1,0,0:0:0:0:
64,192,152941,1,0,0:0:0:0:
320,192,152941,1,8,0:0:0:0:
448,192,152941,1,0,0:0:0:0:
192,192,153091,1,0,0:0:0:0:
64,192,153091,1,0,0:0:0:0:
320,192,153241,1,0,0:0:0:0:
192,192,153241,1,0,0:0:0:0:
64,192,153391,1,0,0:0:0:0:
448,192,153391,1,4,2:0:0:0:
192,192,153391,1,0,0:0:0:0:
320,192,153391,1,0,0:0:0:0:
448,192,153691,1,0,0:0:0:0:
192,192,153691,1,0,0:0:0:0:
320,192,153766,1,0,0:0:0:0:
448,192,153841,1,4,2:0:0:0:
64,192,153841,1,0,0:0:0:0:
192,192,153841,1,0,0:0:0:0:
448,192,154141,1,8,0:0:0:0:
192,192,154141,1,0,0:0:0:0:
320,192,154141,1,0,0:0:0:0:
64,192,154291,1,0,0:0:0:0:
192,192,154291,1,0,0:0:0:0:
320,192,154441,1,0,0:0:0:0:
192,192,154441,1,0,0:0:0:0:
448,192,154591,1,4,2:0:0:0:
192,192,154591,1,0,0:0:0:0:
64,192,154591,1,0,0:0:0:0:
320,192,154591,1,0,0:0:0:0:
64,192,154891,1,0,0:0:0:0:
192,192,154891,1,0,0:0:0:0:
64,192,155041,1,4,2:0:0:0:
320,192,155041,1,0,0:0:0:0:
448,192,155041,1,0,0:0:0:0:
192,192,155191,1,0,0:0:0:0:
64,192,155191,1,0,0:0:0:0:
448,192,155341,1,0,0:0:0:0:
320,192,155341,1,8,0:0:0:0:
192,192,155416,1,8,0:0:0:0:
64,192,155416,1,0,0:0:0:0:
320,192,155491,1,0,0:0:0:0:
448,192,155491,1,0,0:0:0:0:
192,192,155566,1,0,0:0:0:0:
64,192,155566,1,0,0:0:0:0:
320,192,155641,1,0,0:0:0:0:
448,192,155641,1,0,0:0:0:0:
64,192,155791,1,4,0:0:0:0:
448,192,155791,1,0,0:0:0:0:
192,192,155791,1,0,0:0:0:0:
320,192,155791,1,0,0:0:0:0:
448,192,156091,1,0,0:0:0:0:
192,192,156091,1,8,0:0:0:0:
64,192,156091,1,0,0:0:0:0:
192,192,156241,1,8,0:0:0:0:
448,192,156241,1,0,0:0:0:0:
64,192,156241,1,0,0:0:0:0:
448,192,156391,1,0,0:0:0:0:
192,192,156391,1,8,0:0:0:0:
64,192,156391,1,0,0:0:0:0:
448,192,156541,1,0,0:0:0:0:
320,192,156541,1,8,0:0:0:0:
64,192,156541,1,4,3:0:0:0:
192,192,156541,1,0,0:0:0:0:
448,192,156766,1,0,0:0:0:0:
192,192,156766,1,8,0:0:0:0:
64,192,156766,1,4,3:0:0:0:
448,192,156991,1,0,0:0:0:0:
320,192,156991,1,8,0:0:0:0:
64,192,156991,1,4,3:0:0:0:
448,192,157441,1,0,0:0:0:0:
64,192,157441,1,4,0:0:0:0:
192,192,157441,1,8,0:0:0:0:
320,192,157441,1,0,0:0:0:0:
448,192,157741,1,8,0:0:0:0:
64,192,157741,1,0,0:0:0:0:
320,192,157816,1,8,0:0:0:0:
192,192,157816,1,0,0:0:0:0:
64,192,157891,1,0,0:0:0:0:
448,192,157891,1,0,0:0:0:0:
320,192,157966,1,0,0:0:0:0:
192,192,157966,1,0,0:0:0:0:
64,192,158041,1,0,0:0:0:0:
448,192,158041,1,0,0:0:0:0:
192,192,158116,1,0,0:0:0:0:
320,192,158116,1,0,0:0:0:0:
64,192,158191,1,0,0:0:0:0:
448,192,158191,1,4,0:0:0:0:
192,192,158491,1,0,0:0:0:0:
320,192,158491,1,0,0:0:0:0:
448,192,158641,1,0,0:0:0:0:
320,192,158641,1,8,0:0:0:0:
64,192,158641,1,0,0:0:0:0:
64,192,158791,1,0,0:0:0:0:
192,192,158791,1,0,0:0:0:0:
320,192,158866,1,0,0:0:0:0:
448,192,158866,1,0,0:0:0:0:
192,192,158941,1,0,0:0:0:0:
64,192,158941,1,8,0:0:0:0:
320,192,159016,1,0,0:0:0:0:
448,192,159016,1,0,0:0:0:0:
64,192,159091,1,0,0:0:0:0:
192,192,159091,1,0,0:0:0:0:
320,192,159166,1,0,0:0:0:0:
448,192,159166,1,0,0:0:0:0:
64,192,159241,1,0,0:0:0:0:
192,192,159241,1,8,0:0:0:0:
320,192,159391,1,0,0:0:0:0:
192,192,159391,1,4,0:0:0:0:
448,192,159391,1,0,0:0:0:0:
64,192,159391,1,0,0:0:0:0:
448,192,159691,1,0,0:0:0:0:
320,192,159691,1,0,0:0:0:0:
192,192,159841,1,8,0:0:0:0:
64,192,159841,1,0,0:0:0:0:
448,192,159841,1,0,0:0:0:0:
320,192,159991,1,0,0:0:0:0:
192,192,160141,1,0,0:0:0:0:
64,192,160141,1,0,0:0:0:0:
448,192,160291,1,0,0:0:0:0:
320,192,160291,1,0,0:0:0:0:
320,192,160441,1,0,0:0:0:0:
64,192,160441,1,8,0:0:0:0:
192,192,160441,1,0,0:0:0:0:
192,192,160591,1,4,0:0:0:0:
448,192,160591,1,0,0:0:0:0:
64,192,160591,1,0,0:0:0:0:
320,192,160591,1,0,0:0:0:0:
64,192,160891,1,0,0:0:0:0:
192,192,160891,1,0,0:0:0:0:
192,192,161041,1,8,0:0:0:0:
448,192,161041,1,0,0:0:0:0:
320,192,161041,1,0,0:0:0:0:
320,192,161191,1,0,0:0:0:0:
192,192,161341,1,0,0:0:0:0:
448,192,161341,1,0,0:0:0:0:
64,192,161491,1,0,0:0:0:0:
320,192,161491,1,0,0:0:0:0:
320,192,161641,1,0,0:0:0:0:
448,192,161641,1,8,0:0:0:0:
64,192,161641,1,0,0:0:0:0:
64,192,161791,1,0,0:0:0:0:
192,192,161791,1,4,0:0:0:0:
448,192,161791,1,0,0:0:0:0:
320,192,161791,1,0,0:0:0:0:
448,192,162091,1,0,0:0:0:0:
64,192,162091,1,0,0:0:0:0:
192,192,162241,1,0,0:0:0:0:
320,192,162241,1,8,0:0:0:0:
448,192,162241,1,0,0:0:0:0:
64,192,162391,1,0,0:0:0:0:
320,192,162541,1,0,0:0:0:0:
448,192,162541,1,0,0:0:0:0:
192,192,162691,1,0,0:0:0:0:
64,192,162691,1,0,0:0:0:0:
448,192,162841,1,0,0:0:0:0:
64,192,162841,1,8,0:0:0:0:
320,192,162841,1,0,0:0:0:0:
320,192,162991,1,0,0:0:0:0:
192,192,162991,1,4,0:0:0:0:
64,192,162991,1,0,0:0:0:0:
448,192,162991,1,0,0:0:0:0:
64,192,163291,1,0,0:0:0:0:
320,192,163291,1,0,0:0:0:0:
448,192,163441,1,0,0:0:0:0:
192,192,163441,1,8,0:0:0:0:
64,192,163441,1,0,0:0:0:0:
320,192,163591,1,0,0:0:0:0:
448,192,163741,1,0,0:0:0:0:
192,192,163741,1,0,0:0:0:0:
64,192,163891,1,0,0:0:0:0:
320,192,163891,1,0,0:0:0:0:
448,192,164041,1,8,0:0:0:0:
192,192,164041,1,0,0:0:0:0:
64,192,164041,1,0,0:0:0:0:
64,192,164191,1,0,0:0:0:0:
320,192,164191,1,4,0:0:0:0:
192,192,164191,1,0,0:0:0:0:
448,192,164191,1,0,0:0:0:0:
448,192,164491,1,0,0:0:0:0:
64,192,164491,1,0,0:0:0:0:
64,192,164641,1,0,0:0:0:0:
192,192,164641,1,8,0:0:0:0:
448,192,164641,1,0,0:0:0:0:
320,192,164791,1,0,0:0:0:0:
192,192,164941,1,0,0:0:0:0:
448,192,164941,1,0,0:0:0:0:
64,192,165091,1,0,0:0:0:0:
320,192,165091,1,0,0:0:0:0:
448,192,165241,1,8,0:0:0:0:
192,192,165241,1,0,0:0:0:0:
64,192,165241,1,0,0:0:0:0:
320,192,165391,1,4,0:0:0:0:
64,192,165391,1,0,0:0:0:0:
448,192,165391,1,0,0:0:0:0:
192,192,165391,1,0,0:0:0:0:
448,192,165691,1,0,0:0:0:0:
320,192,165691,1,0,0:0:0:0:
64,192,165841,1,0,0:0:0:0:
192,192,165841,1,8,0:0:0:0:
320,192,165916,1,8,0:0:0:0:
448,192,165916,1,0,0:0:0:0:
64,192,165991,1,0,0:0:0:0:
192,192,165991,1,8,0:0:0:0:
320,192,166066,1,8,0:0:0:0:
448,192,166066,1,0,0:0:0:0:
64,192,166141,1,0,0:0:0:0:
192,192,166141,1,8,3:0:0:0:
448,192,166216,1,0,0:0:0:0:
320,192,166216,1,8,3:0:0:0:
192,192,166291,1,8,3:0:0:0:
64,192,166291,1,0,0:0:0:0:
320,192,166366,1,8,3:0:0:0:
448,192,166366,1,0,0:0:0:0:
192,192,166441,1,8,3:0:0:0:
64,192,166441,1,0,0:0:0:0:
320,192,166591,1,4,0:0:0:0:
448,192,166591,1,0,0:0:0:0:
64,192,166591,1,0,0:0:0:0:
192,192,166591,1,0,0:0:0:0:
320,192,166891,1,0,0:0:0:0:
192,192,166891,1,0,0:0:0:0:
64,192,167041,1,0,0:0:0:0:
192,192,167041,1,8,0:0:0:0:
448,192,167041,1,4,2:0:0:0:
64,192,167191,1,0,0:0:0:0:
320,192,167191,1,0,0:0:0:0:
192,192,167266,1,0,0:0:0:0:
64,192,167341,1,4,2:0:0:0:
320,192,167341,1,8,0:0:0:0:
448,192,167341,1,0,0:0:0:0:
448,192,167491,1,0,0:0:0:0:
192,192,167491,1,0,0:0:0:0:
320,192,167566,1,0,0:0:0:0:
448,192,167641,1,4,2:0:0:0:
64,192,167641,1,0,0:0:0:0:
192,192,167641,1,8,0:0:0:0:
192,192,167791,1,0,0:0:0:0:
320,192,167791,1,0,0:0:0:0:
320,192,167941,1,4,2:0:0:0:
448,192,167941,1,8,0:0:0:0:
64,192,167941,1,0,0:0:0:0:
320,192,168091,1,0,0:0:0:0:
192,192,168091,1,0,0:0:0:0:
64,192,168241,1,4,2:0:0:0:
448,192,168241,1,0,0:0:0:0:
192,192,168241,1,8,0:0:0:0:
64,192,168391,1,0,0:0:0:0:
320,192,168391,1,0,0:0:0:0:
192,192,168466,1,0,0:0:0:0:
64,192,168541,1,4,2:0:0:0:
448,192,168541,1,0,0:0:0:0:
320,192,168541,1,8,0:0:0:0:
448,192,168691,1,0,0:0:0:0:
192,192,168691,1,0,0:0:0:0:
320,192,168766,1,0,0:0:0:0:
448,192,168841,1,4,2:0:0:0:
192,192,168841,1,8,0:0:0:0:
64,192,168841,1,0,0:0:0:0:
64,192,168991,1,0,0:0:0:0:
320,192,168991,1,0,0:0:0:0:
192,192,169066,1,0,0:0:0:0:
64,192,169141,1,4,2:0:0:0:
320,192,169141,1,8,0:0:0:0:
448,192,169141,1,0,0:0:0:0:
320,192,169291,1,0,0:0:0:0:
192,192,169291,1,0,0:0:0:0:
448,192,169441,1,4,2:0:0:0:
192,192,169441,1,8,0:0:0:0:
64,192,169441,1,0,0:0:0:0:
192,192,169591,1,0,0:0:0:0:
320,192,169591,1,0,0:0:0:0:
64,192,169741,1,4,2:0:0:0:
448,192,169741,1,0,0:0:0:0:
320,192,169741,1,8,0:0:0:0:
448,192,169891,1,0,0:0:0:0:
192,192,169891,1,0,0:0:0:0:
320,192,169966,1,0,0:0:0:0:
64,192,170041,1,4,2:0:0:0:
448,192,170041,1,0,0:0:0:0:
192,192,170041,1,8,0:0:0:0:
192,192,170191,1,8,0:0:0:0:
320,192,170191,1,4,2:0:0:0:
448,192,170191,1,0,0:0:0:0:
64,192,170191,1,0,0:0:0:0:
320,192,170491,1,0,0:0:0:0:
448,192,170491,1,0,0:0:0:0:
192,192,170641,1,8,0:0:0:0:
448,192,170641,1,0,0:0:0:0:
64,192,170641,1,0,0:0:0:0:
64,192,170791,1,0,0:0:0:0:
448,192,170941,1,0,0:0:0:0:
320,192,170941,1,8,0:0:0:0:
192,192,171016,1,8,0:0:0:0:
64,192,171016,1,0,0:0:0:0:
320,192,171091,1,0,0:0:0:0:
448,192,171091,1,0,0:0:0:0:
448,192,171241,1,0,0:0:0:0:
64,192,171241,1,8,0:0:0:0:
192,192,171241,1,0,0:0:0:0:
320,192,171391,1,0,0:0:0:0:
192,192,171391,1,4,0:0:0:0:
448,192,171391,1,0,0:0:0:0:
64,192,171391,1,0,0:0:0:0:
64,192,171691,1,0,0:0:0:0:
448,192,171691,1,0,0:0:0:0:
192,192,171841,1,8,0:0:0:0:
320,192,171841,1,0,0:0:0:0:
64,192,171841,1,0,0:0:0:0:
448,192,171991,1,0,0:0:0:0:
320,192,172141,1,0,0:0:0:0:
64,192,172141,1,0,0:0:0:0:
192,192,172291,1,0,0:0:0:0:
64,192,172291,1,0,0:0:0:0:
320,192,172441,1,8,0:0:0:0:
448,192,172441,1,0,0:0:0:0:
64,192,172441,1,0,0:0:0:0:
192,192,172591,1,4,0:0:0:0:
64,192,172591,1,0,0:0:0:0:
448,192,172591,1,0,0:0:0:0:
320,192,172591,1,0,0:0:0:0:
448,192,172891,1,0,0:0:0:0:
64,192,172891,1,0,0:0:0:0:
192,192,173041,1,0,0:0:0:0:
320,192,173041,1,8,0:0:0:0:
448,192,173041,1,0,0:0:0:0:
64,192,173191,1,0,0:0:0:0:
320,192,173341,1,0,0:0:0:0:
448,192,173341,1,0,0:0:0:0:
192,192,173491,1,0,0:0:0:0:
320,192,173491,1,0,0:0:0:0:
448,192,173641,1,0,0:0:0:0:
64,192,173641,1,8,0:0:0:0:
192,192,173641,1,0,0:0:0:0:
320,192,173791,1,4,0:0:0:0:
192,192,173791,1,0,0:0:0:0:
64,192,173791,1,0,0:0:0:0:
448,192,173791,1,0,0:0:0:0:
192,192,174091,1,0,0:0:0:0:
320,192,174091,1,0,0:0:0:0:
320,192,174241,1,8,0:0:0:0:
448,192,174241,1,0,0:0:0:0:
192,192,174316,1,8,0:0:0:0:
64,192,174316,1,0,0:0:0:0:
320,192,174391,1,8,3:0:0:0:
448,192,174391,1,0,0:0:0:0:
192,192,174466,1,8,3:0:0:0:
64,192,174466,1,0,0:0:0:0:
448,192,174541,1,0,0:0:0:0:
320,192,174541,1,8,0:0:0:0:
192,192,174616,1,8,0:0:0:0:
64,192,174616,1,0,0:0:0:0:
320,192,174691,1,8,3:0:0:0:
448,192,174691,1,0,0:0:0:0:
192,192,174766,1,8,3:0:0:0:
64,192,174766,1,0,0:0:0:0:
448,192,174841,1,0,0:0:0:0:
320,192,174841,1,8,3:0:0:0:
192,192,174916,1,8,3:0:0:0:
64,192,174916,1,0,0:0:0:0:
320,192,174991,1,0,0:0:0:0:
64,192,174991,1,0,0:0:0:0:
448,192,174991,128,4,176941:0:0:0:0:
320,192,175741,1,4,2:0:0:0:
64,192,175741,1,0,0:0:0:0:
192,192,176341,1,4,2:0:0:0:
320,192,176341,1,0,0:0:0:0:
192,192,176941,1,8,0:0:0:0:
64,192,176941,1,0,0:0:0:0:
320,192,177016,1,0,0:0:0:0:
448,192,177016,1,8,0:0:0:0:
64,192,177091,1,0,0:0:0:0:
192,192,177091,1,8,0:0:0:0:
320,192,177166,1,0,0:0:0:0:
448,192,177166,1,8,0:0:0:0:
64,192,177241,1,0,0:0:0:0:
192,192,177241,1,8,0:0:0:0:
448,192,177316,1,8,0:0:0:0:
320,192,177316,1,0,0:0:0:0:
64,192,177391,1,0,0:0:0:0:
192,192,177391,1,8,0:0:0:0:
448,192,177466,1,0,0:0:0:0:
320,192,177466,1,8,0:0:0:0:
64,192,177541,1,8,0:0:0:0:
192,192,177541,1,4,0:0:0:0:
448,192,177541,1,0,0:0:0:0:
320,192,177691,1,0,0:0:0:0:
448,192,177691,1,8,0:0:0:0:
192,192,177691,1,0,0:0:0:0:
448,192,177841,1,0,0:0:0:0:
64,192,177841,1,0,0:0:0:0:
320,192,177916,1,0,0:0:0:0:
192,192,177991,1,8,0:0:0:0:
64,192,177991,1,0,0:0:0:0:
448,192,177991,1,0,0:0:0:0:
320,192,178141,1,0,0:0:0:0:
192,192,178141,1,0,0:0:0:0:
320,192,178291,1,0,0:0:0:0:
64,192,178291,1,8,0:0:0:0:
448,192,178291,1,0,0:0:0:0:
448,192,178441,1,0,0:0:0:0:
192,192,178441,1,0,0:0:0:0:
320,192,178516,1,0,0:0:0:0:
192,192,178591,1,8,0:0:0:0:
64,192,178591,1,0,0:0:0:0:
448,192,178591,1,0,0:0:0:0:
320,192,178741,1,0,0:0:0:0:
192,192,178741,1,0,0:0:0:0:
64,192,178891,1,8,0:0:0:0:
448,192,178891,1,0,0:0:0:0:
320,192,178891,1,0,0:0:0:0:
320,192,179041,1,0,0:0:0:0:
192,192,179041,1,0,0:0:0:0:
64,192,179116,1,0,0:0:0:0:
320,192,179191,1,0,0:0:0:0:
448,192,179191,1,8,0:0:0:0:
192,192,179191,1,0,0:0:0:0:
192,192,179341,1,0,0:0:0:0:
64,192,179341,1,0,0:0:0:0:
64,192,179491,1,8,0:0:0:0:
320,192,179491,1,0,0:0:0:0:
448,192,179491,1,0,0:0:0:0:
64,192,179641,1,0,0:0:0:0:
320,192,179641,1,0,0:0:0:0:
192,192,179716,1,0,0:0:0:0:
320,192,179791,1,8,0:0:0:0:
448,192,179791,1,0,0:0:0:0:
64,192,179791,1,0,0:0:0:0:
192,192,179941,1,0,0:0:0:0:
320,192,179941,1,0,0:0:0:0:
64,192,180091,1,8,0:0:0:0:
192,192,180091,1,0,0:0:0:0:
448,192,180091,1,0,0:0:0:0:
448,192,180241,1,0,0:0:0:0:
320,192,180241,1,0,0:0:0:0:
64,192,180316,1,0,0:0:0:0:
192,192,180391,1,0,0:0:0:0:
320,192,180391,1,8,0:0:0:0:
448,192,180391,1,0,0:0:0:0:
192,192,180541,1,0,0:0:0:0:
64,192,180541,1,0,0:0:0:0:
320,192,180691,1,0,0:0:0:0:
64,192,180691,1,8,0:0:0:0:
448,192,180691,1,0,0:0:0:0:
64,192,180841,1,0,0:0:0:0:
320,192,180841,1,0,0:0:0:0:
192,192,180916,1,0,0:0:0:0:
448,192,180991,1,0,0:0:0:0:
320,192,180991,1,8,0:0:0:0:
64,192,180991,1,0,0:0:0:0:
192,192,181141,1,0,0:0:0:0:
320,192,181141,1,0,0:0:0:0:
192,192,181291,1,8,0:0:0:0:
448,192,181291,1,0,0:0:0:0:
64,192,181291,1,0,0:0:0:0:
64,192,181441,1,0,0:0:0:0:
320,192,181441,1,0,0:0:0:0:
192,192,181516,1,0,0:0:0:0:
320,192,181591,1,0,0:0:0:0:
64,192,181591,1,8,0:0:0:0:
448,192,181591,1,0,0:0:0:0:
320,192,181741,1,0,0:0:0:0:
192,192,181741,1,0,0:0:0:0:
64,192,181891,1,8,0:0:0:0:
192,192,181891,1,0,0:0:0:0:
448,192,181891,1,0,0:0:0:0:
448,192,182041,1,0,0:0:0:0:
64,192,182041,1,0,0:0:0:0:
320,192,182116,1,0,0:0:0:0:
192,192,182191,1,8,0:0:0:0:
448,192,182191,1,0,0:0:0:0:
64,192,182191,1,0,0:0:0:0:
320,192,182341,1,4,0:0:0:0:
448,192,182341,1,0,0:0:0:0:
64,192,182341,1,0,0:0:0:0:
448,192,182491,1,0,0:0:0:0:
192,192,182491,1,8,0:0:0:0:
64,192,182491,1,0,0:0:0:0:
64,192,182641,1,0,0:0:0:0:
448,192,182641,1,0,0:0:0:0:
192,192,182716,1,0,0:0:0:0:
64,192,182791,1,8,0:0:0:0:
448,192,182791,1,0,0:0:0:0:
320,192,182791,1,0,0:0:0:0:
320,192,182941,1,0,0:0:0:0:
192,192,182941,1,0,0:0:0:0:
192,192,183091,1,8,0:0:0:0:
64,192,183091,1,0,0:0:0:0:
448,192,183091,1,0,0:0:0:0:
448,192,183241,1,0,0:0:0:0:
192,192,183241,1,0,0:0:0:0:
320,192,183316,1,0,0:0:0:0:
64,192,183391,1,8,0:0:0:0:
448,192,183391,1,0,0:0:0:0:
192,192,183391,1,0,0:0:0:0:
448,192,183541,1,0,0:0:0:0:
320,192,183541,1,0,0:0:0:0:
64,192,183691,1,8,0:0:0:0:
320,192,183691,1,0,0:0:0:0:
192,192,183691,1,0,0:0:0:0:
192,192,183841,1,0,0:0:0:0:
448,192,183841,1,0,0:0:0:0:
64,192,183916,1,0,0:0:0:0:
320,192,183991,1,8,0:0:0:0:
448,192,183991,1,0,0:0:0:0:
192,192,183991,1,0,0:0:0:0:
192,192,184141,1,0,0:0:0:0:
64,192,184141,1,0,0:0:0:0:
320,192,184291,1,8,0:0:0:0:
448,192,184291,1,0,0:0:0:0:
64,192,184291,1,0,0:0:0:0:
192,192,184441,1,0,0:0:0:0:
64,192,184441,1,0,0:0:0:0:
320,192,184516,1,0,0:0:0:0:
448,192,184591,1,0,0:0:0:0:
64,192,184591,1,8,0:0:0:0:
192,192,184591,1,0,0:0:0:0:
320,192,184666,1,0,0:0:0:0:
448,192,184741,1,4,2:0:0:0:
64,192,184741,1,0,0:0:0:0:
192,192,184741,1,0,0:0:0:0:
448,192,185041,1,0,0:0:0:0:
320,192,185041,1,8,0:0:0:0:
64,192,185191,1,4,2:0:0:0:
192,192,185191,1,8,0:0:0:0:
448,192,185191,1,0,0:0:0:0:
320,192,185191,1,0,0:0:0:0:
448,192,185491,1,0,0:0:0:0:
64,192,185491,1,0,0:0:0:0:
320,192,185566,1,0,0:0:0:0:
192,192,185641,1,8,0:0:0:0:
64,192,185641,1,0,0:0:0:0:
320,192,185791,1,8,0:0:0:0:
448,192,185791,1,4,2:0:0:0:
64,192,185791,1,0,0:0:0:0:
192,192,185791,1,0,0:0:0:0:
192,192,186091,1,0,0:0:0:0:
320,192,186091,1,0,0:0:0:0:
320,192,186241,1,8,0:0:0:0:
448,192,186241,1,0,0:0:0:0:
64,192,186316,1,0,0:0:0:0:
192,192,186316,1,8,0:0:0:0:
448,192,186391,1,0,0:0:0:0:
320,192,186391,1,8,0:0:0:0:
64,192,186466,1,0,0:0:0:0:
192,192,186466,1,8,0:0:0:0:
320,192,186541,1,8,0:0:0:0:
448,192,186541,1,0,0:0:0:0:
64,192,186691,1,8,0:0:0:0:
448,192,186691,1,0,0:0:0:0:
192,192,186691,1,4,2:0:0:0:
320,192,186691,1,0,0:0:0:0:
