osu file format v14

[General]
AudioFilename: P (UtsuP) feat. Kagamine Rin - (Tokyo Teddy Bear) (Neru over).mp3
AudioLeadIn: 0
PreviewTime: 47805
Countdown: 0
SampleSet: Normal
StackLeniency: 0.7
Mode: 3
LetterboxInBreaks: 0
SpecialStyle: 0
WidescreenStoryboard: 1

[Editor]
DistanceSpacing: 0.6
BeatDivisor: 4
GridSize: 4
TimelineZoom: 1.8

[Metadata]
Title:Tokyo Teddy Bear
TitleUnicode:東京テディベア
Artist:Utsu-P feat.Kagamine Rin
ArtistUnicode:鬱P feat.鏡音リン
Creator:puxtu
Version:EZ
Source:
Tags:Vocaloid Neru Cover 鬱-P UtsuP 鏡音リン VOCALOUD SERIES 01 Breaking of the Emotion Mix TTB PXT
BeatmapID:736927
BeatmapSetID:318207

[Difficulty]
HPDrainRate:6
CircleSize:4
OverallDifficulty:6
ApproachRate:5
SliderMultiplier:1.4
SliderTickRate:1

[Events]
//Background and Video events
0,0,"BG.jpg",0,0
//Break Periods
//Storyboard Layer 0 (Background)
//Storyboard Layer 1 (Fail)
//Storyboard Layer 2 (Pass)
//Storyboard Layer 3 (Foreground)
//Storyboard Sound Samples

[TimingPoints]
705,300,4,1,1,40,1,0
48555,-100,4,1,1,40,0,1
67905,-100,4,1,1,40,0,0
106155,-100,4,1,1,40,0,1
124305,333.333333333333,4,1,1,40,1,1
124305,-90.0900900900901,4,1,1,40,0,1
124638,375,4,1,1,40,1,1
124638,-80,4,1,1,40,0,1
125013,428.571428571429,4,1,1,40,1,1
125013,-70.4225352112676,4,1,1,40,0,1
125441,500,4,1,1,40,1,1
125441,-60.2409638554217,4,1,1,40,0,1
125941,300,4,1,1,40,1,0
125941,-100,4,1,1,40,0,0
157441,-100,4,1,1,40,0,1
177541,-100,4,1,1,40,0,0

[HitObjects]
64,192,705,5,0,0:0:0:0:
448,192,1005,1,0,0:0:0:0:
320,192,1305,1,0,0:0:0:0:
64,192,1605,1,0,0:0:0:0:
448,192,1755,1,0,0:0:0:0:
192,192,2055,1,0,0:0:0:0:
320,192,2205,1,0,0:0:0:0:
448,192,2805,1,0,0:0:0:0:
64,192,3105,1,0,0:0:0:0:
320,192,3405,1,0,0:0:0:0:
192,192,3555,1,0,0:0:0:0:
64,192,3855,1,0,0:0:0:0:
192,192,4005,1,0,0:0:0:0:
320,192,4155,1,0,0:0:0:0:
448,192,5805,1,0,0:0:0:0:
320,192,5955,1,0,0:0:0:0:
64,192,6105,1,0,0:0:0:0:
448,192,6405,1,0,0:0:0:0:
320,192,6555,1,0,0:0:0:0:
192,192,6855,1,0,0:0:0:0:
448,192,7005,1,0,0:0:0:0:
64,192,7605,1,0,0:0:0:0:
320,192,7905,1,0,0:0:0:0:
448,192,8205,1,0,0:0:0:0:
192,192,8355,1,0,0:0:0:0:
320,192,8655,1,0,0:0:0:0:
192,192,8805,1,0,0:0:0:0:
448,192,8955,1,0,0:0:0:0:
320,192,10305,1,0,0:0:0:0:
448,192,10605,1,0,0:0:0:0:
64,192,10905,1,0,0:0:0:0:
192,192,11205,1,0,0:0:0:0:
448,192,11505,1,0,0:0:0:0:
320,192,11805,1,0,0:0:0:0:
64,192,12105,1,0,0:0:0:0:
192,192,12405,1,0,0:0:0:0:
448,192,12705,1,0,0:0:0:0:
192,192,13005,1,0,0:0:0:0:
64,192,13305,1,0,0:0:0:0:
320,192,13605,1,0,0:0:0:0:
192,192,13905,1,0,0:0:0:0:
448,192,14205,1,0,0:0:0:0:
320,192,14505,1,0,0:0:0:0:
192,192,14805,1,0,0:0:0:0:
448,192,15105,1,0,0:0:0:0:
64,192,15405,1,0,0:0:0:0:
320,192,15705,1,0,0:0:0:0:
64,192,16005,1,0,0:0:0:0:
192,192,16305,1,0,0:0:0:0:
448,192,16605,1,0,0:0:0:0:
64,192,16905,1,0,0:0:0:0:
320,192,17205,1,0,0:0:0:0:
64,192,17505,1,8,0:0:0:0:
448,192,17505,1,4,0:0:0:0:
320,192,17805,1,8,0:0:0:0:
64,192,17955,1,4,0:0:0:0:
192,192,18255,1,8,0:0:0:0:
320,192,18405,1,8,0:0:0:0:
64,192,18555,1,4,0:0:0:0:
448,192,18555,1,8,0:0:0:0:
192,192,18855,1,0,0:0:0:0:
448,192,19005,128,8,19305:0:0:0:0:
320,192,19305,1,8,0:0:0:0:
64,192,19455,1,8,0:0:0:0:
192,192,19605,128,0,19905:0:0:0:0:
320,192,19905,1,4,0:0:0:0:
448,192,19905,1,8,0:0:0:0:
192,192,20205,1,8,0:0:0:0:
320,192,20505,1,8,0:0:0:0:
64,192,20805,1,8,0:0:0:0:
448,192,21105,1,8,0:0:0:0:
192,192,21405,1,8,0:0:0:0:
64,192,21705,1,8,0:0:0:0:
448,192,22005,1,8,0:0:0:0:
192,192,22305,1,8,0:0:0:0:
448,192,22605,1,8,0:0:0:0:
64,192,22905,1,8,0:0:0:0:
448,192,23205,1,8,0:0:0:0:
192,192,23505,1,8,0:0:0:0:
320,192,23805,1,8,0:0:0:0:
64,192,24105,1,8,0:0:0:0:
320,192,24405,1,8,0:0:0:0:
64,192,24705,1,8,0:0:0:0:
448,192,24705,1,4,0:0:0:0:
192,192,25005,1,8,0:0:0:0:
64,192,25305,1,8,0:0:0:0:
448,192,25605,1,8,0:0:0:0:
320,192,25905,1,8,0:0:0:0:
192,192,26205,1,8,0:0:0:0:
64,192,26505,1,8,0:0:0:0:
448,192,26805,1,8,0:0:0:0:
192,192,27105,1,8,0:0:0:0:
448,192,27405,1,8,0:0:0:0:
64,192,27705,1,8,0:0:0:0:
320,192,28005,1,8,0:0:0:0:
448,192,28305,1,8,0:0:0:0:
64,192,28305,1,4,0:0:0:0:
320,192,28605,128,8,28905:0:0:0:0:
64,192,28905,1,8,0:0:0:0:
192,192,29205,128,8,29505:0:0:0:0:
64,192,29505,1,0,0:0:0:0:
448,192,29505,1,4,0:0:0:0:
320,192,29655,1,8,0:0:0:0:
64,192,29955,1,8,0:0:0:0:
192,192,30255,1,8,0:0:0:0:
448,192,30555,1,8,0:0:0:0:
192,192,30855,1,8,0:0:0:0:
64,192,31155,1,8,0:0:0:0:
320,192,31455,1,8,0:0:0:0:
64,192,31755,1,8,0:0:0:0:
192,192,32055,1,8,0:0:0:0:
448,192,32355,1,8,0:0:0:0:
320,192,32655,1,8,0:0:0:0:
192,192,32955,1,8,0:0:0:0:
448,192,33255,1,8,0:0:0:0:
64,192,33555,1,8,0:0:0:0:
320,192,33855,1,8,0:0:0:0:
192,192,34155,1,8,0:0:0:0:
64,192,34305,1,4,0:0:0:0:
448,192,34305,1,0,0:0:0:0:
320,192,34455,1,8,0:0:0:0:
192,192,34755,1,8,0:0:0:0:
448,192,35055,1,8,0:0:0:0:
320,192,35355,1,8,0:0:0:0:
64,192,35655,1,8,0:0:0:0:
448,192,35955,1,8,0:0:0:0:
320,192,36255,1,8,0:0:0:0:
192,192,36555,1,8,0:0:0:0:
448,192,36705,1,4,2:0:0:0:
64,192,36705,1,0,0:0:0:0:
192,192,37005,1,8,0:0:0:0:
448,192,37155,1,4,2:0:0:0:
64,192,37155,1,0,0:0:0:0:
192,192,37455,1,0,0:0:0:0:
320,192,37605,1,8,0:0:0:0:
64,192,37755,1,4,2:0:0:0:
448,192,37755,1,0,0:0:0:0:
320,192,38205,128,0,38505:0:0:0:0:
64,192,38505,1,0,0:0:0:0:
448,192,38655,1,8,0:0:0:0:
192,192,38955,1,4,0:0:0:0:
320,192,38955,1,0,0:0:0:0:
64,192,39255,128,0,39705:0:0:0:0:
448,192,39705,1,8,0:0:0:0:
192,192,39855,1,0,0:0:0:0:
320,192,40005,1,0,0:0:0:0:
64,192,40155,1,4,0:0:0:0:
448,192,40455,128,0,40905:0:0:0:0:
64,192,40905,1,8,0:0:0:0:
320,192,41055,1,0,0:0:0:0:
192,192,41205,1,0,0:0:0:0:
448,192,41355,1,4,0:0:0:0:
320,192,41655,128,0,42105:0:0:0:0:
192,192,42105,1,8,0:0:0:0:
448,192,42255,1,0,0:0:0:0:
64,192,42405,1,0,0:0:0:0:
448,192,42555,1,4,0:0:0:0:
192,192,42855,128,0,43305:0:0:0:0:
320,192,43305,1,8,0:0:0:0:
64,192,43455,1,0,0:0:0:0:
448,192,43605,1,0,0:0:0:0:
192,192,43755,1,4,0:0:0:0:
64,192,44055,128,0,44505:0:0:0:0:
448,192,44505,1,8,0:0:0:0:
192,192,44655,1,0,0:0:0:0:
320,192,44805,1,0,0:0:0:0:
64,192,44955,1,4,0:0:0:0:
320,192,45255,128,0,45705:0:0:0:0:
64,192,45705,1,8,0:0:0:0:
448,192,45855,1,0,0:0:0:0:
320,192,46005,1,0,0:0:0:0:
64,192,46155,1,4,0:0:0:0:
320,192,46455,128,0,46905:0:0:0:0:
64,192,46905,1,8,0:0:0:0:
448,192,47055,1,0,0:0:0:0:
64,192,47205,1,8,0:0:0:0:
320,192,47355,1,4,0:0:0:0:
64,192,47805,128,0,48555:0:0:0:0:
192,192,47805,1,0,0:0:0:0:
448,192,48105,1,0,0:0:0:0:
320,192,48405,1,0,0:0:0:0:
448,192,48555,1,0,0:0:0:0:
192,192,48555,1,4,0:0:0:0:
448,192,49005,1,8,0:0:0:0:
320,192,49305,1,0,0:0:0:0:
64,192,49455,1,0,0:0:0:0:
192,192,49755,1,4,0:0:0:0:
64,192,50205,1,8,0:0:0:0:
192,192,50505,1,0,0:0:0:0:
320,192,50655,1,0,0:0:0:0:
448,192,50955,1,4,0:0:0:0:
64,192,51405,1,8,0:0:0:0:
192,192,51705,1,0,0:0:0:0:
448,192,51855,1,0,0:0:0:0:
320,192,52155,1,4,0:0:0:0:
64,192,52605,1,8,0:0:0:0:
448,192,52905,1,0,0:0:0:0:
192,192,53055,1,0,0:0:0:0:
64,192,53355,1,4,0:0:0:0:
320,192,53805,1,8,0:0:0:0:
448,192,54105,1,0,0:0:0:0:
192,192,54255,1,0,0:0:0:0:
64,192,54555,1,4,0:0:0:0:
448,192,55005,1,8,0:0:0:0:
64,192,55305,1,0,0:0:0:0:
192,192,55455,1,0,0:0:0:0:
448,192,55755,1,4,0:0:0:0:
320,192,56205,1,8,0:0:0:0:
64,192,56505,1,0,0:0:0:0:
192,192,56805,1,8,0:0:0:0:
320,192,56955,1,4,0:0:0:0:
64,192,57405,1,8,0:0:0:0:
320,192,57555,1,0,0:0:0:0:
64,192,57705,1,8,0:0:0:0:
320,192,57855,1,0,0:0:0:0:
192,192,58005,1,8,0:0:0:0:
448,192,58155,1,4,0:0:0:0:
64,192,58605,1,8,0:0:0:0:
192,192,58905,1,0,0:0:0:0:
320,192,59055,1,0,0:0:0:0:
448,192,59205,1,0,0:0:0:0:
64,192,59355,1,4,0:0:0:0:
448,192,59805,1,8,0:0:0:0:
320,192,60105,1,0,0:0:0:0:
192,192,60255,1,0,0:0:0:0:
64,192,60555,1,4,0:0:0:0:
448,192,61005,1,8,0:0:0:0:
320,192,61305,1,0,0:0:0:0:
64,192,61455,1,0,0:0:0:0:
192,192,61755,1,4,0:0:0:0:
320,192,62205,1,8,0:0:0:0:
192,192,62505,1,0,0:0:0:0:
320,192,62655,1,0,0:0:0:0:
64,192,62955,1,4,0:0:0:0:
448,192,63405,1,8,0:0:0:0:
320,192,63705,1,0,0:0:0:0:
64,192,63855,1,0,0:0:0:0:
320,192,64155,1,4,0:0:0:0:
64,192,64605,1,8,0:0:0:0:
320,192,64905,1,0,0:0:0:0:
448,192,65205,1,8,0:0:0:0:
192,192,65355,1,4,0:0:0:0:
320,192,65655,1,0,0:0:0:0:
64,192,65805,1,8,0:0:0:0:
448,192,66105,1,0,0:0:0:0:
192,192,66255,1,0,0:0:0:0:
320,192,66405,1,8,0:0:0:0:
64,192,66555,1,4,0:0:0:0:
320,192,67005,1,0,0:0:0:0:
64,192,67005,1,8,0:0:0:0:
448,192,67305,1,8,0:0:0:0:
192,192,67305,1,0,0:0:0:0:
320,192,67605,128,0,67905:0:0:0:0:
448,192,67905,1,4,0:0:0:0:
64,192,67905,1,8,0:0:0:0:
192,192,68205,1,8,0:0:0:0:
320,192,68505,1,8,0:0:0:0:
448,192,68805,1,8,0:0:0:0:
192,192,69105,1,8,0:0:0:0:
64,192,69405,1,8,0:0:0:0:
320,192,69705,1,8,0:0:0:0:
448,192,70005,1,8,0:0:0:0:
64,192,70305,1,8,0:0:0:0:
448,192,70605,1,8,0:0:0:0:
320,192,70905,1,8,0:0:0:0:
64,192,71205,1,8,0:0:0:0:
448,192,71505,1,8,0:0:0:0:
320,192,71805,1,8,0:0:0:0:
192,192,72105,1,8,0:0:0:0:
320,192,72405,1,8,0:0:0:0:
448,192,72705,1,8,0:0:0:0:
64,192,72705,1,4,0:0:0:0:
192,192,73005,1,8,0:0:0:0:
448,192,73305,1,8,0:0:0:0:
64,192,73605,1,8,0:0:0:0:
320,192,73905,1,8,0:0:0:0:
64,192,74205,1,8,0:0:0:0:
192,192,74505,1,8,0:0:0:0:
448,192,74805,1,8,0:0:0:0:
192,192,75105,1,8,0:0:0:0:
64,192,75405,1,8,0:0:0:0:
448,192,75705,1,8,0:0:0:0:
320,192,76005,1,8,0:0:0:0:
64,192,76305,1,8,0:0:0:0:
448,192,76305,1,4,0:0:0:0:
192,192,76605,1,8,0:0:0:0:
320,192,76905,1,8,0:0:0:0:
64,192,77055,1,8,0:0:0:0:
448,192,77205,1,8,0:0:0:0:
192,192,77355,1,8,0:0:0:0:
448,192,77805,1,2,2:0:0:0:
320,192,79005,1,2,2:0:0:0:
64,192,80205,1,2,2:0:0:0:
192,192,81405,1,2,2:0:0:0:
192,192,82005,1,2,2:0:0:0:
320,192,82605,1,2,2:0:0:0:
64,192,83805,1,2,2:0:0:0:
320,192,85005,1,2,2:0:0:0:
192,192,86505,1,8,0:0:0:0:
448,192,86655,128,0,86955:0:0:0:0:
64,192,86955,1,4,0:0:0:0:
320,192,86955,1,0,0:0:0:0:
192,192,87405,1,8,0:0:0:0:
320,192,87705,1,8,0:0:0:0:
64,192,88005,1,8,0:0:0:0:
448,192,88305,1,8,0:0:0:0:
192,192,88605,1,8,0:0:0:0:
64,192,88905,1,8,0:0:0:0:
320,192,89205,1,8,0:0:0:0:
64,192,89355,1,0,0:0:0:0:
448,192,89355,1,4,0:0:0:0:
320,192,89805,1,8,0:0:0:0:
64,192,90105,1,8,0:0:0:0:
448,192,90405,1,8,0:0:0:0:
192,192,90705,1,8,0:0:0:0:
448,192,91005,1,8,0:0:0:0:
320,192,91305,1,8,0:0:0:0:
192,192,91305,1,4,0:0:0:0:
64,192,91755,1,4,0:0:0:0:
448,192,91755,1,0,0:0:0:0:
64,192,92205,1,8,0:0:0:0:
320,192,92505,1,8,0:0:0:0:
192,192,92805,1,8,0:0:0:0:
448,192,93105,1,8,0:0:0:0:
64,192,93405,1,8,0:0:0:0:
320,192,93705,1,8,0:0:0:0:
64,192,94005,1,8,0:0:0:0:
448,192,94155,1,0,0:0:0:0:
320,192,94155,1,4,0:0:0:0:
64,192,94605,1,8,0:0:0:0:
448,192,94905,1,8,0:0:0:0:
64,192,95205,1,8,0:0:0:0:
320,192,95505,1,8,0:0:0:0:
192,192,95805,1,8,0:0:0:0:
64,192,96105,1,8,0:0:0:0:
448,192,96255,1,8,0:0:0:0:
320,192,96555,1,4,0:0:0:0:
192,192,96555,1,0,0:0:0:0:
64,192,96855,128,0,97305:0:0:0:0:
320,192,97305,1,8,0:0:0:0:
192,192,97455,1,0,0:0:0:0:
320,192,97605,1,0,0:0:0:0:
64,192,97755,1,4,0:0:0:0:
320,192,98055,128,0,98505:0:0:0:0:
192,192,98505,1,8,0:0:0:0:
448,192,98655,1,0,0:0:0:0:
64,192,98805,1,0,0:0:0:0:
320,192,98955,1,4,0:0:0:0:
192,192,99255,128,0,99705:0:0:0:0:
320,192,99705,1,8,0:0:0:0:
64,192,99855,1,0,0:0:0:0:
448,192,100005,1,0,0:0:0:0:
320,192,100155,1,4,0:0:0:0:
64,192,100455,128,0,100905:0:0:0:0:
448,192,100905,1,8,0:0:0:0:
192,192,101055,1,0,0:0:0:0:
320,192,101205,1,0,0:0:0:0:
64,192,101355,1,4,0:0:0:0:
448,192,101655,128,0,102105:0:0:0:0:
192,192,102105,1,8,0:0:0:0:
320,192,102255,1,0,0:0:0:0:
64,192,102405,1,0,0:0:0:0:
448,192,102555,1,4,0:0:0:0:
192,192,102855,128,0,103305:0:0:0:0:
64,192,103305,1,8,0:0:0:0:
320,192,103455,1,0,0:0:0:0:
192,192,103605,1,0,0:0:0:0:
448,192,103755,1,4,0:0:0:0:
192,192,104055,128,0,104505:0:0:0:0:
320,192,104505,1,8,0:0:0:0:
64,192,104655,1,0,0:0:0:0:
320,192,104805,1,8,0:0:0:0:
64,192,104955,1,4,0:0:0:0:
320,192,105405,1,4,2:0:0:0:
320,192,105705,1,4,2:0:0:0:
320,192,106005,1,0,0:0:0:0:
448,192,106155,1,4,0:0:0:0:
64,192,106155,1,8,0:0:0:0:
448,192,106605,1,8,0:0:0:0:
64,192,106905,1,0,0:0:0:0:
320,192,107055,1,0,0:0:0:0:
64,192,107355,1,4,0:0:0:0:
448,192,107805,1,8,0:0:0:0:
320,192,108105,1,0,0:0:0:0:
64,192,108255,1,0,0:0:0:0:
448,192,108555,1,4,0:0:0:0:
192,192,109005,1,8,0:0:0:0:
448,192,109305,1,0,0:0:0:0:
64,192,109455,1,0,0:0:0:0:
320,192,109755,1,4,0:0:0:0:
320,192,110205,1,8,0:0:0:0:
192,192,110505,1,0,0:0:0:0:
448,192,110655,1,0,0:0:0:0:
64,192,110955,1,4,0:0:0:0:
448,192,111405,1,8,0:0:0:0:
64,192,111705,1,0,0:0:0:0:
320,192,111855,1,0,0:0:0:0:
64,192,112155,1,4,0:0:0:0:
448,192,112605,1,8,0:0:0:0:
64,192,112905,1,0,0:0:0:0:
448,192,113055,1,0,0:0:0:0:
64,192,113355,1,4,0:0:0:0:
320,192,113805,1,8,0:0:0:0:
64,192,114105,128,0,114555:0:0:0:0:
448,192,114555,1,4,0:0:0:0:
320,192,115005,128,0,115605:0:0:0:0:
64,192,115305,1,0,0:0:0:0:
192,192,115605,1,0,0:0:0:0:
448,192,115755,1,4,0:0:0:0:
320,192,116205,1,8,0:0:0:0:
64,192,116505,1,0,0:0:0:0:
448,192,116655,1,0,0:0:0:0:
64,192,116805,1,0,0:0:0:0:
320,192,116955,1,4,0:0:0:0:
448,192,117405,1,8,0:0:0:0:
192,192,117705,1,0,0:0:0:0:
320,192,117855,1,0,0:0:0:0:
64,192,118155,1,4,0:0:0:0:
448,192,118605,1,8,0:0:0:0:
64,192,118905,1,0,0:0:0:0:
320,192,119055,1,0,0:0:0:0:
64,192,119355,1,4,0:0:0:0:
448,192,119805,1,8,0:0:0:0:
64,192,120105,1,0,0:0:0:0:
448,192,120255,1,0,0:0:0:0:
192,192,120555,1,4,0:0:0:0:
320,192,121005,1,8,0:0:0:0:
448,192,121305,1,0,0:0:0:0:
64,192,121455,1,0,0:0:0:0:
320,192,121755,1,4,0:0:0:0:
192,192,122205,1,8,0:0:0:0:
448,192,122505,1,0,0:0:0:0:
192,192,122655,1,0,0:0:0:0:
64,192,122955,1,4,0:0:0:0:
448,192,123255,1,0,0:0:0:0:
192,192,123405,1,8,0:0:0:0:
64,192,123705,1,0,0:0:0:0:
448,192,123855,1,0,0:0:0:0:
320,192,124005,1,0,0:0:0:0:
192,192,124155,1,4,0:0:0:0:
64,192,124155,1,0,0:0:0:0:
448,192,124638,128,4,125013:2:0:0:0:
64,192,125013,128,4,125441:2:0:0:0:
320,192,125441,128,4,125941:2:0:0:0:
192,192,125941,1,4,2:0:0:0:
320,192,127441,1,0,2:0:0:0:
192,192,128041,1,0,2:0:0:0:
448,192,128641,1,0,2:0:0:0:
64,192,129241,1,0,2:0:0:0:
320,192,129841,1,0,2:0:0:0:
448,192,130441,1,0,2:0:0:0:
192,192,131041,1,0,2:0:0:0:
320,192,131791,1,8,0:0:0:0:
64,192,131791,1,4,2:0:0:0:
192,192,132091,1,8,0:0:0:0:
448,192,132091,1,4,2:0:0:0:
192,192,132991,1,4,2:0:0:0:
64,192,132991,1,8,0:0:0:0:
448,192,133291,1,4,2:0:0:0:
320,192,133291,1,8,0:0:0:0:
448,192,134191,1,4,2:0:0:0:
320,192,134191,1,8,0:0:0:0:
64,192,134491,1,8,0:0:0:0:
192,192,134491,1,4,2:0:0:0:
64,192,135391,1,8,0:0:0:0:
448,192,135391,1,4,0:0:0:0:
320,192,137341,1,8,0:0:0:0:
192,192,137491,1,8,0:0:0:0:
64,192,137641,1,8,0:0:0:0:
448,192,137791,1,4,2:0:0:0:
320,192,137791,1,0,0:0:0:0:
64,192,138241,1,8,0:0:0:0:
448,192,138541,1,0,0:0:0:0:
320,192,138691,1,0,0:0:0:0:
64,192,138841,1,8,0:0:0:0:
192,192,138991,1,4,2:0:0:0:
192,192,139441,1,8,0:0:0:0:
448,192,139741,1,0,0:0:0:0:
192,192,139891,1,0,0:0:0:0:
64,192,140041,1,8,0:0:0:0:
320,192,140191,1,4,2:0:0:0:
448,192,140641,1,4,2:0:0:0:
64,192,140941,1,0,0:0:0:0:
448,192,141091,1,0,0:0:0:0:
320,192,141241,1,8,0:0:0:0:
192,192,141391,1,4,2:0:0:0:
64,192,141841,1,4,2:0:0:0:
320,192,142141,1,8,0:0:0:0:
448,192,142291,1,8,0:0:0:0:
64,192,142441,1,8,0:0:0:0:
192,192,142591,1,4,2:0:0:0:
448,192,143041,1,4,2:0:0:0:
64,192,143341,1,0,0:0:0:0:
448,192,143491,1,0,0:0:0:0:
64,192,143641,1,8,0:0:0:0:
320,192,143791,1,4,2:0:0:0:
320,192,144241,1,4,2:0:0:0:
64,192,144541,1,0,0:0:0:0:
320,192,144691,1,0,0:0:0:0:
192,192,144841,1,8,0:0:0:0:
320,192,144991,1,4,2:0:0:0:
192,192,145441,1,4,2:0:0:0:
448,192,145741,1,0,0:0:0:0:
64,192,145891,1,0,0:0:0:0:
192,192,146041,1,8,0:0:0:0:
320,192,146191,1,4,2:0:0:0:
448,192,146641,1,4,2:0:0:0:
320,192,146941,1,8,0:0:0:0:
192,192,147091,1,8,0:0:0:0:
320,192,147241,1,8,0:0:0:0:
64,192,147391,1,4,2:0:0:0:
448,192,147391,1,0,0:0:0:0:
320,192,147841,1,4,2:0:0:0:
192,192,148141,1,8,0:0:0:0:
448,192,148291,1,0,0:0:0:0:
64,192,148441,1,0,0:0:0:0:
320,192,148591,1,4,2:0:0:0:
192,192,149041,1,4,2:0:0:0:
64,192,149341,1,8,0:0:0:0:
320,192,149491,1,0,0:0:0:0:
64,192,149641,1,0,0:0:0:0:
448,192,149791,1,4,2:0:0:0:
192,192,150241,1,4,2:0:0:0:
192,192,150541,1,8,0:0:0:0:
448,192,150691,1,0,0:0:0:0:
64,192,150841,1,0,0:0:0:0:
320,192,150991,1,4,2:0:0:0:
448,192,151441,1,4,2:0:0:0:
64,192,151741,1,8,0:0:0:0:
320,192,151891,1,8,0:0:0:0:
192,192,152041,1,8,0:0:0:0:
64,192,152191,1,4,2:0:0:0:
320,192,152641,1,4,2:0:0:0:
64,192,152941,1,8,0:0:0:0:
448,192,153091,1,0,0:0:0:0:
192,192,153241,1,0,0:0:0:0:
64,192,153391,1,4,2:0:0:0:
192,192,153841,1,4,2:0:0:0:
64,192,154141,1,8,0:0:0:0:
448,192,154291,1,0,0:0:0:0:
192,192,154441,1,0,0:0:0:0:
448,192,154591,1,4,2:0:0:0:
448,192,155041,1,4,2:0:0:0:
64,192,155341,1,8,0:0:0:0:
448,192,155491,1,0,0:0:0:0:
192,192,155641,1,0,0:0:0:0:
448,192,155791,1,4,0:0:0:0:
192,192,156241,1,8,0:0:0:0:
64,192,156541,1,4,3:0:0:0:
448,192,156766,1,4,3:0:0:0:
320,192,156991,1,4,3:0:0:0:
64,192,157441,1,4,0:0:0:0:
448,192,157441,1,8,0:0:0:0:
320,192,157741,1,8,0:0:0:0:
192,192,157891,1,0,0:0:0:0:
64,192,158191,1,4,0:0:0:0:
192,192,158641,1,8,0:0:0:0:
448,192,158941,1,8,0:0:0:0:
64,192,159091,1,0,0:0:0:0:
320,192,159391,1,4,0:0:0:0:
448,192,159841,1,8,0:0:0:0:
320,192,160141,1,0,0:0:0:0:
64,192,160291,1,0,0:0:0:0:
448,192,160591,1,4,0:0:0:0:
64,192,161041,1,8,0:0:0:0:
320,192,161341,1,0,0:0:0:0:
448,192,161491,1,0,0:0:0:0:
64,192,161641,1,8,0:0:0:0:
320,192,161791,1,4,0:0:0:0:
64,192,162241,1,8,0:0:0:0:
448,192,162541,1,0,0:0:0:0:
320,192,162691,1,0,0:0:0:0:
64,192,162841,1,0,0:0:0:0:
192,192,162991,1,4,0:0:0:0:
320,192,163441,1,8,0:0:0:0:
64,192,163741,1,0,0:0:0:0:
448,192,163891,1,0,0:0:0:0:
192,192,164191,1,4,0:0:0:0:
64,192,164641,1,8,0:0:0:0:
320,192,164941,1,0,0:0:0:0:
64,192,165241,1,8,0:0:0:0:
448,192,165391,1,4,0:0:0:0:
448,192,165841,1,8,0:0:0:0:
64,192,165841,1,0,0:0:0:0:
192,192,166141,1,0,0:0:0:0:
320,192,166291,1,0,0:0:0:0:
448,192,166591,1,8,0:0:0:0:
64,192,166591,1,4,0:0:0:0:
192,192,167041,1,4,2:0:0:0:
320,192,167341,1,4,2:0:0:0:
192,192,167641,1,4,2:0:0:0:
64,192,167941,1,4,2:0:0:0:
320,192,168241,1,4,2:0:0:0:
448,192,168541,1,4,2:0:0:0:
192,192,168841,1,4,2:0:0:0:
320,192,169141,1,4,2:0:0:0:
64,192,169441,1,4,2:0:0:0:
192,192,169741,1,4,2:0:0:0:
448,192,170041,1,4,2:0:0:0:
64,192,170191,1,4,2:0:0:0:
320,192,170641,1,8,0:0:0:0:
64,192,170941,1,8,0:0:0:0:
192,192,171091,1,0,0:0:0:0:
448,192,171391,1,4,0:0:0:0:
320,192,171841,1,8,0:0:0:0:
192,192,172141,1,0,0:0:0:0:
448,192,172291,1,0,0:0:0:0:
64,192,172591,1,4,0:0:0:0:
320,192,173041,1,8,0:0:0:0:
64,192,173341,1,0,0:0:0:0:
448,192,173641,1,0,0:0:0:0:
192,192,173791,1,4,0:0:0:0:
448,192,174091,1,0,0:0:0:0:
64,192,174241,1,8,0:0:0:0:
192,192,174541,1,8,0:0:0:0:
320,192,174841,1,0,0:0:0:0:
448,192,174991,1,4,0:0:0:0:
64,192,174991,128,0,176941:0:0:0:0:
192,192,175741,1,4,2:0:0:0:
320,192,176341,1,4,2:0:0:0:
448,192,176941,128,8,177541:0:0:0:0:
320,192,176941,1,0,0:0:0:0:
192,192,177541,1,4,0:0:0:0:
320,192,177691,1,8,0:0:0:0:
64,192,177991,1,8,0:0:0:0:
448,192,178291,1,8,0:0:0:0:
320,192,178591,1,8,0:0:0:0:
192,192,178891,1,8,0:0:0:0:
64,192,179191,1,8,0:0:0:0:
448,192,179491,1,8,0:0:0:0:
192,192,179791,1,8,0:0:0:0:
64,192,180091,1,8,0:0:0:0:
192,192,180391,1,8,0:0:0:0:
448,192,180691,1,8,0:0:0:0:
192,192,180991,1,8,0:0:0:0:
320,192,181291,1,8,0:0:0:0:
64,192,181591,1,8,0:0:0:0:
320,192,181891,1,8,0:0:0:0:
448,192,182191,1,8,0:0:0:0:
64,192,182491,1,8,0:0:0:0:
192,192,182791,1,8,0:0:0:0:
320,192,183091,1,8,0:0:0:0:
192,192,183391,1,8,0:0:0:0:
448,192,183691,1,8,0:0:0:0:
64,192,183991,1,8,0:0:0:0:
448,192,184291,1,8,0:0:0:0:
320,192,184591,1,8,0:0:0:0:
192,192,184741,1,4,2:0:0:0:
192,192,185041,1,8,0:0:0:0:
320,192,185191,1,8,0:0:0:0:
64,192,185491,1,0,0:0:0:0:
448,192,185641,1,8,0:0:0:0:
192,192,185791,1,4,2:0:0:0:
448,192,186241,128,0,186691:0:0:0:0:
64,192,186541,128,8,186691:0:0:0:0:
320,192,186691,1,12,0:0:0:0:
