osu file format v14

[General]
AudioFilename: 06 TRAUMATIC (feat. Hatsune Miku).MP3
AudioLeadIn: 0
PreviewTime: 7968
Countdown: 0
SampleSet: None
StackLeniency: 0.4
Mode: 0
LetterboxInBreaks: 0
WidescreenStoryboard: 0

[Editor]
Bookmarks: 4000,8000,12000,14000,16000,20000,24000,26000,28000,32000,33500
DistanceSpacing: 2
BeatDivisor: 8
GridSize: 4
TimelineZoom: 1.4

[Metadata]
Title:TRAUMATIC
TitleUnicode:TRAUMATIC
Artist:Utsu-P
ArtistUnicode:鬱P
Creator:Cryptic
Version:EXTRA
Source:
Tags:MY SONG IS SHIT Post-Traumatic Stress Disorder P.T.S.D. PxTxSxD Reissue metalcore hatsune miku 初音ミク rock vocaloid Exote Anxient Sharkie UtsuP
BeatmapID:1161447
BeatmapSetID:499478

[Difficulty]
HPDrainRate:5
CircleSize:2
OverallDifficulty:8
ApproachRate:9.4
SliderMultiplier:2
SliderTickRate:2

[Events]
//Background and Video events
0,0,"wicked_soul___hatsune_miku_by_getsurin-d6prv3j.png",0,0
//Break Periods
//Storyboard Layer 0 (Background)
//Storyboard Layer 1 (Fail)
//Storyboard Layer 2 (Pass)
//Storyboard Layer 3 (Foreground)
//Storyboard Sound Samples

[TimingPoints]
1000,250,4,3,3,20,1,0
3875,-100,4,3,3,5,0,0
4000,-100,4,3,3,20,0,0
8000,-66.6666666666667,4,3,2,60,0,0
14000,-57.1428571428571,4,3,2,60,0,0
16625,-57.1428571428571,4,3,3,60,0,0
19750,-57.1428571428571,4,3,2,60,0,0
19937,-57.1428571428571,4,3,2,5,0,0
20000,-66.6666666666667,4,3,2,60,0,0
26000,-57.1428571428571,4,3,2,60,0,0
28000,-53.1914893617021,4,3,2,60,0,0
32000,-50,4,3,3,60,0,1
32062,-50,4,3,3,5,0,1
32250,-50,4,3,3,60,0,1
32312,-50,4,3,3,5,0,1
32500,-50,4,3,3,60,0,1
32562,-50,4,3,3,5,0,1
32750,-50,4,3,3,60,0,1
32812,-50,4,3,3,5,0,1
33000,-50,4,3,3,60,0,1
33062,-50,4,3,3,5,0,1
33250,-50,4,3,3,60,0,1
33312,-50,4,3,3,5,0,1
33500,-50,4,3,3,60,0,0

[Colours]
Combo1 : 128,0,30
Combo2 : 160,64,64

[HitObjects]
256,192,1500,12,0,3875,0:0:0:0:
191,24,4000,5,6,0:0:0:0:
191,24,6000,5,6,0:0:0:0:
191,24,8000,6,0,L|231:175,1,150.000005722046,6|8,0:0|0:0,0:0:0:0:
45,274,8250,2,0,L|83:129,1,150.000005722046,2|8,0:0|0:0,0:0:0:0:
375,208,8500,2,0,B|393:282|393:282|375:353,1,150.000005722046,2|8,0:0|0:0,0:0:0:0:
229,168,8750,2,0,L|320:143,2,75.0000028610231,2|2|8,0:0|0:0|0:0,0:0:0:0:
45,274,9000,6,0,P|130:312|192:291,1,150.000005722046,2|8,0:0|0:0,0:0:0:0:
156,88,9250,1,2,0:0:0:0:
127,202,9375,1,2,0:0:0:0:
375,208,9500,6,0,L|210:163,1,150.000005722046,2|8,0:0|0:0,0:0:0:0:
374,28,9750,2,0,L|301:47,1,75.0000028610231,2|0,0:0|0:0,0:0:0:0:
156,88,9875,1,8,0:0:0:0:
192,313,10000,6,0,L|230:165,1,150.000005722046,2|0,0:0|0:0,0:0:0:0:
47,62,10250,2,0,L|84:207,1,150.000005722046,2|8,0:0|0:0,0:0:0:0:
355,73,10500,2,0,B|284:55|284:55|210:73,1,150.000005722046,2|8,0:0|0:0,0:0:0:0:
368,232,10750,2,0,L|387:159,2,75.0000028610231,2|2|8,0:0|0:0|0:0,0:0:0:0:
185,336,11000,6,0,P|209:224|246:200,1,150.000005722046,2|8,0:0|0:0,0:0:0:0:
404,332,11250,1,2,0:0:0:0:
286,301,11375,1,8,0:0:0:0:
406,87,11500,6,0,L|366:238,1,150.000005722046,2|8,0:0|0:0,0:0:0:0:
226,83,11750,2,0,L|245:156,1,75.0000028610231,2|0,0:0|0:0,0:0:0:0:
286,301,11875,1,8,0:0:0:0:
512,270,12000,6,0,L|361:230,1,150.000005722046,2|8,0:0|0:0,0:0:0:0:
142,171,12250,1,2,0:0:0:0:
185,336,12375,1,8,0:0:0:0:
226,83,12500,6,0,L|266:234,1,150.000005722046,2|8,0:0|0:0,0:0:0:0:
19,114,12750,2,0,L|38:41,2,75.0000028610231,2|0|8,0:0|0:0|0:0,0:0:0:0:
206,10,13000,6,0,L|246:161,1,150.000005722046,2|8,0:0|0:0,0:0:0:0:
305,380,13250,1,2,0:0:0:0:
140,337,13375,1,8,0:0:0:0:
393,296,13500,6,0,L|242:256,1,150.000005722046,2|8,0:0|0:0,0:0:0:0:
481,212,13750,6,0,L|408:193,1,75.0000028610231,2|0,0:0|0:0,0:0:0:0:
263,154,13875,1,8,0:0:0:0:
305,380,14000,6,0,P|383:354|406:189,1,262.500002503395,2|0,0:0|0:0,0:0:0:0:
224,237,14250,2,0,L|309:260,2,87.500000834465,2|0|8,0:0|0:0|0:0,0:0:0:0:
182,11,14500,6,0,P|104:37|81:202,1,262.500002503395,2|0,0:0|0:0,0:0:0:0:
263,154,14750,2,0,L|178:131,2,87.500000834465,2|2|8,0:0|0:0|0:0,0:0:0:0:
481,212,15000,6,0,L|292:162,1,175.00000166893,2|8,0:0|0:0,0:0:0:0:
139,304,15250,2,0,L|308:259,1,175.00000166893,2|8,0:0|0:0,0:0:0:0:
481,212,15500,5,2,0:0:0:0:
481,212,15750,6,0,B|462:139|462:139|474:93,1,116.666667779287,8|2,0:0|0:0,0:0:0:0:
494,14,15916,1,2,0:0:0:0:
409,36,16000,1,2,0:0:0:0:
409,36,16625,5,8,0:0:0:0:
409,36,16750,1,8,0:0:0:0:
494,14,16875,1,8,0:0:0:0:
463,140,17000,1,4,0:0:0:0:
291,241,17625,5,8,0:0:0:0:
291,241,17750,1,8,0:0:0:0:
333,252,17875,1,8,0:0:0:0:
311,167,18000,1,4,0:0:0:0:
112,114,18625,5,8,0:0:0:0:
112,114,18750,1,8,0:0:0:0:
239,81,18875,1,8,0:0:0:0:
186,292,19000,1,4,0:0:0:0:
239,81,19250,5,4,0:0:0:0:
213,186,19500,1,4,0:0:0:0:
186,292,19750,1,2,0:0:0:0:
186,292,20000,6,0,L|337:332,1,150.000005722046,6|8,0:0|0:0,0:0:0:0:
435,146,20250,2,0,L|284:186,1,150.000005722046,2|8,0:0|0:0,0:0:0:0:
512,218,20500,2,0,B|530:147|530:147|512:73,1,150.000005722046,2|8,0:0|0:0,0:0:0:0:
335,214,20750,2,0,L|407:194,2,75.0000028610231,2|2|8,0:0|0:0|0:0,0:0:0:0:
141,104,21000,6,0,P|249:68|289:88,1,150.000005722046,2|8,0:0|0:0,0:0:0:0:
255,292,21250,1,2,0:0:0:0:
223,173,21375,1,8,0:0:0:0:
468,172,21500,6,0,L|324:211,1,150.000005722046,2|8,0:0|0:0,0:0:0:0:
473,352,21750,2,0,L|400:333,1,75.0000028610231,2|0,0:0|0:0,0:0:0:0:
255,292,21875,1,8,0:0:0:0:
285,66,22000,6,0,L|323:210,1,150.000005722046,2|0,0:0|0:0,0:0:0:0:
139,316,22250,2,0,L|177:170,1,150.000005722046,2|8,0:0|0:0,0:0:0:0:
404,361,22500,2,0,B|330:379|330:379|259:361,1,150.000005722046,2|8,0:0|0:0,0:0:0:0:
353,158,22750,2,0,L|373:230,2,75.0000028610231,2|2|8,0:0|0:0|0:0,0:0:0:0:
171,54,23000,6,0,P|173:132|249:198,1,150.000005722046,2|8,0:0|0:0,0:0:0:0:
388,61,23250,1,2,0:0:0:0:
274,92,23375,1,8,0:0:0:0:
391,303,23500,6,0,L|353:158,1,150.000005722046,2|8,0:0|0:0,0:0:0:0:
214,310,23750,2,0,L|233:237,1,75.0000028610231,2|0,0:0|0:0,0:0:0:0:
274,92,23875,1,8,0:0:0:0:
498,120,24000,6,0,L|347:160,1,150.000005722046,2|8,0:0|0:0,0:0:0:0:
128,219,24250,1,2,0:0:0:0:
171,54,24375,1,8,0:0:0:0:
212,307,24500,6,0,L|252:156,1,150.000005722046,2|8,0:0|0:0,0:0:0:0:
5,276,24750,2,0,L|24:349,2,75.0000028610231,2|0|8,0:0|0:0|0:0,0:0:0:0:
192,380,25000,6,0,L|232:229,1,150.000005722046,2|8,0:0|0:0,0:0:0:0:
291,10,25250,1,2,0:0:0:0:
126,53,25375,1,8,0:0:0:0:
379,94,25500,6,0,L|228:134,1,150.000005722046,2|8,0:0|0:0,0:0:0:0:
467,178,25750,6,0,L|394:197,1,75.0000028610231,2|0,0:0|0:0,0:0:0:0:
250,238,25875,1,8,0:0:0:0:
291,10,26000,6,0,P|391:59|386:208,1,262.500002503395,2|0,0:0|0:0,0:0:0:0:
205,155,26250,2,0,L|290:133,2,87.500000834465,2|0|8,0:0|0:0|0:0,0:0:0:0:
164,377,26500,6,0,P|64:328|69:179,1,262.500002503395,2|0,0:0|0:0,0:0:0:0:
250,238,26750,2,0,L|165:260,2,87.500000834465,2|0|8,0:0|0:0|0:0,0:0:0:0:
467,178,27000,6,0,L|278:228,1,175.00000166893,2|8,0:0|0:0,0:0:0:0:
120,88,27250,2,0,L|289:133,1,175.00000166893,2|8,0:0|0:0,0:0:0:0:
467,178,27500,5,2,0:0:0:0:
250,238,27625,1,8,0:0:0:0:
306,20,27750,1,8,0:0:0:0:
372,273,27875,1,8,0:0:0:0:
218,114,28000,6,0,L|426:168,1,187.999997131348,6|8,0:0|0:0,0:0:0:0:
128,203,28250,2,0,P|89:110|136:18,1,187.999997131348,2|8,0:0|0:0,0:0:0:0:
217,293,28500,2,0,P|124:332|32:285,1,187.999997131348,2|8,0:0|0:0,0:0:0:0:
307,204,28750,2,0,P|332:238|341:313,2,93.9999985656739,2|2|8,0:0|0:0|0:0,0:0:0:0:
47,301,29000,6,0,B|136:337|136:337|217:293,1,187.999997131348,6|8,0:0|0:0,0:0:0:0:
120,32,29250,2,0,B|84:121|84:121|128:203,1,187.999997131348,2|8,0:0|0:0,0:0:0:0:
388,105,29500,2,0,B|299:69|299:69|217:112,1,187.999997131348,2|8,0:0|0:0,0:0:0:0:
317,377,29750,2,0,L|347:262,2,93.9999985656739,2|2|8,0:0|0:0|0:0,0:0:0:0:
388,105,30000,6,0,L|435:286,1,187.999997131348,6|8,0:0|0:0,0:0:0:0:
83,375,30250,2,0,L|130:193,1,187.999997131348,2|8,0:0|0:0,0:0:0:0:
340,286,30500,2,0,B|247:310|247:310|158:285,1,187.999997131348,2|8,0:0|0:0,0:0:0:0:
292,104,30750,2,0,L|315:194,2,93.9999985656739,2|2|8,0:0|0:0|0:0,0:0:0:0:
67,262,31000,6,0,L|248:309,1,187.999997131348,6|8,0:0|0:0,0:0:0:0:
268,13,31250,2,0,P|211:56|231:177,1,187.999997131348,2|8,0:0|0:0,0:0:0:0:
489,233,31500,1,2,0:0:0:0:
489,233,31750,6,0,B|473:173|473:173|391:153,1,125.333331420898,8|2,0:0|0:0,0:0:0:0:
320,134,31916,1,2,0:0:0:0:
343,224,32000,6,0,P|412:154|249:73,1,300,6|0,0:0|0:0,0:0:0:0:
121,140,32250,6,0,B|303:187|303:187|411:158,1,300,6|0,0:0|0:0,0:0:0:0:
488,339,32500,6,0,P|411:307|475:128,1,300,6|0,0:0|0:0,0:0:0:0:
363,307,32750,6,0,B|321:232|359:165|359:165|400:92|359:20,1,300,6|0,0:0|0:0,0:0:0:0:
183,117,33000,6,0,P|316:150|360:21,1,300,6|0,0:0|0:0,0:0:0:0:
165,11,33250,6,0,B|136:119|136:119|183:301,1,300,6|0,0:0|0:0,0:0:0:0:
367,348,33500,5,8,0:0:0:0:
