osu file format v12

[General]
AudioFilename: Shining stars bless.mp3
AudioLeadIn: 971
PreviewTime: 53254
Countdown: 0
SampleSet: Soft
StackLeniency: 0.7
Mode: 0
LetterboxInBreaks: 1

[Editor]
DistanceSpacing: 1.3
BeatDivisor: 4
GridSize: 8

[Metadata]
Title:Shining stars bless(TV Size)
TitleUnicode:Shining stars bless(TV Size)
Artist:Utazuki kaori
ArtistUnicode:Utazuki kaori
Creator:chihopiaodu250
Version:Yuki
Source:Nanatsuiro Drops
Tags:Shining stars bless
BeatmapID:224561
BeatmapSetID:80776

[Difficulty]
HPDrainRate:7
CircleSize:4
OverallDifficulty:8
ApproachRate:8
SliderMultiplier:1.4
SliderTickRate:1

[Events]
//Background and Video events
Video,0,"Shining stars bless.avi"
0,0,"5074430880140070044.jpg",1,1
//Break Periods
//Storyboard Layer 0 (Background)
//Storyboard Layer 1 (Fail)
//Storyboard Layer 2 (Pass)
//Storyboard Layer 3 (Foreground)
//Storyboard Sound Samples
//Background Colour Transformations
3,100,163,162,255

[TimingPoints]
649,461.538461538462,4,2,0,50,1,0
9879,-66.6666666666667,4,2,0,65,0,0
17264,-66.6666666666667,4,2,0,75,0,0
39418,-100,4,2,0,55,0,0
46802,-100,4,2,0,65,0,0
53725,-66.6666666666667,4,2,0,70,0,1
68379,-66.6666666666667,4,2,0,70,0,0
68956,-66.6666666666667,4,2,0,70,0,1
76110,-66.6666666666667,4,2,0,70,0,0
83264,-100,4,2,0,60,0,0
86956,-100,4,2,0,45,0,0
87879,-100,4,2,0,30,0,0
88572,-100,4,2,0,15,0,0
88918,-100,4,2,0,5,0,0

[Colours]
Combo1 : 185,255,203
Combo2 : 254,254,171
Combo3 : 172,211,255
Combo4 : 254,201,201

[HitObjects]
96,72,650,38,0,P|168:48|240:88,1,140
168,184,1342,2,0,P|224:207|296:183,1,140
296,183,2034,1,2,0:0:0:0:
416,32,2496,6,0,L|416:176,1,140
296,112,3188,2,0,L|296:272,1,140
296,252,3880,1,2,0:0:0:0:
104,224,4342,22,0,L|8:224,2,70
152,272,5034,2,0,P|192:320|272:320,1,140
265,323,5726,1,2,0:0:0:0:
256,192,5957,1,0,0:0:0:0:
256,192,6073,1,0,0:0:0:0:
256,192,6188,1,2,0:0:0:0:
256,192,6879,5,0,0:0:0:0:
256,192,6995,12,0,9649,0:0:0:0:
96,96,9880,6,0,P|88:144|144:192,1,105.000004005432
224,264,10341,1,0,0:0:0:0:
264,232,10457,1,0,0:0:0:0:
320,232,10572,2,0,L|432:232,1,105.000004005432,2|0,0:0|0:0,0:0:0:0:
488,96,11034,1,0,0:0:0:0:
352,96,11265,1,2,0:0:0:0:
168,48,11496,5,0,0:0:0:0:
144,96,11611,1,0,0:0:0:0:
120,144,11726,1,0,0:0:0:0:
48,280,11957,1,0,0:0:0:0:
104,296,12073,1,0,0:0:0:0:
152,280,12188,2,0,L|200:232,1,52.5000020027161,2|0,0:0|0:0,0:0:0:0:
248,240,12419,2,0,L|296:192,1,52.5000020027161
424,208,12764,1,0,0:0:0:0:
424,208,12879,1,0,0:0:0:0:
336,88,13110,1,2,0:0:0:0:
184,88,13342,5,0,0:0:0:0:
184,88,13457,1,0,0:0:0:0:
184,88,13572,2,0,P|264:64|339:91,1,157.500006008148
328,304,14264,1,0,0:0:0:0:
184,304,14495,5,0,0:0:0:0:
328,304,14725,1,2,0:0:0:0:
256,192,14956,1,2,0:0:0:0:
184,304,15187,1,0,0:0:0:0:
184,304,15302,1,0,0:0:0:0:
184,304,15418,1,2,0:0:0:0:
112,192,15649,1,0,0:0:0:0:
112,192,15764,1,2,0:0:0:0:
184,80,15995,1,0,0:0:0:0:
184,80,16110,1,0,0:0:0:0:
256,192,16341,1,0,0:0:0:0:
184,80,16572,1,2,0:0:0:0:
320,80,16802,1,2,0:0:0:0:
120,280,17264,6,0,P|168:328|224:328,1,105.000004005432
392,280,17725,2,0,P|344:328|288:328,2,105.000004005432,2|0|0,0:0|0:0|0:0,0:0:0:0:
400,152,18418,2,0,L|312:80,1,105.000004005432
192,88,18879,1,0,0:0:0:0:
192,88,18995,1,0,0:0:0:0:
192,88,19110,1,2,0:0:0:0:
120,200,19341,1,0,0:0:0:0:
120,200,19456,1,0,0:0:0:0:
120,200,19572,2,0,L|192:296,1,105.000004005432,2|0,0:0|0:0,0:0:0:0:
320,280,20033,2,0,P|354:275|402:227,1,105.000004005432
320,104,20495,2,0,P|354:109|402:157,1,105.000004005432
256,192,20956,12,0,22341,0:0:0:0:
256,192,22572,5,0,0:0:0:0:
256,192,22687,1,0,0:0:0:0:
256,192,22802,1,2,0:0:0:0:
128,96,23033,1,0,0:0:0:0:
128,96,23149,1,2,0:0:0:0:
312,40,23379,1,0,0:0:0:0:
312,40,23495,1,2,0:0:0:0:
256,192,23725,2,0,L|288:304,1,105.000004005432
284,292,24187,1,6,0:0:0:0:
120,64,24649,5,0,0:0:0:0:
192,128,24879,1,0,0:0:0:0:
120,184,25110,2,0,P|144:248|200:248,1,105.000004005432,2|0,0:0|0:0,0:0:0:0:
256,304,25572,1,0,0:0:0:0:
336,256,25802,1,0,0:0:0:0:
336,256,25918,1,0,0:0:0:0:
338,255,26033,2,0,P|368:248|392:184,1,105.000004005432,2|0,0:0|0:0,0:0:0:0:
392,88,26495,2,0,L|248:88,1,105.000004005432
232,88,26841,1,0,0:0:0:0:
176,88,26956,1,2,0:0:0:0:
104,200,27187,1,0,0:0:0:0:
208,312,27418,1,0,0:0:0:0:
320,200,27649,1,0,0:0:0:0:
208,88,27879,2,0,P|177:87|137:143,1,105.000004005432,2|0,0:0|0:0,0:0:0:0:
136,144,28225,1,0,0:0:0:0:
136,144,28341,1,0,0:0:0:0:
208,88,28572,5,0,0:0:0:0:
208,312,28802,1,2,0:0:0:0:
312,312,29033,1,0,0:0:0:0:
312,312,29149,1,0,0:0:0:0:
312,312,29264,2,0,L|408:232,1,105.000004005432
200,72,29725,2,0,L|104:152,1,105.000004005432,2|0,0:0|0:0,0:0:0:0:
119,139,30072,5,0,0:0:0:0:
119,139,30187,1,2,0:0:0:0:
112,296,30418,2,0,L|192:328,1,52.5000020027161,0|2,0:0|0:0,0:0:0:0:
112,88,30764,2,0,L|192:56,1,52.5000020027161
304,80,31110,1,0,0:0:0:0:
360,80,31226,1,0,0:0:0:0:
408,112,31341,1,0,0:0:0:0:
424,160,31457,1,0,0:0:0:0:
408,208,31572,1,2,0:0:0:0:
104,328,32033,5,0,0:0:0:0:
104,328,32264,1,0,0:0:0:0:
168,256,32495,1,2,0:0:0:0:
104,192,32725,1,0,0:0:0:0:
168,120,32956,1,0,0:0:0:0:
264,120,33187,1,0,0:0:0:0:
264,120,33303,1,0,0:0:0:0:
264,120,33418,6,0,L|384:120,2,105.000004005432,2|0|0,0:0|0:0|0:0,0:0:0:0:
192,56,34110,2,0,L|112:144,1,105.000004005432,0|2,0:0|0:0,0:0:0:0:
192,328,34572,2,0,L|112:240,1,105.000004005432
256,192,35033,1,0,0:0:0:0:
256,192,35149,1,0,0:0:0:0:
256,192,35264,1,2,0:0:0:0:
256,96,35495,1,0,0:0:0:0:
96,240,35725,6,0,L|163:320,1,105.000004005432
416,144,36187,2,0,L|348:63,1,105.000004005432,2|0,0:0|0:0,0:0:0:0:
256,192,36649,1,0,0:0:0:0:
168,320,36879,1,0,0:0:0:0:
344,320,37110,1,2,0:0:0:0:
448,192,37341,5,0,0:0:0:0:
448,192,37456,1,0,0:0:0:0:
448,192,37572,1,2,0:0:0:0:
328,56,37802,1,0,0:0:0:0:
328,56,37918,1,2,0:0:0:0:
216,296,38149,1,0,0:0:0:0:
216,296,38264,1,2,0:0:0:0:
120,200,38495,5,0,0:0:0:0:
112,152,38610,1,0,0:0:0:0:
128,104,38725,1,0,0:0:0:0:
176,80,38841,1,0,0:0:0:0:
224,80,38956,1,2,0:0:0:0:
224,80,39187,1,2,0:0:0:0:
400,48,39418,6,0,L|400:200,1,140,4|0,0:0|0:0,0:0:0:0:
400,188,40110,1,2,0:0:0:0:
256,336,40572,1,0,0:0:0:0:
256,336,40802,1,0,0:0:0:0:
112,336,41033,1,0,0:0:0:0:
112,336,41149,1,0,0:0:0:0:
112,336,41264,2,0,L|112:184,1,140,2|0,0:0|0:0,0:0:0:0:
112,136,41956,1,2,0:0:0:0:
256,32,42187,6,0,L|336:32,1,70,0|2,0:0|0:0,0:0:0:0:
368,80,42649,1,2,0:0:0:0:
368,80,42764,1,2,0:0:0:0:
368,80,42879,1,2,0:0:0:0:
384,232,43110,2,0,B|376:296|328:328|272:336,1,140,2|0,0:0|0:0,0:0:0:0:
215,330,43802,2,0,B|184:328|136:296|128:232,1,140
128,233,44495,1,2,0:0:0:0:
160,64,44725,5,0,0:0:0:0:
216,64,44841,1,0,0:0:0:0:
272,64,44956,2,0,P|312:72|336:112,1,70,2|0,0:0|0:0,0:0:0:0:
304,144,45302,2,0,P|323:165|363:173,1,70,2|0,0:0|0:0,0:0:0:0:
424,184,45649,1,0,0:0:0:0:
424,288,45879,1,0,0:0:0:0:
376,304,45995,1,0,0:0:0:0:
328,272,46110,1,0,0:0:0:0:
280,288,46225,1,0,0:0:0:0:
240,256,46341,1,2,0:0:0:0:
112,144,46572,5,0,0:0:0:0:
112,144,46687,1,0,0:0:0:0:
112,144,46802,1,2,0:0:0:0:
256,40,47149,1,2,0:0:0:0:
256,248,47495,1,2,0:0:0:0:
256,40,47725,37,2,0:0:0:0:
256,248,48072,1,2,0:0:0:0:
400,144,48418,1,2,0:0:0:0:
432,280,48649,6,0,L|336:280,1,70,2|0,0:0|0:0,0:0:0:0:
384,200,48995,2,0,L|304:200,1,70,2|0,0:0|0:0,0:0:0:0:
336,120,49341,2,0,L|256:120,1,70,2|0,0:0|0:0,0:0:0:0:
144,80,49802,5,0,0:0:0:0:
144,80,49918,1,0,0:0:0:0:
144,80,50033,1,0,0:0:0:0:
136,168,50264,1,0,0:0:0:0:
144,272,50495,1,2,0:0:0:0:
192,304,50610,1,0,0:0:0:0:
328,296,50841,1,2,0:0:0:0:
376,264,50956,1,0,0:0:0:0:
376,120,51187,1,2,0:0:0:0:
328,88,51302,1,0,0:0:0:0:
144,96,51533,1,0,0:0:0:0:
144,96,51648,1,0,0:0:0:0:
144,96,51763,1,2,0:0:0:0:
96,296,52110,21,0,0:0:0:0:
432,296,52341,1,6,0:0:0:0:
256,192,52456,12,0,53379,0:0:0:0:
40,80,53725,38,0,L|152:80,1,105.000004005432
256,160,54187,1,0,0:0:0:0:
144,232,54418,1,0,0:0:0:0:
256,160,54649,1,2,0:0:0:0:
376,232,54879,1,0,0:0:0:0:
376,232,54995,1,0,0:0:0:0:
376,232,55110,1,0,0:0:0:0:
376,232,55341,1,2,0:0:0:0:
256,48,55572,6,0,P|237:81|179:109,1,105.000004005432,2|0,0:0|0:0,0:0:0:0:
72,192,56033,1,0,0:0:0:0:
176,304,56264,1,2,0:0:0:0:
176,304,56379,1,2,0:0:0:0:
176,80,56610,1,2,0:0:0:0:
176,80,56725,1,2,0:0:0:0:
256,208,56956,1,0,0:0:0:0:
256,264,57072,1,0,0:0:0:0:
256,320,57187,1,0,0:0:0:0:
256,320,57418,1,2,0:0:0:0:
384,112,57649,5,0,0:0:0:0:
384,248,57879,2,0,P|320:304|240:272,1,157.500006008148,6|0,0:0|0:0,0:0:0:0:
256,288,58341,2,0,L|120:312,1,105.000004005432
128,136,58802,6,0,P|192:80|272:112,1,157.500006008148,6|0,0:0|0:0,0:0:0:0:
255,95,59264,2,0,L|392:72,1,105.000004005432
336,296,59725,6,0,P|351:263|335:199,1,105.000004005432,2|0,0:0|0:0,0:0:0:0:
176,88,60072,2,0,P|160:120|176:184,1,105.000004005432,2|0,0:0|0:0,0:0:0:0:
256,192,60418,1,2,0:0:0:0:
392,56,60649,5,0,0:0:0:0:
392,192,60879,1,0,0:0:0:0:
392,328,61110,1,6,0:0:0:0:
392,192,61341,5,0,0:0:0:0:
392,192,61456,1,0,0:0:0:0:
392,192,61572,2,0,P|328:210|295:195,1,105.000004005432,2|0,0:0|0:0,0:0:0:0:
256,152,61918,2,0,L|216:112,1,52.5000020027161,2|0,0:0|0:0,0:0:0:0:
176,80,62149,2,0,L|120:136,1,52.5000020027161,0|2,0:0|0:0,0:0:0:0:
96,152,62379,2,0,L|96:216,1,52.5000020027161,0|0,0:0|0:0,0:0:0:0:
168,304,62725,1,2,0:0:0:0:
256,192,62956,1,2,0:0:0:0:
392,112,63187,5,0,0:0:0:0:
392,112,63302,1,0,0:0:0:0:
392,112,63418,2,0,L|440:232,1,105.000004005432,2|0,0:0|0:0,0:0:0:0:
320,184,63764,2,0,L|368:304,1,105.000004005432,2|0,0:0|0:0,0:0:0:0:
358,281,64110,1,0,0:0:0:0:
168,296,64341,5,0,0:0:0:0:
256,192,64572,1,2,0:0:0:0:
168,88,64802,1,2,0:0:0:0:
168,88,64918,1,2,0:0:0:0:
168,88,65033,1,2,0:0:0:0:
344,64,65264,5,6,0:0:0:0:
448,224,65610,1,2,0:0:0:0:
344,64,65956,1,2,0:0:0:0:
256,192,66187,5,6,0:0:0:0:
168,64,66533,1,2,0:0:0:0:
72,224,66879,1,2,0:0:0:0:
176,304,67110,5,2,0:0:0:0:
216,320,67225,1,0,0:0:0:0:
256,336,67341,1,0,0:0:0:0:
296,320,67456,1,2,0:0:0:0:
344,304,67572,1,0,0:0:0:0:
384,280,67687,1,0,0:0:0:0:
400,232,67803,1,2,0:0:0:0:
416,192,67918,1,0,0:0:0:0:
400,152,68034,1,0,0:0:0:0:
256,192,68264,1,2,0:0:0:0:
256,56,68495,5,0,0:0:0:0:
256,56,68610,1,0,0:0:0:0:
256,56,68725,1,0,0:0:0:0:
80,152,68956,2,0,P|66:218|121:258,1,105.000004005432,2|0,0:0|0:0,0:0:0:0:
144,264,69302,1,0,0:0:0:0:
162,322,69418,2,0,P|188:341|255:327,1,105.000004005432,2|0,0:0|0:0,0:0:0:0:
120,336,69879,1,0,0:0:0:0:
392,192,70110,1,2,0:0:0:0:
256,328,70341,5,2,0:0:0:0:
256,328,70456,1,2,0:0:0:0:
256,328,70571,1,2,0:0:0:0:
80,232,70802,2,0,P|66:165|121:125,1,105.000004005432,2|0,0:0|0:0,0:0:0:0:
144,120,71148,1,0,0:0:0:0:
184,64,71264,2,0,P|210:44|277:58,1,105.000004005432,2|0,0:0|0:0,0:0:0:0:
392,56,71725,1,0,0:0:0:0:
432,96,71841,1,0,0:0:0:0:
392,136,71956,1,0,0:0:0:0:
360,176,72072,1,0,0:0:0:0:
400,216,72187,1,2,0:0:0:0:
248,280,72418,5,0,0:0:0:0:
112,192,72649,2,0,P|152:144|208:144,1,105.000004005432,2|0,0:0|0:0,0:0:0:0:
232,88,72995,2,0,L|392:88,1,157.500006008148,2|0,0:0|0:0,0:0:0:0:
112,192,73572,2,0,P|152:239|208:239,1,105.000004005432,2|0,0:0|0:0,0:0:0:0:
240,288,73918,2,0,L|345:288,1,105.000004005432,2|0,0:0|0:0,0:0:0:0:
416,288,74264,1,2,0:0:0:0:
256,192,74495,12,0,75879,0:0:0:0:
128,72,76110,5,0,0:0:0:0:
128,72,76225,1,0,0:0:0:0:
128,72,76341,1,2,0:0:0:0:
256,112,76572,1,0,0:0:0:0:
256,112,76687,1,2,0:0:0:0:
384,72,76918,1,0,0:0:0:0:
384,72,77033,1,2,0:0:0:0:
361,272,77264,6,0,L|225:272,1,105.000004005432
256,272,77725,1,6,0:0:0:0:
128,312,77956,5,0,0:0:0:0:
128,312,78071,1,0,0:0:0:0:
128,312,78187,1,2,0:0:0:0:
256,272,78418,1,0,0:0:0:0:
256,272,78533,1,2,0:0:0:0:
384,312,78764,1,0,0:0:0:0:
384,312,78879,1,2,0:0:0:0:
256,272,79110,37,0,0:0:0:0:
256,136,79341,1,0,0:0:0:0:
376,200,79572,1,0,0:0:0:0:
400,64,79802,1,0,0:0:0:0:
400,64,79918,1,0,0:0:0:0:
400,64,80033,2,0,P|256:128|104:56,2,315.000012016297,2|0|0,0:0|0:0|0:0,0:0:0:0:
440,192,81649,1,0,0:0:0:0:
440,192,81764,1,0,0:0:0:0:
440,192,81879,1,6,0:0:0:0:
168,344,82225,1,6,0:0:0:0:
64,64,82572,1,6,0:0:0:0:
256,24,83264,5,0,0:0:0:0:
72,192,83495,1,0,0:0:0:0:
72,192,83610,1,0,0:0:0:0:
72,192,83725,1,0,0:0:0:0:
184,272,83956,1,0,0:0:0:0:
320,272,84187,1,0,0:0:0:0:
432,192,84418,1,2,0:0:0:0:
256,56,84879,2,0,L|256:144,1,70
256,200,85341,1,0,0:0:0:0:
256,200,85456,1,0,0:0:0:0:
256,200,85572,1,2,0:0:0:0:
256,200,86264,37,2,0:0:0:0:
256,192,86379,12,0,89033,0:0:0:0:
