osu file format v5

[General]
AudioFilename: Shugo Chara- Heartful Song Extended Version With lyrics.mp3
AudioLeadIn: 0
PreviewTime: -1
Countdown: 1
SampleSet: Normal
StackLeniency: 0.7
Mode: 0
LetterboxInBreaks: 1

[Metadata]
Title:Hearful song
Artist:Utau
Creator:onpu536
Version:
Source:
Tags:

[Difficulty]
HPDrainRate:5
CircleSize:5
OverallDifficulty:5
SliderMultiplier:1.4
SliderTickRate:1

[Events]
//Background and Video events
0,0,"Utau8.jpg"
//Break Periods
//Storyboard Layer 0 (Background)
//Storyboard Layer 1 (Failing)
//Storyboard Layer 2 (Passing)
//Storyboard Layer 3 (Foreground)
//Storyboard Sound Samples
//Background Colour Transformations
3,100,163,162,255

[TimingPoints]
0,1000,4,1,0,100,1

[HitObjects]
64,96,2500,6,2,B|256:128,1,175
416,64,4250,6,2,B|256:192,1,175
64,160,6500,5,2
96,128,15750,5,10
256,224,16250,5,10
96,288,17750,5,10
320,128,18500,5,10
96,128,19750,5,10
192,192,21000,5,10
96,128,22500,6,8,B|256:160,1,245
96,96,25250,5,8
352,128,27250,5,8
160,128,28750,5,8
256,256,29750,5,8
320,192,30250,1,8
352,128,32250,1,8
96,128,33750,5,8
192,224,34250,5,8
160,96,35000,6,10,B,1,245
96,128,37250,5,10
160,320,38250,6,10,B|64:96|224:192|256:192|256:224,1,350
128,160,42750,5,10
192,224,43250,1,10
288,224,44250,1,10
96,128,46000,5,0
256,192,46500,1,0
384,128,47000,1,0
64,96,48500,2,6,B|128:256,1,140
128,160,50000,2,10,B|256:256|256:224|256:192,1,140
64,128,52000,5,10
288,224,52500,1,10
416,128,53500,1,10
96,160,54750,1,10
96,96,55750,6,10,B|160:224,1,140
64,128,59250,1,10
224,224,61000,1,10
64,128,62500,6,10,B|128:288,1,140
192,288,63750,5,10
288,288,64750,1,10
96,160,65500,5,10
128,160,66000,2,10,B|224:160,1,70
160,160,67250,6,10,B|256:224,1,105
64,160,68750,5,10
224,256,69500,5,10
352,128,70000,1,10
224,64,70500,1,10
128,160,71250,1,10
165,100,72000,2,10,B|256:256,1,175
128,160,73750,5,10
320,128,74250,5,10
192,288,74750,5,10
256,288,75500,1,10
320,288,76000,1,10
384,288,76250,1,10
64,160,77250,6,10,B|128:288,1,140
96,224,79000,5,10
192,224,79500,1,10
288,224,80000,1,10
96,128,80750,6,10,B,1,140
224,32,82250,6,10,B|64:160|320:160|32:160,1,280
128,256,84750,5,10
288,256,85250,1,10
64,160,86000,2,10,B|192:128,1,105
320,128,87000,2,10,B|224:224|192:256,1,175
64,160,89000,5,10
192,224,89500,1,10
352,192,90000,1,10
288,64,90250,1,10
256,288,91000,1,10
32,32,91250,6,10,B|64:256,1,210
224,64,95000,5,10
64,192,95500,1,10
224,256,96500,1,10
352,160,96750,1,10
192,64,97250,1,10
64,192,98500,1,10
256,320,99250,1,10
224,352,99500,6,10,B|32:160|96:32|160:32|224:96|224:128|256:64|320:32|320:128|288:224|256:352,1,700
64,96,105250,2,10,B|192:256,1,175
64,192,110750,1,10
192,192,111250,1,10
320,192,111500,1,10
192,128,113500,6,10,B|64:224,1,140
192,128,114750,2,10,B,1,105
266,202,115750,2,10,B|160:288|224:320,1,140
96,128,117500,1,10
192,288,118000,1,10
288,224,118750,1,10
128,96,119750,1,10
64,256,120750,1,10
320,288,121500,1,10
352,128,122000,1,10
128,96,123000,1,10
160,224,123750,1,10
320,256,124750,1,10
288,96,125750,1,10
64,96,127250,5,10
96,160,128000,6,10,B,1,175
288,256,129250,2,10,B|320:288,1,35
384,64,130250,6,10,B,1,175
192,224,131750,2,10,B|128:192,1,70
96,64,133000,5,10
192,192,133500,1,10
352,128,134000,1,10
128,320,134750,1,10
224,64,135250,5,10
64,96,138000,2,10,B,1,245
256,320,140000,2,10,B,1,245
96,160,142250,5,10
192,160,142500,1,10
256,160,143250,1,10
352,96,143500,6,10,B|128:288,1,280
96,160,145750,5,10
128,192,146250,1,10
192,256,146750,1,10
288,256,147000,1,10
352,160,147500,1,10
320,96,148000,1,10
224,64,149000,1,10
96,192,150000,1,10
