osu file format v13

[General]
AudioFilename: Anshin.mp3
AudioLeadIn: 0
PreviewTime: 30597
Countdown: 0
SampleSet: Soft
StackLeniency: 0.7
Mode: 3
LetterboxInBreaks: 0
SpecialStyle: 0
WidescreenStoryboard: 1

[Editor]
DistanceSpacing: 0.5
BeatDivisor: 4
GridSize: 4
TimelineZoom: 1

[Metadata]
Title:Kochira Koufuku Anshin Iinkai desu
TitleUnicode:こちら、幸福安心委員会です。
Artist:UtataP feat.Hatsune Miku
ArtistUnicode:UtataP feat.Hatsune Miku
Creator:CrazyStar
Version:ADVANCED
Source:SOUND VOLTEX II -infinite infection -
Tags:-Project DIVA- F 2nd.
BeatmapID:567473
BeatmapSetID:246363

[Difficulty]
HPDrainRate:9
CircleSize:4
OverallDifficulty:9
ApproachRate:5
SliderMultiplier:1.4
SliderTickRate:1

[Events]
//Background and Video events
0,0,"Kochira koufuku anshin iinkai desu-bg.png",0,0
//Break Periods
//Storyboard Layer 0 (Background)
//Storyboard Layer 1 (Fail)
//Storyboard Layer 2 (Pass)
//Storyboard Layer 3 (Foreground)
//Storyboard Sound Samples
//Background Colour Transformations
3,100,163,162,255

[TimingPoints]
597,468.75,4,2,0,29,1,0

[HitObjects]
64,192,597,5,0,0:0:0:0:
448,192,597,1,0,0:0:0:0:
192,192,1065,1,0,0:0:0:0:
192,192,1300,1,0,0:0:0:0:
320,192,1534,1,0,0:0:0:0:
448,192,1768,1,0,0:0:0:0:
320,192,2003,1,0,0:0:0:0:
448,192,2237,1,0,0:0:0:0:
320,192,2472,1,0,0:0:0:0:
192,192,2706,1,0,0:0:0:0:
320,192,2823,1,0,0:0:0:0:
192,192,3057,1,0,0:0:0:0:
320,192,3175,1,0,0:0:0:0:
192,192,3292,1,0,0:0:0:0:
64,192,3409,1,0,0:0:0:0:
448,192,3409,1,0,0:0:0:0:
192,192,3643,1,0,0:0:0:0:
448,192,3761,1,0,0:0:0:0:
64,192,3761,1,0,0:0:0:0:
192,192,3878,1,0,0:0:0:0:
448,192,4112,1,0,0:0:0:0:
64,192,4112,1,0,0:0:0:0:
192,192,4229,1,0,0:0:0:0:
64,192,4347,1,0,0:0:0:0:
448,192,4347,1,0,0:0:0:0:
320,192,4698,1,0,0:0:0:0:
192,192,4815,1,0,0:0:0:0:
64,192,5284,1,0,0:0:0:0:
448,192,5518,1,0,0:0:0:0:
64,192,5753,1,0,0:0:0:0:
448,192,5987,1,0,0:0:0:0:
192,192,5987,1,0,0:0:0:0:
192,192,6222,1,0,0:0:0:0:
320,192,6222,1,0,0:0:0:0:
192,192,6456,1,0,0:0:0:0:
64,192,6573,1,0,0:0:0:0:
320,192,6690,1,0,0:0:0:0:
448,192,6690,1,0,0:0:0:0:
320,192,7159,1,0,0:0:0:0:
192,192,7159,1,0,0:0:0:0:
448,192,7393,1,0,0:0:0:0:
320,192,7511,1,0,0:0:0:0:
192,192,7511,1,0,0:0:0:0:
64,192,7628,1,0,0:0:0:0:
448,192,7745,1,0,0:0:0:0:
192,192,7862,1,0,0:0:0:0:
320,192,7862,1,0,0:0:0:0:
192,192,8097,1,0,0:0:0:0:
320,192,8097,1,0,0:0:0:0:
448,192,8331,1,0,0:0:0:0:
192,192,8565,1,0,0:0:0:0:
64,192,8800,1,0,0:0:0:0:
192,192,9034,1,0,0:0:0:0:
448,192,9268,1,0,0:0:0:0:
192,192,9503,1,0,0:0:0:0:
448,192,9737,1,0,0:0:0:0:
64,192,9737,1,0,0:0:0:0:
320,192,9972,1,0,0:0:0:0:
192,192,9972,1,0,0:0:0:0:
448,192,10206,1,0,0:0:0:0:
64,192,10440,1,0,0:0:0:0:
320,192,10675,1,0,0:0:0:0:
192,192,10909,1,0,0:0:0:0:
64,192,10909,1,0,0:0:0:0:
320,192,11143,1,0,0:0:0:0:
192,192,11261,1,0,0:0:0:0:
64,192,11261,1,0,0:0:0:0:
192,192,11612,1,0,0:0:0:0:
64,192,11612,1,0,0:0:0:0:
320,192,11847,1,0,0:0:0:0:
448,192,11847,1,0,0:0:0:0:
192,192,12081,1,0,0:0:0:0:
64,192,12315,1,0,0:0:0:0:
320,192,12550,1,0,0:0:0:0:
448,192,12784,1,0,0:0:0:0:
64,192,13018,1,0,0:0:0:0:
320,192,13253,1,0,0:0:0:0:
192,192,13487,1,0,0:0:0:0:
320,192,13487,1,0,0:0:0:0:
64,192,13722,1,0,0:0:0:0:
448,192,13722,1,0,0:0:0:0:
320,192,13956,1,0,0:0:0:0:
64,192,14190,1,0,0:0:0:0:
192,192,14307,1,0,0:0:0:0:
320,192,14425,1,0,0:0:0:0:
448,192,14542,1,0,0:0:0:0:
320,192,14659,1,0,0:0:0:0:
192,192,14776,1,0,0:0:0:0:
64,192,14893,1,0,0:0:0:0:
192,192,15011,1,0,0:0:0:0:
448,192,15128,128,0,15597:0:0:0:0:
320,192,15362,128,0,15597:0:0:0:0:
64,192,15597,1,0,0:0:0:0:
192,192,15597,1,0,0:0:0:0:
448,192,15831,1,0,0:0:0:0:
320,192,15948,1,0,0:0:0:0:
192,192,16065,1,0,0:0:0:0:
64,192,16065,1,0,0:0:0:0:
320,192,16300,1,0,0:0:0:0:
192,192,16534,1,0,0:0:0:0:
448,192,16651,1,0,0:0:0:0:
320,192,16768,1,0,0:0:0:0:
192,192,17003,1,0,0:0:0:0:
64,192,17003,1,0,0:0:0:0:
448,192,17237,1,0,0:0:0:0:
320,192,17472,1,0,0:0:0:0:
320,192,17706,1,0,0:0:0:0:
192,192,17823,1,0,0:0:0:0:
64,192,17940,1,0,0:0:0:0:
192,192,18057,1,0,0:0:0:0:
64,192,18175,1,0,0:0:0:0:
448,192,18409,1,0,0:0:0:0:
64,192,18409,1,0,0:0:0:0:
320,192,18526,1,0,0:0:0:0:
192,192,18643,1,0,0:0:0:0:
448,192,18878,1,0,0:0:0:0:
64,192,18878,1,0,0:0:0:0:
192,192,19112,1,0,0:0:0:0:
320,192,19229,1,0,0:0:0:0:
448,192,19347,1,0,0:0:0:0:
64,192,19464,1,0,0:0:0:0:
192,192,19581,1,0,0:0:0:0:
64,192,19698,1,0,0:0:0:0:
192,192,19815,1,0,0:0:0:0:
448,192,19815,1,0,0:0:0:0:
320,192,19932,1,0,0:0:0:0:
448,192,20050,1,0,0:0:0:0:
192,192,20284,1,0,0:0:0:0:
448,192,20284,1,0,0:0:0:0:
64,192,20518,1,0,0:0:0:0:
320,192,20636,1,0,0:0:0:0:
192,192,20753,1,0,0:0:0:0:
448,192,20753,1,0,0:0:0:0:
320,192,20987,1,0,0:0:0:0:
192,192,21222,1,0,0:0:0:0:
448,192,21222,1,0,0:0:0:0:
64,192,21339,1,0,0:0:0:0:
448,192,21456,1,0,0:0:0:0:
320,192,21573,1,0,0:0:0:0:
64,192,21690,1,0,0:0:0:0:
448,192,22159,1,0,0:0:0:0:
64,192,22159,1,0,0:0:0:0:
192,192,22276,1,0,0:0:0:0:
320,192,22276,1,0,0:0:0:0:
448,192,22393,1,0,0:0:0:0:
320,192,22511,1,0,0:0:0:0:
192,192,22628,1,0,0:0:0:0:
64,192,22745,1,0,0:0:0:0:
448,192,22862,1,0,0:0:0:0:
320,192,23097,1,0,0:0:0:0:
64,192,23097,1,0,0:0:0:0:
192,192,23331,1,0,0:0:0:0:
64,192,23448,1,0,0:0:0:0:
320,192,23565,1,0,0:0:0:0:
448,192,23565,1,0,0:0:0:0:
192,192,23800,1,0,0:0:0:0:
320,192,24034,1,0,0:0:0:0:
192,192,24151,1,0,0:0:0:0:
320,192,24268,1,0,0:0:0:0:
192,192,24386,1,0,0:0:0:0:
320,192,24503,1,0,0:0:0:0:
448,192,24503,1,0,0:0:0:0:
320,192,24737,1,0,0:0:0:0:
192,192,24854,1,0,0:0:0:0:
64,192,24972,1,0,0:0:0:0:
448,192,24972,1,0,0:0:0:0:
448,192,25206,1,0,0:0:0:0:
64,192,25206,1,0,0:0:0:0:
192,192,25323,1,0,0:0:0:0:
64,192,25440,1,0,0:0:0:0:
448,192,25440,1,0,0:0:0:0:
320,192,25675,1,0,0:0:0:0:
448,192,25909,1,0,0:0:0:0:
192,192,25909,1,0,0:0:0:0:
448,192,26143,1,0,0:0:0:0:
192,192,26143,1,0,0:0:0:0:
192,192,26378,1,0,0:0:0:0:
448,192,26378,1,0,0:0:0:0:
192,192,26612,1,0,0:0:0:0:
192,192,26729,1,0,0:0:0:0:
64,192,26847,1,0,0:0:0:0:
448,192,26847,1,0,0:0:0:0:
320,192,26964,1,0,0:0:0:0:
448,192,27081,1,0,0:0:0:0:
192,192,27198,1,0,0:0:0:0:
64,192,27315,1,0,0:0:0:0:
320,192,27315,1,0,0:0:0:0:
448,192,27550,1,0,0:0:0:0:
320,192,27667,1,0,0:0:0:0:
192,192,27784,1,0,0:0:0:0:
64,192,27901,1,0,0:0:0:0:
448,192,28018,1,0,0:0:0:0:
192,192,28018,1,0,0:0:0:0:
320,192,28136,1,0,0:0:0:0:
192,192,28253,1,0,0:0:0:0:
448,192,28253,1,0,0:0:0:0:
320,192,28487,1,0,0:0:0:0:
448,192,28722,1,0,0:0:0:0:
192,192,28722,1,0,0:0:0:0:
64,192,28839,1,0,0:0:0:0:
192,192,28956,1,0,0:0:0:0:
320,192,29190,1,0,0:0:0:0:
64,192,29190,1,0,0:0:0:0:
192,192,29307,1,0,0:0:0:0:
448,192,29425,1,0,0:0:0:0:
320,192,29542,1,0,0:0:0:0:
192,192,29659,1,0,0:0:0:0:
320,192,29776,1,0,0:0:0:0:
192,192,29893,1,0,0:0:0:0:
320,192,30011,1,0,0:0:0:0:
64,192,30128,1,0,0:0:0:0:
448,192,30128,1,0,0:0:0:0:
320,192,30597,1,0,0:0:0:0:
64,192,30597,1,0,0:0:0:0:
192,192,30831,1,0,0:0:0:0:
64,192,30948,1,0,0:0:0:0:
448,192,31065,1,0,0:0:0:0:
320,192,31065,1,0,0:0:0:0:
192,192,31182,1,0,0:0:0:0:
64,192,31300,1,0,0:0:0:0:
192,192,31534,1,0,0:0:0:0:
64,192,31651,1,0,0:0:0:0:
192,192,31768,1,0,0:0:0:0:
448,192,31886,1,0,0:0:0:0:
320,192,32003,1,0,0:0:0:0:
448,192,32003,1,0,0:0:0:0:
192,192,32237,1,0,0:0:0:0:
64,192,32354,1,0,0:0:0:0:
448,192,32472,1,0,0:0:0:0:
192,192,32472,1,0,0:0:0:0:
192,192,32706,1,0,0:0:0:0:
320,192,32823,1,0,0:0:0:0:
192,192,32940,1,0,0:0:0:0:
64,192,32940,1,0,0:0:0:0:
320,192,33057,1,0,0:0:0:0:
448,192,33175,1,0,0:0:0:0:
192,192,33409,1,0,0:0:0:0:
64,192,33409,1,0,0:0:0:0:
448,192,33526,1,0,0:0:0:0:
320,192,33643,1,0,0:0:0:0:
64,192,33878,1,0,0:0:0:0:
320,192,33878,1,0,0:0:0:0:
320,192,34112,1,0,0:0:0:0:
192,192,34229,1,0,0:0:0:0:
64,192,34347,1,0,0:0:0:0:
448,192,34347,1,0,0:0:0:0:
448,192,34581,1,0,0:0:0:0:
320,192,34698,1,0,0:0:0:0:
448,192,34815,1,0,0:0:0:0:
192,192,34815,1,0,0:0:0:0:
320,192,34932,1,0,0:0:0:0:
192,192,35050,1,0,0:0:0:0:
320,192,35284,1,0,0:0:0:0:
64,192,35401,1,0,0:0:0:0:
192,192,35518,1,0,0:0:0:0:
448,192,35636,1,0,0:0:0:0:
448,192,35753,1,0,0:0:0:0:
64,192,35753,1,0,0:0:0:0:
320,192,35987,1,0,0:0:0:0:
64,192,36222,1,0,0:0:0:0:
320,192,36222,1,0,0:0:0:0:
448,192,36339,1,0,0:0:0:0:
192,192,36456,1,0,0:0:0:0:
448,192,36573,1,0,0:0:0:0:
320,192,36690,1,0,0:0:0:0:
64,192,36690,1,0,0:0:0:0:
192,192,36807,1,0,0:0:0:0:
64,192,36925,1,0,0:0:0:0:
448,192,37159,1,0,0:0:0:0:
320,192,37159,1,0,0:0:0:0:
192,192,37276,1,0,0:0:0:0:
64,192,37276,1,0,0:0:0:0:
320,192,37393,1,0,0:0:0:0:
448,192,37511,1,0,0:0:0:0:
192,192,37628,1,0,0:0:0:0:
64,192,37628,1,0,0:0:0:0:
320,192,37862,1,0,0:0:0:0:
448,192,37979,1,0,0:0:0:0:
320,192,38097,1,0,0:0:0:0:
64,192,38097,1,0,0:0:0:0:
320,192,38331,1,0,0:0:0:0:
192,192,38448,1,0,0:0:0:0:
320,192,38565,1,0,0:0:0:0:
64,192,38565,1,0,0:0:0:0:
448,192,38682,1,0,0:0:0:0:
320,192,38800,1,0,0:0:0:0:
192,192,39034,1,0,0:0:0:0:
64,192,39151,1,0,0:0:0:0:
448,192,39268,1,0,0:0:0:0:
192,192,39268,1,0,0:0:0:0:
448,192,39503,1,0,0:0:0:0:
320,192,39503,1,0,0:0:0:0:
192,192,39737,1,0,0:0:0:0:
320,192,39972,1,0,0:0:0:0:
64,192,39972,1,0,0:0:0:0:
448,192,40206,1,0,0:0:0:0:
320,192,40323,1,0,0:0:0:0:
448,192,40440,1,0,0:0:0:0:
192,192,40440,1,0,0:0:0:0:
320,192,40557,1,0,0:0:0:0:
64,192,40675,1,0,0:0:0:0:
320,192,40909,1,0,0:0:0:0:
192,192,40909,1,0,0:0:0:0:
64,192,41026,1,0,0:0:0:0:
448,192,41143,1,0,0:0:0:0:
192,192,41143,1,0,0:0:0:0:
64,192,41378,1,0,0:0:0:0:
448,192,41378,1,0,0:0:0:0:
320,192,41612,1,0,0:0:0:0:
192,192,41729,1,0,0:0:0:0:
320,192,41847,1,0,0:0:0:0:
64,192,41847,1,0,0:0:0:0:
448,192,42081,1,0,0:0:0:0:
192,192,42198,1,0,0:0:0:0:
448,192,42315,1,0,0:0:0:0:
64,192,42315,1,0,0:0:0:0:
192,192,42432,1,0,0:0:0:0:
448,192,42550,1,0,0:0:0:0:
320,192,42784,1,0,0:0:0:0:
192,192,42901,1,0,0:0:0:0:
320,192,43018,1,0,0:0:0:0:
64,192,43136,1,0,0:0:0:0:
448,192,43253,1,0,0:0:0:0:
192,192,43253,1,0,0:0:0:0:
320,192,43487,1,0,0:0:0:0:
448,192,43722,1,0,0:0:0:0:
64,192,43722,1,0,0:0:0:0:
320,192,43839,1,0,0:0:0:0:
192,192,43956,1,0,0:0:0:0:
320,192,44073,1,0,0:0:0:0:
448,192,44190,1,0,0:0:0:0:
64,192,44190,1,0,0:0:0:0:
320,192,44307,1,0,0:0:0:0:
192,192,44425,1,0,0:0:0:0:
320,192,44659,1,0,0:0:0:0:
448,192,44659,1,0,0:0:0:0:
192,192,44776,1,0,0:0:0:0:
320,192,44893,1,0,0:0:0:0:
192,192,45011,1,0,0:0:0:0:
320,192,45128,1,0,0:0:0:0:
448,192,45128,1,0,0:0:0:0:
320,192,45362,1,0,0:0:0:0:
448,192,45362,1,0,0:0:0:0:
64,192,45479,1,0,0:0:0:0:
448,192,45597,1,0,0:0:0:0:
320,192,45597,1,0,0:0:0:0:
192,192,45831,1,0,0:0:0:0:
192,192,46065,1,0,0:0:0:0:
64,192,46182,1,0,0:0:0:0:
320,192,46300,1,0,0:0:0:0:
192,192,46417,1,0,0:0:0:0:
448,192,46534,1,0,0:0:0:0:
320,192,46768,1,0,0:0:0:0:
448,192,47003,1,0,0:0:0:0:
192,192,47237,1,0,0:0:0:0:
64,192,47354,1,0,0:0:0:0:
448,192,47472,1,0,0:0:0:0:
320,192,47589,1,0,0:0:0:0:
64,192,47706,1,0,0:0:0:0:
192,192,47823,1,0,0:0:0:0:
448,192,47940,1,0,0:0:0:0:
320,192,48057,1,0,0:0:0:0:
448,192,48175,1,0,0:0:0:0:
448,192,48409,1,0,0:0:0:0:
64,192,48409,1,0,0:0:0:0:
448,192,48643,1,0,0:0:0:0:
192,192,48643,1,0,0:0:0:0:
448,192,48878,1,0,0:0:0:0:
192,192,48878,1,0,0:0:0:0:
320,192,49112,1,0,0:0:0:0:
192,192,49229,1,0,0:0:0:0:
320,192,49347,1,0,0:0:0:0:
448,192,49347,1,0,0:0:0:0:
192,192,49464,1,0,0:0:0:0:
320,192,49581,1,0,0:0:0:0:
448,192,49698,1,0,0:0:0:0:
192,192,49815,1,0,0:0:0:0:
448,192,49932,1,0,0:0:0:0:
320,192,50050,1,0,0:0:0:0:
448,192,50167,1,0,0:0:0:0:
64,192,50284,1,0,0:0:0:0:
448,192,50401,1,0,0:0:0:0:
192,192,50636,1,0,0:0:0:0:
64,192,50753,1,0,0:0:0:0:
448,192,50987,1,0,0:0:0:0:
320,192,51104,1,0,0:0:0:0:
64,192,51222,1,0,0:0:0:0:
192,192,51339,1,0,0:0:0:0:
448,192,51456,1,0,0:0:0:0:
320,192,51573,1,0,0:0:0:0:
64,192,51690,1,0,0:0:0:0:
192,192,51807,1,0,0:0:0:0:
320,192,51925,1,0,0:0:0:0:
192,192,52159,1,0,0:0:0:0:
64,192,52159,1,0,0:0:0:0:
320,192,52276,1,0,0:0:0:0:
448,192,52393,1,0,0:0:0:0:
192,192,52393,1,0,0:0:0:0:
320,192,52628,1,0,0:0:0:0:
64,192,52628,1,0,0:0:0:0:
192,192,52862,1,0,0:0:0:0:
448,192,53097,1,0,0:0:0:0:
64,192,53097,1,0,0:0:0:0:
192,192,53214,1,0,0:0:0:0:
320,192,53331,1,0,0:0:0:0:
192,192,53448,1,0,0:0:0:0:
448,192,53565,1,0,0:0:0:0:
64,192,53565,1,0,0:0:0:0:
192,192,53682,1,0,0:0:0:0:
320,192,53800,1,0,0:0:0:0:
192,192,54034,1,0,0:0:0:0:
64,192,54034,1,0,0:0:0:0:
448,192,54151,1,0,0:0:0:0:
320,192,54268,1,0,0:0:0:0:
64,192,54386,1,0,0:0:0:0:
448,192,54503,1,0,0:0:0:0:
320,192,54503,1,0,0:0:0:0:
192,192,54737,1,0,0:0:0:0:
64,192,54972,1,0,0:0:0:0:
448,192,54972,1,0,0:0:0:0:
320,192,55089,1,0,0:0:0:0:
192,192,55206,1,0,0:0:0:0:
320,192,55323,1,0,0:0:0:0:
448,192,55440,1,0,0:0:0:0:
64,192,55440,1,0,0:0:0:0:
320,192,55557,1,0,0:0:0:0:
192,192,55675,1,0,0:0:0:0:
448,192,55909,1,0,0:0:0:0:
192,192,55909,1,0,0:0:0:0:
320,192,56143,1,0,0:0:0:0:
64,192,56143,1,0,0:0:0:0:
320,192,56378,1,0,0:0:0:0:
64,192,56378,1,0,0:0:0:0:
448,192,56612,1,0,0:0:0:0:
320,192,56729,1,0,0:0:0:0:
192,192,56847,1,0,0:0:0:0:
320,192,56964,1,0,0:0:0:0:
192,192,57081,1,0,0:0:0:0:
320,192,57198,1,0,0:0:0:0:
448,192,57315,1,0,0:0:0:0:
320,192,57432,1,0,0:0:0:0:
448,192,57550,1,0,0:0:0:0:
320,192,57667,1,0,0:0:0:0:
192,192,57784,1,0,0:0:0:0:
64,192,57784,1,0,0:0:0:0:
320,192,58018,1,0,0:0:0:0:
448,192,58136,1,0,0:0:0:0:
192,192,58253,1,0,0:0:0:0:
64,192,58253,1,0,0:0:0:0:
320,192,58487,1,0,0:0:0:0:
64,192,58487,1,0,0:0:0:0:
448,192,58722,1,0,0:0:0:0:
64,192,58722,1,0,0:0:0:0:
448,192,58878,1,0,0:0:0:0:
64,192,58878,1,0,0:0:0:0:
64,192,59034,1,0,0:0:0:0:
448,192,59034,1,0,0:0:0:0:
448,192,59190,1,0,0:0:0:0:
64,192,59190,1,0,0:0:0:0:
448,192,59347,1,0,0:0:0:0:
64,192,59347,1,0,0:0:0:0:
64,192,59503,1,0,0:0:0:0:
448,192,59503,1,0,0:0:0:0:
448,192,59659,1,0,0:0:0:0:
64,192,59659,1,0,0:0:0:0:
192,192,59776,1,0,0:0:0:0:
320,192,59893,1,0,0:0:0:0:
448,192,60011,1,0,0:0:0:0:
64,192,60128,1,0,0:0:0:0:
192,192,60362,1,0,0:0:0:0:
192,192,60479,1,0,0:0:0:0:
64,192,60597,1,0,0:0:0:0:
448,192,60597,1,0,0:0:0:0:
192,192,60948,1,0,0:0:0:0:
320,192,60948,1,0,0:0:0:0:
320,192,61300,1,0,0:0:0:0:
320,192,61534,1,0,0:0:0:0:
192,192,61768,1,0,0:0:0:0:
320,192,62003,1,0,0:0:0:0:
64,192,62237,1,0,0:0:0:0:
448,192,62472,1,0,0:0:0:0:
64,192,62706,1,0,0:0:0:0:
320,192,62823,1,0,0:0:0:0:
320,192,63057,1,0,0:0:0:0:
192,192,63175,1,0,0:0:0:0:
320,192,63292,1,0,0:0:0:0:
64,192,63409,1,0,0:0:0:0:
448,192,63409,1,0,0:0:0:0:
192,192,63643,1,0,0:0:0:0:
64,192,63761,1,0,0:0:0:0:
448,192,63761,1,0,0:0:0:0:
320,192,63878,1,0,0:0:0:0:
64,192,64112,1,0,0:0:0:0:
320,192,64112,1,0,0:0:0:0:
192,192,64229,1,0,0:0:0:0:
64,192,64347,1,0,0:0:0:0:
448,192,64347,1,0,0:0:0:0:
320,192,64698,1,0,0:0:0:0:
192,192,64815,1,0,0:0:0:0:
448,192,65284,1,0,0:0:0:0:
192,192,65518,1,0,0:0:0:0:
320,192,65753,1,0,0:0:0:0:
64,192,65987,1,0,0:0:0:0:
320,192,65987,1,0,0:0:0:0:
448,192,66222,1,0,0:0:0:0:
192,192,66222,1,0,0:0:0:0:
320,192,66456,1,0,0:0:0:0:
448,192,66573,1,0,0:0:0:0:
320,192,66690,1,0,0:0:0:0:
192,192,66690,1,0,0:0:0:0:
320,192,67159,1,0,0:0:0:0:
64,192,67159,1,0,0:0:0:0:
192,192,67393,1,0,0:0:0:0:
64,192,67511,1,0,0:0:0:0:
320,192,67511,1,0,0:0:0:0:
192,192,67628,1,0,0:0:0:0:
64,192,67745,1,0,0:0:0:0:
192,192,67862,1,0,0:0:0:0:
448,192,67862,1,0,0:0:0:0:
448,192,68097,1,0,0:0:0:0:
64,192,68097,1,0,0:0:0:0:
320,192,68331,1,0,0:0:0:0:
192,192,68565,1,0,0:0:0:0:
448,192,68800,1,0,0:0:0:0:
192,192,69034,1,0,0:0:0:0:
320,192,69268,1,0,0:0:0:0:
192,192,69503,1,0,0:0:0:0:
64,192,69737,1,0,0:0:0:0:
320,192,69737,1,0,0:0:0:0:
64,192,69972,1,0,0:0:0:0:
320,192,69972,1,0,0:0:0:0:
192,192,70206,1,0,0:0:0:0:
448,192,70323,1,0,0:0:0:0:
320,192,70440,1,0,0:0:0:0:
64,192,70557,1,0,0:0:0:0:
448,192,70675,1,0,0:0:0:0:
192,192,70792,1,0,0:0:0:0:
320,192,70909,1,0,0:0:0:0:
64,192,70909,1,0,0:0:0:0:
192,192,71143,1,0,0:0:0:0:
320,192,71261,1,0,0:0:0:0:
64,192,71261,1,0,0:0:0:0:
192,192,71612,1,0,0:0:0:0:
448,192,71612,1,0,0:0:0:0:
448,192,71847,1,0,0:0:0:0:
192,192,71847,1,0,0:0:0:0:
64,192,71964,1,0,0:0:0:0:
320,192,72081,1,0,0:0:0:0:
192,192,72315,1,0,0:0:0:0:
320,192,72550,1,0,0:0:0:0:
448,192,72784,1,0,0:0:0:0:
192,192,73018,1,0,0:0:0:0:
448,192,73253,1,0,0:0:0:0:
320,192,73487,1,0,0:0:0:0:
64,192,73487,1,0,0:0:0:0:
64,192,73722,1,0,0:0:0:0:
320,192,73722,1,0,0:0:0:0:
192,192,73839,1,0,0:0:0:0:
448,192,73956,1,0,0:0:0:0:
320,192,74073,1,0,0:0:0:0:
448,192,74190,1,0,0:0:0:0:
320,192,74307,1,0,0:0:0:0:
64,192,74425,1,0,0:0:0:0:
64,192,74659,1,0,0:0:0:0:
448,192,74776,1,0,0:0:0:0:
64,192,74893,1,0,0:0:0:0:
448,192,75011,1,0,0:0:0:0:
320,192,75128,128,0,75597:0:0:0:0:
64,192,75597,1,0,0:0:0:0:
448,192,75597,1,0,0:0:0:0:
320,192,75831,1,0,0:0:0:0:
192,192,76065,1,0,0:0:0:0:
320,192,76300,1,0,0:0:0:0:
192,192,76534,1,0,0:0:0:0:
320,192,76534,1,0,0:0:0:0:
448,192,76768,1,0,0:0:0:0:
320,192,76886,1,0,0:0:0:0:
192,192,77003,1,0,0:0:0:0:
64,192,77003,1,0,0:0:0:0:
320,192,77237,1,0,0:0:0:0:
448,192,77472,1,0,0:0:0:0:
64,192,77472,1,0,0:0:0:0:
320,192,77706,1,0,0:0:0:0:
192,192,77940,1,0,0:0:0:0:
320,192,78175,1,0,0:0:0:0:
320,192,78409,1,0,0:0:0:0:
192,192,78409,1,0,0:0:0:0:
64,192,78643,1,0,0:0:0:0:
192,192,78761,1,0,0:0:0:0:
320,192,78878,1,0,0:0:0:0:
448,192,78878,1,0,0:0:0:0:
192,192,79112,1,0,0:0:0:0:
320,192,79229,1,0,0:0:0:0:
448,192,79347,1,0,0:0:0:0:
64,192,79347,1,0,0:0:0:0:
320,192,79581,1,0,0:0:0:0:
192,192,79815,1,0,0:0:0:0:
448,192,80050,1,0,0:0:0:0:
320,192,80284,1,0,0:0:0:0:
192,192,80284,1,0,0:0:0:0:
320,192,80518,1,0,0:0:0:0:
64,192,80636,1,0,0:0:0:0:
448,192,80753,1,0,0:0:0:0:
192,192,80753,1,0,0:0:0:0:
320,192,80987,1,0,0:0:0:0:
64,192,81222,1,0,0:0:0:0:
448,192,81222,1,0,0:0:0:0:
192,192,81456,1,0,0:0:0:0:
320,192,81573,1,0,0:0:0:0:
192,192,81690,1,0,0:0:0:0:
320,192,81925,1,0,0:0:0:0:
192,192,82159,1,0,0:0:0:0:
320,192,82159,1,0,0:0:0:0:
320,192,82393,1,0,0:0:0:0:
192,192,82511,1,0,0:0:0:0:
448,192,82628,1,0,0:0:0:0:
64,192,82628,1,0,0:0:0:0:
192,192,82862,1,0,0:0:0:0:
320,192,82862,1,0,0:0:0:0:
320,192,83097,1,0,0:0:0:0:
64,192,83097,1,0,0:0:0:0:
192,192,83331,1,0,0:0:0:0:
320,192,83565,1,0,0:0:0:0:
64,192,83800,1,0,0:0:0:0:
192,192,84034,1,0,0:0:0:0:
320,192,84034,1,0,0:0:0:0:
448,192,84268,1,0,0:0:0:0:
192,192,84386,1,0,0:0:0:0:
320,192,84503,1,0,0:0:0:0:
64,192,84503,1,0,0:0:0:0:
320,192,84737,1,0,0:0:0:0:
192,192,84972,1,0,0:0:0:0:
448,192,84972,1,0,0:0:0:0:
320,192,85206,1,0,0:0:0:0:
192,192,85440,1,0,0:0:0:0:
64,192,85440,1,0,0:0:0:0:
448,192,85675,1,0,0:0:0:0:
192,192,85909,1,0,0:0:0:0:
320,192,85909,1,0,0:0:0:0:
192,192,86143,1,0,0:0:0:0:
320,192,86261,1,0,0:0:0:0:
448,192,86378,1,0,0:0:0:0:
64,192,86378,1,0,0:0:0:0:
320,192,86612,1,0,0:0:0:0:
192,192,86729,1,0,0:0:0:0:
320,192,86847,1,0,0:0:0:0:
448,192,86847,1,0,0:0:0:0:
192,192,87081,1,0,0:0:0:0:
320,192,87315,1,0,0:0:0:0:
64,192,87315,1,0,0:0:0:0:
448,192,87550,1,0,0:0:0:0:
192,192,87784,1,0,0:0:0:0:
320,192,87784,1,0,0:0:0:0:
448,192,88018,1,0,0:0:0:0:
64,192,88136,1,0,0:0:0:0:
192,192,88253,1,0,0:0:0:0:
448,192,88253,1,0,0:0:0:0:
320,192,88487,1,0,0:0:0:0:
192,192,88722,1,0,0:0:0:0:
320,192,88839,1,0,0:0:0:0:
192,192,88956,1,0,0:0:0:0:
320,192,89073,1,0,0:0:0:0:
192,192,89190,1,0,0:0:0:0:
320,192,89307,1,0,0:0:0:0:
192,192,89425,1,0,0:0:0:0:
320,192,89542,1,0,0:0:0:0:
448,192,89659,1,0,0:0:0:0:
64,192,89659,1,0,0:0:0:0:
192,192,89893,1,0,0:0:0:0:
320,192,90011,1,0,0:0:0:0:
448,192,90128,1,0,0:0:0:0:
192,192,90128,1,0,0:0:0:0:
320,192,90362,1,0,0:0:0:0:
192,192,90479,1,0,0:0:0:0:
64,192,90597,1,0,0:0:0:0:
448,192,90597,1,0,0:0:0:0:
320,192,90831,1,0,0:0:0:0:
448,192,91065,1,0,0:0:0:0:
192,192,91065,1,0,0:0:0:0:
320,192,91182,1,0,0:0:0:0:
192,192,91300,1,0,0:0:0:0:
64,192,91534,1,0,0:0:0:0:
320,192,91651,1,0,0:0:0:0:
64,192,91768,1,0,0:0:0:0:
320,192,91886,1,0,0:0:0:0:
64,192,92003,1,0,0:0:0:0:
448,192,92003,1,0,0:0:0:0:
192,192,92237,1,0,0:0:0:0:
64,192,92237,1,0,0:0:0:0:
320,192,92354,1,0,0:0:0:0:
64,192,92472,1,0,0:0:0:0:
448,192,92472,1,0,0:0:0:0:
192,192,92706,1,0,0:0:0:0:
320,192,92940,1,0,0:0:0:0:
448,192,92940,1,0,0:0:0:0:
192,192,93057,1,0,0:0:0:0:
64,192,93175,1,0,0:0:0:0:
64,192,93409,1,0,0:0:0:0:
192,192,93526,1,0,0:0:0:0:
64,192,93643,1,0,0:0:0:0:
192,192,93761,1,0,0:0:0:0:
192,192,93878,1,0,0:0:0:0:
64,192,93936,1,0,0:0:0:0:
448,192,93995,1,0,0:0:0:0:
320,192,94054,1,0,0:0:0:0:
192,192,94112,1,0,0:0:0:0:
64,192,94171,1,0,0:0:0:0:
448,192,94229,1,0,0:0:0:0:
320,192,94288,1,0,0:0:0:0:
448,192,94347,1,0,0:0:0:0:
64,192,94347,1,0,0:0:0:0:
192,192,94581,1,0,0:0:0:0:
448,192,94815,1,0,0:0:0:0:
64,192,94815,1,0,0:0:0:0:
320,192,94932,1,0,0:0:0:0:
192,192,95050,1,0,0:0:0:0:
448,192,95284,1,0,0:0:0:0:
192,192,95401,1,0,0:0:0:0:
448,192,95518,1,0,0:0:0:0:
192,192,95636,1,0,0:0:0:0:
448,192,95753,1,0,0:0:0:0:
320,192,95753,1,0,0:0:0:0:
320,192,95987,1,0,0:0:0:0:
192,192,95987,1,0,0:0:0:0:
448,192,96222,1,0,0:0:0:0:
64,192,96222,1,0,0:0:0:0:
320,192,96456,1,0,0:0:0:0:
192,192,96573,1,0,0:0:0:0:
448,192,96690,1,0,0:0:0:0:
64,192,96690,1,0,0:0:0:0:
320,192,96807,1,0,0:0:0:0:
448,192,96925,1,0,0:0:0:0:
64,192,97042,1,0,0:0:0:0:
448,192,97159,1,0,0:0:0:0:
192,192,97159,1,0,0:0:0:0:
320,192,97276,1,0,0:0:0:0:
64,192,97393,1,0,0:0:0:0:
320,192,97511,1,0,0:0:0:0:
448,192,97628,1,0,0:0:0:0:
192,192,97628,1,0,0:0:0:0:
320,192,97862,1,0,0:0:0:0:
192,192,97979,1,0,0:0:0:0:
448,192,98097,1,0,0:0:0:0:
320,192,98097,1,0,0:0:0:0:
64,192,98214,1,0,0:0:0:0:
192,192,98331,1,0,0:0:0:0:
64,192,98448,1,0,0:0:0:0:
320,192,98565,1,0,0:0:0:0:
448,192,98565,1,0,0:0:0:0:
192,192,98682,1,0,0:0:0:0:
448,192,98800,1,0,0:0:0:0:
64,192,98917,1,0,0:0:0:0:
192,192,99034,1,0,0:0:0:0:
448,192,99034,1,0,0:0:0:0:
320,192,99151,1,0,0:0:0:0:
192,192,99268,1,0,0:0:0:0:
320,192,99386,1,0,0:0:0:0:
448,192,99503,1,0,0:0:0:0:
64,192,99620,1,0,0:0:0:0:
320,192,99737,1,0,0:0:0:0:
192,192,99854,1,0,0:0:0:0:
448,192,99972,1,0,0:0:0:0:
64,192,99972,1,0,0:0:0:0:
320,192,100206,1,0,0:0:0:0:
192,192,100323,128,0,100440:0:0:0:0:
320,192,100557,128,0,100675:0:0:0:0:
64,192,100792,128,0,100909:0:0:0:0:
320,192,101026,1,0,0:0:0:0:
448,192,101143,1,0,0:0:0:0:
320,192,101261,1,0,0:0:0:0:
192,192,101378,1,0,0:0:0:0:
64,192,101378,1,0,0:0:0:0:
448,192,101495,1,0,0:0:0:0:
64,192,101612,1,0,0:0:0:0:
192,192,101729,1,0,0:0:0:0:
64,192,101847,1,0,0:0:0:0:
448,192,101847,1,0,0:0:0:0:
320,192,102081,1,0,0:0:0:0:
448,192,102081,1,0,0:0:0:0:
192,192,102198,1,0,0:0:0:0:
448,192,102315,1,0,0:0:0:0:
64,192,102315,1,0,0:0:0:0:
192,192,102432,128,0,102550:0:0:0:0:
320,192,102667,128,0,102784:0:0:0:0:
192,192,102901,1,0,0:0:0:0:
448,192,103018,1,0,0:0:0:0:
320,192,103136,1,0,0:0:0:0:
192,192,103253,1,0,0:0:0:0:
448,192,103253,1,0,0:0:0:0:
64,192,103370,1,0,0:0:0:0:
192,192,103487,1,0,0:0:0:0:
448,192,103487,1,0,0:0:0:0:
320,192,103604,1,0,0:0:0:0:
64,192,103722,1,0,0:0:0:0:
448,192,103722,1,0,0:0:0:0:
320,192,103956,1,0,0:0:0:0:
192,192,104073,1,0,0:0:0:0:
64,192,104190,1,0,0:0:0:0:
320,192,104190,1,0,0:0:0:0:
448,192,104307,1,0,0:0:0:0:
192,192,104425,1,0,0:0:0:0:
320,192,104542,1,0,0:0:0:0:
64,192,104659,1,0,0:0:0:0:
448,192,104659,1,0,0:0:0:0:
448,192,104815,1,0,0:0:0:0:
64,192,104815,1,0,0:0:0:0:
64,192,104972,1,0,0:0:0:0:
448,192,104972,1,0,0:0:0:0:
320,192,105128,1,0,0:0:0:0:
192,192,105128,1,0,0:0:0:0:
