osu file format v14

[General]
AudioFilename: Smile F.mp3
AudioLeadIn: 0
PreviewTime: 47605
Countdown: 0
SampleSet: Soft
StackLeniency: 0.7
Mode: 0
LetterboxInBreaks: 0
WidescreenStoryboard: 0

[Editor]
DistanceSpacing: 1
BeatDivisor: 2
GridSize: 4
TimelineZoom: 1.2

[Metadata]
Title:Smile F
TitleUnicode:スマイルF
Artist:Utakano
ArtistUnicode:うたカノ♪
Creator:DreaM117er
Version:Normal
Source:フォトカノ
Tags:Photokano ENTERBRAIN 新見 遙佳 Niimi Haruka 室戸 亜岐 Muroto Aki 早倉 舞衣 Sakura Mai 実原 氷里 Sanehara Hikari 間咲 ののか Masaki Nonoka 柚ノ木 梨奈 Yunoki Rina 伊藤 かな恵 Itou kanae 中原 麻衣 Nakahara Mai 金元 寿子 Kanemoto Hisako 水橋 かおり Mizuhashi Kaori 斎藤 千和 Saitou Chiwa 大亀 あすか Oogame Asuka 沢城 みゆき Sawashiro Miyuki tv size m1223961117
BeatmapID:328327
BeatmapSetID:121672

[Difficulty]
HPDrainRate:4
CircleSize:3
OverallDifficulty:4
ApproachRate:5
SliderMultiplier:1.1
SliderTickRate:1

[Events]
//Background and Video events
0,0,"BG.jpg",0,0
Video,-113,"VDO.avi"
//Break Periods
//Storyboard Layer 0 (Background)
//Storyboard Layer 1 (Fail)
//Storyboard Layer 2 (Pass)
//Storyboard Layer 3 (Foreground)
//Storyboard Sound Samples

[TimingPoints]
914,451.127819548872,4,2,1,30,1,0
47154,-100,4,2,1,50,0,0
47831,-100,4,2,1,40,0,1
61816,-100,4,2,1,40,0,0
62267,-100,4,2,1,40,0,1
80312,-100,4,2,1,30,0,0
89109,-100,4,2,1,5,0,0

[Colours]
Combo1 : 95,123,237
Combo2 : 251,89,134
Combo3 : 91,174,219
Combo4 : 232,151,225

[HitObjects]
96,88,913,6,0,P|137:54|191:60,1,110,4|0,0:0|0:0,0:0:0:0:
239,88,1590,1,2,0:0:0:0:
239,88,1816,2,0,P|293:83|348:76,1,110
456,100,2718,2,0,P|451:58|448:8,2,82.5,2|2|2,0:0|0:0|0:0,0:0:0:0:
495,140,3620,2,0,P|488:198|487:268,1,110,2|2,0:0|0:0,0:0:0:0:
439,348,4523,6,0,P|391:312|339:316,1,110,2|0,0:0|0:0,0:0:0:0:
295,340,5199,1,2,0:0:0:0:
295,340,5425,2,0,P|240:334|185:331,2,110
319,232,6778,1,2,0:0:0:0:
227,172,7229,2,0,P|195:176|147:176,1,55,2|0,0:0|0:0,0:0:0:0:
124,152,7680,2,0,P|92:148|44:148,1,55,0|2,0:0|0:0,0:0:0:0:
16,156,8132,6,0,P|24:220|28:280,1,110,4|0,0:0|0:0,0:0:0:0:
28,320,8808,1,2,0:0:0:0:
28,320,9034,2,0,P|84:313|152:312,1,110
240,352,9936,2,0,P|316:308|400:336,2,165,2|2|0,0:0|0:0|0:0,0:0:0:0:
136,312,11741,6,0,P|132:252|124:176,1,110,2|0,0:0|0:0,0:0:0:0:
116,148,12417,1,2,0:0:0:0:
116,148,12643,2,0,P|61:155|4:116,1,110
76,40,13545,2,0,P|136:36|212:24,1,110,2|0,0:0|0:0,0:0:0:0:
288,64,14447,2,0,P|342:56|397:53,1,110,2|0,0:0|0:0,0:0:0:0:
508,72,15350,6,0,P|480:128|500:204,1,110,4|0,0:0|0:0,0:0:0:0:
512,220,16026,1,2,0:0:0:0:
512,220,16252,2,0,P|504:284|500:348,1,110
396,368,17154,1,2,0:0:0:0:
320,288,17605,1,0,0:0:0:0:
224,340,18056,2,0,P|192:344|156:344,1,55,2|0,0:0|0:0,0:0:0:0:
124,312,18507,2,0,P|92:308|56:308,1,55
16,312,18959,6,0,P|12:244|4:176,1,110
76,116,19861,2,0,P|116:148|188:144,1,110,2|0,0:0|0:0,0:0:0:0:
224,132,20538,2,0,P|228:64|236:-4,2,110,2|2|2,0:0|0:0|0:0,0:0:0:0:
224,240,21891,1,2,0:0:0:0:
224,240,22117,2,0,P|268:214|348:228,1,110,2|0,0:0|0:0,0:0:0:0:
412,284,23019,5,0,0:0:0:0:
412,284,23244,2,0,P|416:208|420:160,1,110,2|2,0:0|0:0,0:0:0:0:
428,120,23921,1,0,0:0:0:0:
348,44,24372,2,0,P|292:50|224:56,1,110,2|0,0:0|0:0,0:0:0:0:
136,96,25274,2,0,L|60:88,2,55,2|0|0,0:0|0:0|0:0,0:0:0:0:
228,160,26177,6,0,P|292:157|336:196,1,110
388,276,27079,2,0,P|333:279|278:287,1,110,2|0,0:0|0:0,0:0:0:0:
240,324,27756,2,0,P|185:316|130:312,1,110,2|2,0:0|0:0,0:0:0:0:
20,324,28658,2,0,P|16:264|8:188,1,110,2|2,0:0|0:0,0:0:0:0:
4,160,29335,1,2,0:0:0:0:
52,60,29786,6,0,P|94:85|171:78,1,110,4|8,0:0|0:0,0:0:0:0:
256,40,30688,2,0,P|312:32|372:28,1,110,0|8,0:0|0:0,0:0:0:0:
472,52,31590,1,0,0:0:0:0:
508,156,32041,2,0,P|502:219|500:292,1,110,8|0,0:0|0:0,0:0:0:0:
424,344,32944,1,8,0:0:0:0:
316,316,33395,1,0,0:0:0:0:
208,340,33846,5,8,0:0:0:0:
208,340,34071,2,0,P|140:312|92:320,1,110
52,336,34748,1,8,0:0:0:0:
52,336,34974,2,0,P|48:264|44:216,1,110
72,120,35876,2,0,P|136:120|200:104,1,110
232,88,36553,1,8,0:0:0:0:
332,40,37004,6,0,P|378:68|452:64,1,110,0|8,0:0|0:0,0:0:0:0:
484,56,37680,2,0,P|480:109|476:192,1,110
480,220,38357,1,8,0:0:0:0:
480,220,38583,2,0,P|404:212|320:280,1,165,0|8,0:0|0:0,0:0:0:0:
312,308,39485,1,0,0:0:0:0:
204,284,39936,2,0,P|200:248|196:216,2,55,0|8|0,0:0|0:0|0:0,0:0:0:0:
196,340,40613,6,0,P|132:332|68:328,1,110,0|8,0:0|0:0,0:0:0:0:
32,340,41289,1,0,0:0:0:0:
32,340,41515,2,0,P|29:281|21:216,1,110,0|8,0:0|0:0,0:0:0:0:
125,190,42417,2,0,P|118:135|117:80,1,110,0|8,0:0|0:0,0:0:0:0:
124,24,43094,1,0,0:0:0:0:
124,24,43320,2,0,P|180:44|244:32,1,110,0|8,0:0|0:0,0:0:0:0:
328,84,44222,6,0,P|396:76|468:72,1,110,4|0,0:0|0:0,0:0:0:0:
492,80,44898,2,0,P|486:140|484:208,1,110
488,300,45801,1,0,0:0:0:0:
392,244,46252,1,0,0:0:0:0:
392,244,46477,2,0,P|320:236|236:304,1,165,0|8,0:0|0:0,0:0:0:0:
228,340,47380,1,8,0:1:0:0:
120,324,47831,6,0,P|117:270|108:195,1,110,4|8,0:0|0:0,0:0:0:0:
104,160,48507,2,0,P|156:180|232:160,1,110
252,140,49184,1,8,0:0:0:0:
320,52,49635,2,0,P|376:44|448:40,1,110,8|8,0:0|0:0,0:0:0:0:
484,44,50312,2,0,P|480:104|476:168,1,110
476,208,50989,1,8,0:1:0:0:
440,312,51440,6,0,P|384:280|328:288,1,110,8|8,0:0|0:0,0:0:0:0:
292,308,52117,2,0,P|230:300|172:296,1,110
128,296,52793,1,8,0:0:0:0:
28,340,53244,2,0,P|24:272|17:207,1,110,8|8,0:0|0:0,0:0:0:0:
12,176,53921,1,0,0:0:0:0:
80,92,54372,2,0,P|81:60|85:24,2,55,0|8|0,0:0|0:1|0:0,0:0:0:0:
96,144,55049,6,0,P|152:120|212:140,1,110,8|8,0:0|0:0,0:0:0:0:
236,168,55726,2,0,P|230:230|228:300,1,110
228,332,56402,1,8,0:0:0:0:
332,364,56853,2,0,P|376:340|448:344,1,110,8|8,0:0|0:0,0:0:0:0:
488,356,57530,2,0,P|490:301|495:246,1,110
508,192,58207,1,8,0:1:0:0:
452,96,58658,6,0,P|482:90|512:88,2,55,8|0|8,0:0|0:0|0:0,0:0:0:0:
408,132,59335,2,0,P|353:125|292:120,1,110
244,120,60011,1,8,0:0:0:0:
168,40,60462,2,0,P|119:64|64:64,1,110,8|8,0:0|0:0,0:0:0:0:
12,44,61139,1,0,0:0:0:0:
12,44,61365,2,0,P|17:115|18:175,1,110,8|8,0:0|0:1,0:0:0:0:
120,200,62267,6,0,P|114:271|113:331,1,110,4|8,0:0|0:0,0:0:0:0:
128,364,62944,2,0,P|180:340|256:352,1,110
284,364,63620,1,8,0:0:0:0:
316,260,64071,2,0,P|376:268|444:272,1,110,8|8,0:0|0:0,0:0:0:0:
479,272,64748,2,0,P|503:223|498:169,1,110
472,120,65425,1,8,0:1:0:0:
372,72,65876,6,0,L|364:8,2,55,8|0|8,0:0|0:0|0:0,0:0:0:0:
340,116,66553,2,0,P|334:187|333:247,1,110
336,280,67229,1,8,0:0:0:0:
268,368,67680,2,0,P|220:332|164:332,1,110,8|8,0:0|0:0,0:0:0:0:
120,352,68357,2,0,P|118:297|112:242,1,110
104,188,69034,1,8,0:1:0:0:
152,88,69485,6,0,P|206:95|261:100,1,110,8|8,0:0|0:0,0:0:0:0:
364,56,70387,2,0,P|432:64|468:116,1,110,8|8,0:0|0:0,0:0:0:0:
492,196,71289,2,0,P|488:250|484:332,1,110,8|8,0:0|0:0,0:0:0:0:
488,360,71966,1,0,0:0:0:0:
488,360,72192,2,0,P|432:352|364:348,1,110,8|8,0:0|0:1,0:0:0:0:
268,360,73094,6,0,P|276:300|236:236,1,110,4|8,0:0|0:0,0:0:0:0:
212,220,73771,2,0,P|157:223|102:231,1,110
52,252,74447,1,8,0:0:0:0:
8,152,74898,2,0,P|14:89|16:24,1,110,8|8,0:0|0:0,0:0:0:0:
124,24,75801,2,0,P|118:87|116:152,1,110,8|8,0:0|0:1,0:0:0:0:
152,240,76703,5,0,0:0:0:0:
152,240,76929,2,0,P|224:228|280:264,1,110
336,316,77831,2,0,P|340:348|344:396,2,55,0|8|0,0:0|0:0|0:0,0:0:0:0:
368,272,78507,2,0,P|370:217|375:162,1,110,8|8,0:0|0:1,0:0:0:0:
384,108,79184,2,0,P|312:120|256:88,1,110
244,64,79861,1,8,0:1:0:0:
140,84,80312,6,0,P|145:140|148:212,1,110,4|8,0:0|0:0,0:0:0:0:
140,304,81214,2,0,P|194:300|252:336,1,110,8|8,0:0|0:1,0:0:0:0:
352,304,82117,2,0,P|411:311|484:316,2,110,8|8|8,0:0|0:0|0:0,0:0:0:0:
242,326,83470,1,8,0:1:0:0:
184,232,83921,6,0,P|180:168|200:108,1,110,8|8,0:0|0:0,0:0:0:0:
224,80,84598,1,0,0:0:0:0:
224,80,84823,2,0,P|175:73|106:68,1,110,8|8,0:0|0:1,0:0:0:0:
24,128,85726,2,0,P|30:176|35:245,1,110,8|8,0:0|0:0,0:0:0:0:
112,316,86628,2,0,P|108:350|108:380,2,55,8|0|8,0:0|0:0|1:1,0:0:0:0:
256,192,87530,12,0,89109,0:0:0:0:
