osu file format v14

[General]
AudioFilename: maware_192k.mp3
AudioLeadIn: 0
PreviewTime: 119585
Countdown: 0
SampleSet: None
StackLeniency: 0.3
Mode: 0
LetterboxInBreaks: 0
WidescreenStoryboard: 1

[Editor]
Bookmarks: 523,33523,58273,82648,119773,144523,168523,192523,223273,255523,280273
DistanceSpacing: 0.9
BeatDivisor: 4
GridSize: 32
TimelineZoom: 1.9

[Metadata]
Title:Maware! Setsugetsuka
TitleUnicode:回レ!雪月花
Artist:Utagumi Setsugetsuka
ArtistUnicode:歌組雪月花
Creator:Moecho
Version:wkyik :3
Source:機巧少女は傷つかない
Tags:Unbreakable Kikou Machine-Doll Girl wa Kizutsukanai Ogura Yui 小倉唯 Kayano Ai 茅野愛衣 Harada Hitomi 原田ひとみ Yaya 夜々 Komurasaki 小紫 Irori いろり
BeatmapID:661099
BeatmapSetID:292619

[Difficulty]
HPDrainRate:6.5
CircleSize:4
OverallDifficulty:7
ApproachRate:9.2
SliderMultiplier:1.8
SliderTickRate:1

[Events]
//Background and Video events
0,0,"bg.jpg",0,0
//Break Periods
//Storyboard Layer 0 (Background)
//Storyboard Layer 1 (Fail)
//Storyboard Layer 2 (Pass)
//Storyboard Layer 3 (Foreground)
//Storyboard Sound Samples

[TimingPoints]
523,375,4,2,0,60,1,0
281023,-55.5555555555556,4,2,0,60,0,1
291710,-66.6666666666667,4,2,0,60,0,1
292273,-55.5555555555556,4,2,0,60,0,1
293023,-55.5555555555556,4,2,0,60,0,1
303523,-66.6666666666667,4,2,0,60,0,0
303898,-83.3333333333333,4,2,0,60,0,0
304273,-100,4,2,0,60,0,0
305023,-100,4,2,0,60,0,1
316648,-100,4,2,0,60,0,0

[HitObjects]
96,96,281023,6,0,L|112:288,1,161.999995056153
212,288,281304,2,0,L|198:126,1,161.999995056153
436,100,281585,2,0,P|388:144|272:116,1,161.999995056153
252,48,281866,2,0,P|174:36|112:85,1,161.999995056153
108,232,282148,2,0,P|76:232|20:248,2,80.9999975280763
280,340,282429,6,0,P|296:260|236:204,1,161.999995056153
80,252,282710,2,0,P|141:305|219:281,1,161.999995056153
312,360,282991,2,0,B|368:352|368:352|416:360|416:360|484:348,1,161.999995056153
440,248,283273,6,0,P|452:200|444:148,1,80.9999975280763
336,108,283460,2,0,P|324:156|332:208,1,80.9999975280763
440,44,283648,1,0,0:0:0:0:
232,80,283835,1,0,0:0:0:0:
152,60,283929,1,0,0:0:0:0:
72,44,284023,6,0,B|80:100|80:100|60:148|60:148|68:216,1,161.999995056153
256,264,284398,1,0,0:0:0:0:
120,344,284585,1,0,0:0:0:0:
392,344,284773,5,0,0:0:0:0:
336,108,284960,1,0,0:0:0:0:
336,108,285054,2,0,P|292:164|296:260,1,161.999995056153
392,344,285335,2,0,P|440:348|488:320,1,80.9999975280763
456,192,285523,6,0,P|408:188|360:216,1,80.9999975280763
256,264,285710,2,0,P|216:269|178:255,1,80.9999975280763
24,120,285898,2,0,P|61:106|101:111,1,80.9999975280763
223,175,286085,2,0,P|260:188|300:183,1,80.9999975280763
428,108,286273,1,0,0:0:0:0:
128,36,286460,5,0,0:0:0:0:
61,76,286553,1,0,0:0:0:0:
60,153,286647,1,0,0:0:0:0:
126,194,286741,1,0,0:0:0:0:
196,159,286835,1,0,0:0:0:0:
276,148,286929,1,0,0:0:0:0:
352,176,287023,6,0,P|396:224|372:348,1,161.999995056153
264,360,287304,2,0,P|220:312|244:188,1,161.999995056153
304,68,287585,2,0,L|288:264,1,161.999995056153
136,328,287866,2,0,L|152:132,1,161.999995056153
168,60,288148,6,0,P|112:72|64:96,2,80.9999975280763
260,136,288429,2,0,P|316:148|384:64,1,161.999995056153
480,144,288710,2,0,P|441:186|480:287,1,161.999995056153
360,328,288991,2,0,P|342:273|235:256,1,161.999995056153
136,328,289273,6,0,P|144:268|160:216,1,80.9999975280763
244,172,289460,2,0,P|236:112|220:60,1,80.9999975280763
132,32,289648,1,0,0:0:0:0:
32,160,289835,1,0,0:0:0:0:
40,240,289929,1,0,0:0:0:0:
48,320,290023,6,0,B|112:308|112:308|168:316|168:316|232:308,1,161.999995056153
264,256,290304,1,0,0:0:0:0:
336,292,290398,2,0,P|360:228|308:132,1,161.999995056153
180,104,290679,1,0,0:0:0:0:
112,148,290773,6,0,P|88:196|180:284,1,161.999995056153
371,280,291054,2,0,P|422:222|400:148,1,161.999995056153
256,36,291335,2,0,L|256:136,1,80.9999975280763
256,200,291523,5,0,0:0:0:0:
40,348,291710,2,0,L|116:340,1,67.5000025749208
156,248,291898,2,0,L|80:256,1,67.5000025749208
184,368,292085,2,0,L|260:360,1,67.5000025749208
344,284,292273,5,0,0:0:0:0:
384,204,292366,1,0,0:0:0:0:
360,120,292460,1,0,0:0:0:0:
280,80,292554,1,0,0:0:0:0:
208,140,292648,6,0,P|232:184|292:212,1,80.9999975280763
384,204,292835,2,0,P|434:205|488:167,1,80.9999975280763
460,316,293023,6,0,L|284:308,1,161.999995056153
232,248,293304,1,0,0:0:0:0:
180,320,293398,2,0,P|132:320|80:224,1,161.999995056153
148,76,293679,1,0,0:0:0:0:
228,36,293773,6,0,L|216:212,1,161.999995056153
212,288,294054,2,0,L|65:189,1,161.999995056153
8,140,294335,2,0,L|134:77,1,80.9999975280763
320,72,294523,6,0,L|308:248,1,161.999995056153
288,320,294804,1,0,0:0:0:0:
364,368,294898,2,0,P|440:376|500:288,1,161.999995056153
452,144,295179,1,0,0:0:0:0:
392,208,295273,6,0,L|208:196,1,161.999995056153
8,140,295554,2,0,L|192:128,1,161.999995056153
320,72,295835,2,0,L|327:182,1,80.9999975280763
346,277,296023,6,0,P|424:285|472:224,1,161.999995056153
452,144,296304,1,0,0:0:0:0:
404,68,296398,2,0,L|224:52,1,161.999995056153
88,148,296773,6,0,P|60:224|96:312,1,161.999995056153
184,352,297054,2,0,P|263:338|322:263,1,161.999995056153
332,168,297335,2,0,P|280:105|185:92,1,161.999995056153
76,188,297710,5,0,0:0:0:0:
156,312,297898,1,0,0:0:0:0:
260,128,298085,1,0,0:0:0:0:
416,280,298273,6,0,L|396:376,1,80.9999975280763
332,168,298460,2,0,L|312:264,1,80.9999975280763
192,252,298648,2,0,L|172:348,1,80.9999975280763
92,108,298835,2,0,L|72:204,1,80.9999975280763
224,36,299023,5,0,0:0:0:0:
304,24,299116,1,0,0:0:0:0:
368,72,299210,1,0,0:0:0:0:
448,60,299303,1,0,0:0:0:0:
512,112,299398,6,0,L|492:284,1,161.999995056153
388,356,299679,1,0,0:0:0:0:
336,296,299773,6,0,P|280:288|172:344,1,161.999995056153
72,328,300054,2,0,P|106:283|112:161,1,161.999995056153
172,80,300335,2,0,P|186:116|258:162,1,80.9999975280763
328,92,300523,6,0,L|312:300,1,161.999995056153
384,312,300804,1,0,0:0:0:0:
312,364,300898,2,0,P|224:376|140:288,1,161.999995056153
88,296,301179,1,0,0:0:0:0:
88,208,301273,6,0,L|256:196,1,161.999995056153
472,280,301554,2,0,L|304:268,1,161.999995056153
180,172,301835,2,0,L|188:84,1,80.9999975280763
256,32,302023,5,0,0:0:0:0:
400,132,302210,2,0,P|412:76|428:36,1,80.9999975280763
408,156,302398,2,0,P|344:144|232:208,1,161.999995056153
212,256,302679,1,0,0:0:0:0:
236,340,302773,6,0,L|328:332,1,80.9999975280763
124,240,302960,2,0,L|32:248,1,80.9999975280763
184,136,303148,5,0,0:0:0:0:
184,46,303242,1,0,0:0:0:0:
99,19,303336,1,0,0:0:0:0:
46,91,303430,1,0,0:0:0:0:
99,163,303523,6,0,L|316:140,1,202.500007724762
336,160,303898,2,0,L|162:178,1,161.999995056153
156,204,304273,2,0,L|312:187,1,135
356,236,304648,5,0,0:0:0:0:
356,236,304741,1,0,0:0:0:0:
356,236,304835,1,0,0:0:0:0:
356,236,304929,1,0,0:0:0:0:
356,236,305023,6,0,P|336:304|344:344,1,90
220,140,305398,2,0,P|240:208|232:248,1,90
124,352,305773,1,0,0:0:0:0:
284,288,305960,1,0,0:0:0:0:
156,204,306148,1,0,0:0:0:0:
300,92,306335,1,0,0:0:0:0:
300,92,306429,1,0,0:0:0:0:
300,92,306523,6,0,P|352:100|404:112,1,90
480,212,306898,2,0,P|428:220|376:232,1,90
268,188,307273,1,0,0:0:0:0:
384,324,307460,1,0,0:0:0:0:
256,368,307648,1,0,0:0:0:0:
324,168,307835,2,0,L|316:240,1,45
312,292,308023,6,0,P|260:284|200:280,1,90
48,352,308398,2,0,P|100:344|160:340,1,90
248,200,308773,2,0,P|243:155|236:110,1,90
160,48,309148,1,0,0:0:0:0:
96,164,309335,1,0,0:0:0:0:
200,288,309523,6,0,P|260:300|348:228,2,180
32,252,310460,1,0,0:0:0:0:
32,252,310554,1,0,0:0:0:0:
32,252,310648,2,0,L|40:344,1,90
148,172,311023,5,0,0:0:0:0:
32,144,311210,1,0,0:0:0:0:
236,76,311398,1,0,0:0:0:0:
120,48,311585,1,0,0:0:0:0:
264,200,311773,5,0,0:0:0:0:
148,172,311960,1,0,0:0:0:0:
352,104,312148,1,0,0:0:0:0:
236,76,312335,1,0,0:0:0:0:
384,232,312523,5,0,0:0:0:0:
480,148,312710,1,0,0:0:0:0:
316,12,312898,1,0,0:0:0:0:
304,184,313085,1,0,0:0:0:0:
440,64,313273,1,0,0:0:0:0:
240,112,313460,1,0,0:0:0:0:
196,136,313554,1,0,0:0:0:0:
148,132,313648,1,0,0:0:0:0:
36,216,313835,2,0,L|44:304,1,45
56,352,314023,6,0,L|136:336,1,45
172,256,314210,2,0,L|92:272,1,45
216,360,314398,1,0,0:0:0:0:
400,268,314585,6,0,P|360:232|228:248,1,180
164,152,315054,1,0,0:0:0:0:
164,152,315148,2,0,L|284:144,1,90
352,112,315523,5,0,0:0:0:0:
236,48,315710,1,0,0:0:0:0:
368,232,315898,1,0,0:0:0:0:
456,104,316085,1,0,0:0:0:0:
328,8,316273,5,0,0:0:0:0:
276,112,316460,1,0,0:0:0:0:
344,200,316648,1,0,0:0:0:0:
