osu file format v14

[General]
AudioFilename: maware_192k.mp3
AudioLeadIn: 0
PreviewTime: 119585
Countdown: 0
SampleSet: None
StackLeniency: 0.3
Mode: 0
LetterboxInBreaks: 0
WidescreenStoryboard: 1

[Editor]
Bookmarks: 523,33523,58273,82648,119773,144523,168523,192523,223273,224773,255523,280273
DistanceSpacing: 0.8
BeatDivisor: 4
GridSize: 4
TimelineZoom: 1.9

[Metadata]
Title:Maware! Setsugetsuka
TitleUnicode:回レ!雪月花
Artist:Utagumi Setsugetsuka
ArtistUnicode:歌組雪月花
Creator:Moecho
Version:Little Star Star
Source:機巧少女は傷つかない
Tags:Unbreakable Kikou Machine-Doll Girl wa Kizutsukanai Ogura Yui 小倉唯 Kayano Ai 茅野愛衣 Harada Hitomi 原田ひとみ Yaya 夜々 Komurasaki 小紫 Irori いろり
BeatmapID:673106
BeatmapSetID:292619

[Difficulty]
HPDrainRate:6.5
CircleSize:4
OverallDifficulty:7
ApproachRate:9
SliderMultiplier:1.8
SliderTickRate:1

[Events]
//Background and Video events
0,0,"bg.jpg",0,0
//Break Periods
//Storyboard Layer 0 (Background)
//Storyboard Layer 1 (Fail)
//Storyboard Layer 2 (Pass)
//Storyboard Layer 3 (Foreground)
//Storyboard Sound Samples

[TimingPoints]
523,375,4,2,0,100,1,0
2023,-100,4,2,0,100,0,1
7273,-153.846153846154,4,2,0,100,0,1
8023,-100,4,2,0,100,0,1
14023,-105.263157894737,4,2,0,100,0,0
19273,-153.846153846154,4,2,0,100,0,0
19648,-66.6666666666667,4,2,0,100,0,0
20023,-100,4,2,0,100,0,0
59023,-100,4,2,0,100,0,1
83023,-100,4,2,0,100,0,0
120523,-66.6666666666667,4,2,0,100,0,1
123335,-90.9090909090909,4,2,0,100,0,1
126148,-66.6666666666667,4,2,0,100,0,1
129335,-90.9090909090909,4,2,0,100,0,1
131023,-100,4,2,0,100,0,1
138898,-66.6666666666667,4,2,0,100,0,1
144523,-100,4,2,0,100,0,0
195523,-100,4,2,0,100,0,1
218023,-100,4,2,0,100,0,0
224023,-90.9090909090909,4,2,0,80,0,0
229835,-66.6666666666667,4,2,0,50,0,0
230023,-90.9090909090909,4,2,0,80,0,0
232835,-76.9230769230769,4,2,0,80,0,0
233023,-90.9090909090909,4,2,0,80,0,0
236023,-76.9230769230769,4,2,0,80,0,0
236210,-100,4,2,0,80,0,0
242023,-90.9090909090909,4,2,0,80,0,0
245023,-100,4,2,0,80,0,0
246523,-83.3333333333333,4,2,0,80,0,0
247273,-100,4,2,0,80,0,0
248023,-76.9230769230769,4,2,0,80,0,0
249523,-90.9090909090909,4,2,0,80,0,0
255241,-90.9090909090909,4,2,0,20,0,0
255335,-90.9090909090909,4,2,0,80,0,0
264523,-76.9230769230769,4,2,0,80,0,0
264898,-90.9090909090909,4,2,0,80,0,0
267523,-76.9230769230769,4,2,0,80,0,0
269023,-90.9090909090909,4,2,0,80,0,0
275023,-111.111111111111,4,2,0,80,0,0
281023,-100,4,2,0,100,0,1
303523,-100,4,2,0,100,0,0
305023,-100,4,2,0,100,0,1
316648,-100,4,2,0,100,0,0

[HitObjects]
32,252,255523,6,0,L|136:244,1,99.0000030212403
200,308,255804,1,0,0:0:0:0:
200,308,255898,2,0,P|156:332|136:332,1,49.5000015106202
156,160,256085,2,0,P|179:168|198:183,1,49.5000015106202
304,244,256273,6,0,L|356:240,1,49.5000015106202
440,296,256460,1,0,0:0:0:0:
456,304,256554,1,0,0:0:0:0:
472,312,256648,2,0,L|476:252,1,49.5000015106202
460,136,256835,1,0,0:0:0:0:
464,104,256929,1,0,0:0:0:0:
468,72,257023,6,0,L|404:76,1,49.5000015106202
236,144,257210,2,0,L|300:148,1,49.5000015106202
376,164,257398,1,0,0:0:0:0:
216,48,257585,1,0,0:0:0:0:
172,272,257773,6,0,L|164:216,1,49.5000015106202
260,288,257960,2,0,L|252:238,1,49.5000015106202
348,304,258148,2,0,L|340:254,1,49.5000015106202
436,320,258335,2,0,L|428:270,1,49.5000015106202
412,92,258523,6,0,B|390:121|390:121|397:183,1,99.0000030212403
332,328,258898,1,0,0:0:0:0:
140,284,259085,2,0,P|136:260|144:224,1,49.5000015106202
180,160,259273,1,0,0:0:0:0:
223,136,259366,1,0,0:0:0:0:
272,139,259460,1,0,0:0:0:0:
312,166,259554,1,0,0:0:0:0:
334,209,259648,1,0,0:0:0:0:
244,228,259835,1,0,0:0:0:0:
180,160,260023,5,0,0:0:0:0:
156,144,260116,1,0,0:0:0:0:
132,128,260210,2,0,L|148:68,1,49.5000015106202
292,36,260398,5,0,0:0:0:0:
340,32,260491,1,0,0:0:0:0:
376,64,260585,2,0,L|360:124,1,49.5000015106202
408,272,260773,6,0,P|320:300|256:264,1,148.50000453186
334,209,261148,1,0,0:0:0:0:
152,264,261335,1,0,0:0:0:0:
136,272,261523,5,0,0:0:0:0:
64,228,261616,2,0,L|52:124,1,99.0000030212403
146,128,261898,2,0,B|112:143|112:143|52:129,1,99.0000030212403
132,44,262179,1,0,0:0:0:0:
212,72,262273,2,0,P|226:91|235:129,1,49.5000015106202
244,224,262460,6,0,P|280:284|324:300,1,99.0000030212403
428,356,262741,1,0,0:0:0:0:
455,328,262834,1,0,0:0:0:0:
464,290,262928,1,0,0:0:0:0:
452,253,263022,5,0,0:0:0:0:
424,224,263116,2,0,L|432:124,1,99.0000030212403
368,56,263398,1,0,0:0:0:0:
320,64,263491,1,0,0:0:0:0:
272,72,263585,1,0,0:0:0:0:
224,80,263679,1,0,0:0:0:0:
176,92,263773,6,0,L|104:80,1,49.5000015106202
40,92,263960,1,0,0:0:0:0:
212,196,264148,1,0,0:0:0:0:
105,349,264335,1,0,0:0:0:0:
105,349,264429,1,0,0:0:0:0:
105,349,264523,6,0,P|76:307|133:189,1,175.499991966248
264,268,264898,6,0,P|217:284|169:277,1,99.0000030212403
287,43,265273,1,0,0:0:0:0:
400,236,265460,1,0,0:0:0:0:
196,145,265648,1,0,0:0:0:0:
413,96,265835,1,0,0:0:0:0:
264,268,266023,5,0,0:0:0:0:
248,284,266398,1,0,0:0:0:0:
232,300,266773,1,0,0:0:0:0:
108,216,266960,1,0,0:0:0:0:
108,216,267054,1,0,0:0:0:0:
108,216,267148,2,0,L|176:212,3,49.5000015106202
240,152,267523,6,0,P|308:148|364:152,1,116.999994644165
444,224,267804,2,0,P|448:308|444:352,1,116.999994644165
344,292,268085,2,0,P|341:233|344:208,1,58.4999973220826
356,152,268273,1,0,0:0:0:0:
232,52,268460,1,0,0:0:0:0:
184,240,268648,1,0,0:0:0:0:
60,144,268835,1,0,0:0:0:0:
184,240,269023,5,0,0:0:0:0:
96,336,269210,1,0,0:0:0:0:
72,332,269304,1,0,0:0:0:0:
48,328,269398,1,0,0:0:0:0:
208,220,269585,1,0,0:0:0:0:
244,212,269679,1,0,0:0:0:0:
280,204,269773,1,0,0:0:0:0:
416,336,269960,5,0,0:0:0:0:
368,328,270054,1,0,0:0:0:0:
320,320,270148,1,0,0:0:0:0:
464,240,270335,1,0,0:0:0:0:
388,88,270523,1,0,0:0:0:0:
368,224,270710,5,0,0:0:0:0:
368,224,270804,1,0,0:0:0:0:
368,224,270898,1,0,0:0:0:0:
180,116,271085,1,0,0:0:0:0:
180,116,271179,1,0,0:0:0:0:
180,116,271273,1,0,0:0:0:0:
300,152,271460,1,0,0:0:0:0:
172,248,271648,1,0,0:0:0:0:
116,44,271835,1,0,0:0:0:0:
280,80,272023,6,0,B|296:108|296:108|288:184,1,99.0000030212403
284,204,272304,1,0,0:0:0:0:
280,232,272398,1,0,0:0:0:0:
424,344,272585,1,0,0:0:0:0:
416,296,272679,1,0,0:0:0:0:
408,248,272773,1,0,0:0:0:0:
172,248,272960,1,0,0:0:0:0:
164,296,273054,1,0,0:0:0:0:
156,344,273148,1,0,0:0:0:0:
280,232,273335,6,0,L|276:168,1,49.5000015106202
224,100,273523,1,0,0:0:0:0:
158,147,273710,1,0,0:0:0:0:
78,137,273898,1,0,0:0:0:0:
27,75,274085,1,0,0:0:0:0:
88,168,274273,1,0,0:0:0:0:
52,280,274460,1,0,0:0:0:0:
136,356,274648,1,0,0:0:0:0:
164,352,274741,1,0,0:0:0:0:
192,348,274835,1,0,0:0:0:0:
220,344,274929,1,0,0:0:0:0:
248,340,275023,6,0,B|304:360|304:360|284:248,1,161.999995056153
320,100,275773,2,0,P|392:84|488:112,2,161.999995056153
160,184,276898,2,0,L|80:188,1,80.9999975280763
196,96,277273,2,0,L|24:104,1,161.999995056153
152,288,278023,5,0,0:0:0:0:
164,300,278116,1,0,0:0:0:0:
176,312,278210,2,0,L|228:308,1,40.4999987640381
316,320,278398,1,0,0:0:0:0:
328,332,278491,1,0,0:0:0:0:
340,344,278585,2,0,L|392:340,1,40.4999987640381
460,264,278773,5,0,0:0:0:0:
456,232,278866,1,0,0:0:0:0:
452,200,278960,1,0,0:0:0:0:
448,168,279054,1,0,0:0:0:0:
444,136,279148,2,0,L|456:88,3,40.4999987640381
364,96,279523,2,0,L|376:48,8,40.4999987640381
