osu file format v13

[General]
AudioFilename: Maware! Setsugekka.mp3
AudioLeadIn: 0
PreviewTime: 58137
Countdown: 0
SampleSet: Normal
StackLeniency: 0.7
Mode: 1
LetterboxInBreaks: 0
WidescreenStoryboard: 0

[Editor]
DistanceSpacing: 0.8
BeatDivisor: 4
GridSize: 32
TimelineZoom: 1

[Metadata]
Title:Maware! Setsugetsuka
TitleUnicode:回レ!雪月花
Artist:Utagumi Setsugetsuka
ArtistUnicode:歌組雪月花
Creator:DakeDekaane
Version:Oni
Source:機巧少女は傷つかない
Tags:Kikou Shoujo wa Kizutsukanai Unbreakable Machine Doll ending ED Harada Hitomi Kayano Ai Ogura Yui higedriver ヒゲドライバー Lost_The_Lights
BeatmapID:328613
BeatmapSetID:130242

[Difficulty]
HPDrainRate:6
CircleSize:5
OverallDifficulty:6
ApproachRate:5
SliderMultiplier:1.4
SliderTickRate:1

[Events]
//Background and Video events
0,0,"MawareBG.jpg",0,100
//Break Periods
//Storyboard Layer 0 (Background)
//Storyboard Layer 1 (Fail)
//Storyboard Layer 2 (Pass)
//Storyboard Layer 3 (Foreground)
//Storyboard Sound Samples

[TimingPoints]
387,375,4,1,0,60,1,0
387,-100,4,1,0,60,0,0
1137,-100,4,1,0,70,0,0
1887,-100,4,1,0,80,0,1
13887,-100,4,1,0,70,0,0
19887,-100,4,1,0,80,0,0
33387,-100,4,1,0,70,0,0
39387,-100,4,1,0,80,0,0
46887,-100,4,1,0,70,0,0
58887,-100,4,1,0,80,0,1
70887,-100,4,1,0,80,0,0
82887,-100,4,1,0,80,0,1
88887,-100,4,1,0,80,0,0

[Colours]
Combo1 : 255,255,0
Combo2 : 255,255,0

[HitObjects]
256,192,387,5,0,0:0:0:0:
256,192,762,1,8,0:0:0:0:
256,192,1137,1,0,0:0:0:0:
256,192,1230,1,0,0:0:0:0:
256,192,1324,1,0,0:0:0:0:
256,192,1512,1,8,0:0:0:0:
256,192,1699,1,8,0:0:0:0:
256,192,1887,1,0,0:0:0:0:
256,192,2074,1,8,0:0:0:0:
256,192,2262,1,0,0:0:0:0:
256,192,2449,1,8,0:0:0:0:
256,192,2637,1,0,0:0:0:0:
256,192,2824,1,8,0:0:0:0:
256,192,3012,1,0,0:0:0:0:
256,192,3199,1,8,0:0:0:0:
256,192,3293,1,8,0:0:0:0:
256,192,3387,1,0,0:0:0:0:
256,192,3574,1,8,0:0:0:0:
256,192,3762,1,0,0:0:0:0:
256,192,3949,1,8,0:0:0:0:
256,192,4137,1,0,0:0:0:0:
256,192,4324,1,8,0:0:0:0:
256,192,4512,1,0,0:0:0:0:
256,192,4605,1,0,0:0:0:0:
256,192,4699,1,8,0:0:0:0:
256,192,4793,1,8,0:0:0:0:
256,192,4887,1,0,0:0:0:0:
256,192,5074,1,8,0:0:0:0:
256,192,5262,1,0,0:0:0:0:
256,192,5449,1,8,0:0:0:0:
256,192,5637,1,0,0:0:0:0:
256,192,5824,1,8,0:0:0:0:
256,192,6012,1,0,0:0:0:0:
256,192,6199,1,8,0:0:0:0:
256,192,6293,1,8,0:0:0:0:
256,192,6387,1,0,0:0:0:0:
256,192,6574,1,8,0:0:0:0:
256,192,6762,1,0,0:0:0:0:
256,192,6949,1,8,0:0:0:0:
256,192,7137,1,0,0:0:0:0:
256,192,7324,1,8,0:0:0:0:
256,192,7418,1,8,0:0:0:0:
256,192,7512,1,8,0:0:0:0:
256,192,7887,1,0,0:0:0:0:
256,192,8074,1,8,0:0:0:0:
256,192,8262,1,0,0:0:0:0:
256,192,8449,1,8,0:0:0:0:
256,192,8543,1,8,0:0:0:0:
256,192,8637,1,0,0:0:0:0:
256,192,8824,1,8,0:0:0:0:
256,192,9012,1,0,0:0:0:0:
256,192,9199,1,8,0:0:0:0:
256,192,9293,1,8,0:0:0:0:
256,192,9387,1,0,0:0:0:0:
256,192,9574,1,8,0:0:0:0:
256,192,9762,1,0,0:0:0:0:
256,192,9949,1,8,0:0:0:0:
256,192,10043,1,8,0:0:0:0:
256,192,10137,1,0,0:0:0:0:
256,192,10324,1,8,0:0:0:0:
256,192,10512,1,0,0:0:0:0:
256,192,10605,1,0,0:0:0:0:
256,192,10699,1,8,0:0:0:0:
256,192,10793,1,8,0:0:0:0:
256,192,10887,1,0,0:0:0:0:
256,192,11074,1,8,0:0:0:0:
256,192,11262,1,0,0:0:0:0:
256,192,11449,1,8,0:0:0:0:
256,192,11543,1,8,0:0:0:0:
256,192,11637,1,0,0:0:0:0:
256,192,11824,1,8,0:0:0:0:
256,192,12012,1,0,0:0:0:0:
256,192,12199,1,8,0:0:0:0:
256,192,12293,1,8,0:0:0:0:
256,192,12387,1,0,0:0:0:0:
256,192,12574,1,8,0:0:0:0:
256,192,12762,1,0,0:0:0:0:
256,192,12949,1,8,0:0:0:0:
256,192,13043,1,8,0:0:0:0:
256,192,13137,1,0,0:0:0:0:
256,192,13230,1,0,0:0:0:0:
256,192,13324,1,8,0:0:0:0:
256,192,13418,1,0,0:0:0:0:
256,192,13512,1,8,0:0:0:0:
256,192,13699,1,8,0:0:0:0:
256,192,13887,1,0,0:0:0:0:
256,192,14074,1,0,0:0:0:0:
256,192,14168,1,0,0:0:0:0:
256,192,14262,1,0,0:0:0:0:
256,192,14449,1,0,0:0:0:0:
256,192,14637,1,8,0:0:0:0:
256,192,14824,1,0,0:0:0:0:
256,192,14918,1,0,0:0:0:0:
256,192,15012,1,0,0:0:0:0:
256,192,15199,1,0,0:0:0:0:
256,192,15387,1,8,0:0:0:0:
256,192,15574,1,0,0:0:0:0:
256,192,15668,1,0,0:0:0:0:
256,192,15762,1,0,0:0:0:0:
256,192,15949,1,0,0:0:0:0:
256,192,16137,1,8,0:0:0:0:
256,192,16230,1,0,0:0:0:0:
256,192,16418,1,0,0:0:0:0:
256,192,16512,1,8,0:0:0:0:
256,192,16699,1,0,0:0:0:0:
256,192,16887,1,0,0:0:0:0:
256,192,17074,1,0,0:0:0:0:
256,192,17168,1,0,0:0:0:0:
256,192,17262,1,0,0:0:0:0:
256,192,17449,1,0,0:0:0:0:
256,192,17637,1,8,0:0:0:0:
256,192,17824,1,0,0:0:0:0:
256,192,17918,1,0,0:0:0:0:
256,192,18012,1,0,0:0:0:0:
256,192,18199,1,0,0:0:0:0:
256,192,18387,1,8,0:0:0:0:
256,192,18574,1,8,0:0:0:0:
256,192,18762,1,8,0:0:0:0:
256,192,18949,1,0,0:0:0:0:
256,192,19137,1,8,0:0:0:0:
256,192,19512,1,8,0:0:0:0:
256,192,19887,1,0,0:0:0:0:
256,192,19980,1,8,0:0:0:0:
256,192,20168,1,0,0:0:0:0:
256,192,20262,1,8,0:0:0:0:
256,192,20449,1,0,0:0:0:0:
256,192,20543,1,8,0:0:0:0:
256,192,20730,1,0,0:0:0:0:
256,192,20824,1,8,0:0:0:0:
256,192,21012,1,0,0:0:0:0:
256,192,21199,1,0,0:0:0:0:
256,192,21386,1,0,0:0:0:0:
256,192,21480,1,8,0:0:0:0:
256,192,21668,1,0,0:0:0:0:
256,192,21762,1,8,0:0:0:0:
256,192,21949,1,0,0:0:0:0:
256,192,22043,1,8,0:0:0:0:
256,192,22230,1,0,0:0:0:0:
256,192,22324,1,8,0:0:0:0:
256,192,22512,1,8,0:0:0:0:
256,192,22699,1,8,0:0:0:0:
256,192,22886,1,0,0:0:0:0:
256,192,22980,1,8,0:0:0:0:
256,192,23167,1,0,0:0:0:0:
256,192,23262,1,8,0:0:0:0:
256,192,23449,1,0,0:0:0:0:
256,192,23543,1,8,0:0:0:0:
256,192,23731,1,0,0:0:0:0:
256,192,23824,1,8,0:0:0:0:
256,192,24012,1,8,0:0:0:0:
256,192,24199,1,0,0:0:0:0:
256,192,24387,1,4,0:0:0:0:
256,192,24762,1,4,0:0:0:0:
256,192,25137,1,4,0:0:0:0:
256,192,25512,1,0,0:0:0:0:
256,192,25605,1,0,0:0:0:0:
256,192,25699,1,0,0:0:0:0:
256,192,25887,1,4,0:0:0:0:
256,192,27387,1,0,0:0:0:0:
256,192,27574,1,8,0:0:0:0:
256,192,27762,1,0,0:0:0:0:
256,192,27949,1,8,0:0:0:0:
256,192,28137,1,0,0:0:0:0:
256,192,28324,1,8,0:0:0:0:
256,192,28512,1,0,0:0:0:0:
256,192,28699,1,8,0:0:0:0:
256,192,28793,1,8,0:0:0:0:
256,192,28887,1,0,0:0:0:0:
256,192,29074,1,8,0:0:0:0:
256,192,29262,1,0,0:0:0:0:
256,192,29449,1,8,0:0:0:0:
256,192,29637,1,0,0:0:0:0:
256,192,29824,1,8,0:0:0:0:
256,192,29918,1,8,0:0:0:0:
256,192,30012,1,0,0:0:0:0:
256,192,30105,1,0,0:0:0:0:
256,192,30199,1,8,0:0:0:0:
256,192,30293,1,8,0:0:0:0:
256,192,30387,1,0,0:0:0:0:
256,192,30574,1,8,0:0:0:0:
256,192,30762,1,8,0:0:0:0:
256,192,30949,1,0,0:0:0:0:
256,192,31137,1,8,0:0:0:0:
256,192,31324,1,8,0:0:0:0:
256,192,31512,1,0,0:0:0:0:
256,192,31699,1,8,0:0:0:0:
256,192,31887,1,0,0:0:0:0:
256,192,32074,1,8,0:0:0:0:
256,192,32168,1,8,0:0:0:0:
256,192,32262,1,0,0:0:0:0:
256,192,32449,1,8,0:0:0:0:
256,192,32637,1,0,0:0:0:0:
256,192,33012,1,8,0:0:0:0:
256,192,33387,1,0,0:0:0:0:
256,192,33574,1,0,0:0:0:0:
256,192,33668,1,0,0:0:0:0:
256,192,33762,1,0,0:0:0:0:
256,192,33949,1,0,0:0:0:0:
256,192,34137,1,8,0:0:0:0:
256,192,34324,1,0,0:0:0:0:
256,192,34418,1,0,0:0:0:0:
256,192,34512,1,0,0:0:0:0:
256,192,34699,1,0,0:0:0:0:
256,192,34887,1,8,0:0:0:0:
256,192,35074,1,0,0:0:0:0:
256,192,35168,1,0,0:0:0:0:
256,192,35262,1,0,0:0:0:0:
256,192,35449,1,0,0:0:0:0:
256,192,35637,1,8,0:0:0:0:
256,192,35730,1,0,0:0:0:0:
256,192,35918,1,0,0:0:0:0:
256,192,36012,1,8,0:0:0:0:
256,192,36199,1,0,0:0:0:0:
256,192,36387,1,0,0:0:0:0:
256,192,36574,1,0,0:0:0:0:
256,192,36668,1,0,0:0:0:0:
256,192,36762,1,0,0:0:0:0:
256,192,36949,1,0,0:0:0:0:
256,192,37137,1,8,0:0:0:0:
256,192,37324,1,0,0:0:0:0:
256,192,37418,1,0,0:0:0:0:
256,192,37512,1,0,0:0:0:0:
256,192,37699,1,0,0:0:0:0:
256,192,37887,1,8,0:0:0:0:
256,192,38074,1,8,0:0:0:0:
256,192,38262,1,8,0:0:0:0:
256,192,38449,1,0,0:0:0:0:
256,192,38637,1,8,0:0:0:0:
256,192,39012,1,8,0:0:0:0:
256,192,39387,1,0,0:0:0:0:
256,192,39480,1,8,0:0:0:0:
256,192,39668,1,0,0:0:0:0:
256,192,39762,1,8,0:0:0:0:
256,192,39949,1,0,0:0:0:0:
256,192,40043,1,8,0:0:0:0:
256,192,40230,1,0,0:0:0:0:
256,192,40324,1,8,0:0:0:0:
256,192,40512,1,0,0:0:0:0:
256,192,40699,1,0,0:0:0:0:
256,192,40887,1,0,0:0:0:0:
256,192,40981,1,8,0:0:0:0:
256,192,41168,1,0,0:0:0:0:
256,192,41262,1,8,0:0:0:0:
256,192,41449,1,0,0:0:0:0:
256,192,41543,1,8,0:0:0:0:
256,192,41731,1,0,0:0:0:0:
256,192,41824,1,8,0:0:0:0:
256,192,42012,1,8,0:0:0:0:
256,192,42199,1,8,0:0:0:0:
256,192,42387,1,0,0:0:0:0:
256,192,42480,1,8,0:0:0:0:
256,192,42668,1,0,0:0:0:0:
256,192,42762,1,8,0:0:0:0:
256,192,42949,1,0,0:0:0:0:
256,192,43043,1,8,0:0:0:0:
256,192,43230,1,0,0:0:0:0:
256,192,43324,1,8,0:0:0:0:
256,192,43512,1,8,0:0:0:0:
256,192,43699,1,0,0:0:0:0:
256,192,43887,1,4,0:0:0:0:
256,192,44262,1,4,0:0:0:0:
256,192,44637,1,4,0:0:0:0:
256,192,45012,1,0,0:0:0:0:
256,192,45105,1,0,0:0:0:0:
256,192,45199,1,0,0:0:0:0:
256,192,45387,1,4,0:0:0:0:
256,192,45668,1,0,0:0:0:0:
256,192,45949,1,0,0:0:0:0:
256,192,46137,1,8,0:0:0:0:
256,192,46324,1,0,0:0:0:0:
256,192,46512,1,8,0:0:0:0:
256,192,46699,1,0,0:0:0:0:
256,192,46887,1,0,0:0:0:0:
256,192,47074,1,0,0:0:0:0:
256,192,47168,1,0,0:0:0:0:
260,191,47262,1,0,0:0:0:0:
256,192,47449,1,0,0:0:0:0:
256,192,47543,1,0,0:0:0:0:
256,192,47637,1,0,0:0:0:0:
256,192,47824,1,8,0:0:0:0:
256,192,48012,1,0,0:0:0:0:
256,192,48199,1,8,0:0:0:0:
260,191,48387,1,0,0:0:0:0:
256,192,48574,1,0,0:0:0:0:
256,192,48668,1,0,0:0:0:0:
260,191,48762,1,0,0:0:0:0:
256,192,48949,1,0,0:0:0:0:
260,191,49043,1,0,0:0:0:0:
260,191,49137,1,0,0:0:0:0:
256,192,49324,1,8,0:0:0:0:
260,191,49512,1,0,0:0:0:0:
256,192,49699,1,8,0:0:0:0:
260,191,49887,1,0,0:0:0:0:
256,192,50074,1,0,0:0:0:0:
260,191,50168,1,0,0:0:0:0:
260,191,50262,1,0,0:0:0:0:
256,192,50449,1,8,0:0:0:0:
260,191,50637,1,0,0:0:0:0:
260,185,50824,1,0,0:0:0:0:
260,191,50918,1,0,0:0:0:0:
256,192,51012,1,0,0:0:0:0:
256,192,51199,1,8,0:0:0:0:
256,192,51387,2,0,B|512:192|512:192|512:0|512:0|384:0,1,560
260,191,53262,1,0,0:0:0:0:
260,191,53637,1,0,0:0:0:0:
260,191,54012,1,0,0:0:0:0:
260,191,54387,1,8,0:0:0:0:
260,191,54762,1,0,0:0:0:0:
260,191,54949,1,0,0:0:0:0:
260,191,55137,1,8,0:0:0:0:
260,191,55324,1,0,0:0:0:0:
260,191,55418,1,0,0:0:0:0:
256,192,55512,1,0,0:0:0:0:
260,191,55887,2,0,B|512:192|512:192|512:0|512:0|384:0,1,560
256,192,58137,1,12,0:0:0:0:
256,192,58887,8,0,61043,0:0:0:0:
256,192,61137,5,12,0:0:0:0:
256,192,61418,1,12,0:0:0:0:
256,192,61699,1,12,0:0:0:0:
256,192,61887,1,0,0:0:0:0:
256,192,62074,1,8,0:0:0:0:
256,192,62168,1,8,0:0:0:0:
256,192,62262,1,0,0:0:0:0:
256,192,62449,1,8,0:0:0:0:
256,192,62637,1,0,0:0:0:0:
256,192,62824,1,8,0:0:0:0:
256,192,62918,1,0,0:0:0:0:
256,192,63105,1,0,0:0:0:0:
256,192,63199,1,8,0:0:0:0:
256,192,63387,1,0,0:0:0:0:
256,192,63574,1,8,0:0:0:0:
256,192,63668,1,8,0:0:0:0:
256,192,63762,1,0,0:0:0:0:
256,192,63949,1,8,0:0:0:0:
256,192,64043,1,8,0:0:0:0:
256,192,64137,1,0,0:0:0:0:
256,192,64324,1,8,0:0:0:0:
256,192,64418,1,8,0:0:0:0:
256,192,64512,1,0,0:0:0:0:
256,192,64887,8,0,67043,0:0:0:0:
256,192,67137,5,12,0:0:0:0:
256,192,67418,1,12,0:0:0:0:
256,192,67699,1,12,0:0:0:0:
256,192,67887,1,0,0:0:0:0:
256,192,68074,1,8,0:0:0:0:
256,192,68168,1,8,0:0:0:0:
256,192,68262,1,0,0:0:0:0:
256,192,68449,1,8,0:0:0:0:
256,192,68637,1,0,0:0:0:0:
256,192,68823,1,8,0:0:0:0:
256,192,68917,1,0,0:0:0:0:
256,192,69105,1,0,0:0:0:0:
256,192,69199,1,8,0:0:0:0:
256,192,69387,1,0,0:0:0:0:
256,192,69574,1,8,0:0:0:0:
256,192,69668,1,8,0:0:0:0:
256,192,69762,1,0,0:0:0:0:
256,192,69949,1,8,0:0:0:0:
256,192,70043,1,8,0:0:0:0:
256,192,70137,1,0,0:0:0:0:
256,192,70230,1,0,0:0:0:0:
256,192,70324,1,8,0:0:0:0:
256,192,70418,1,8,0:0:0:0:
256,192,70512,1,0,0:0:0:0:
256,192,70605,1,0,0:0:0:0:
256,192,70699,1,0,0:0:0:0:
256,192,70793,1,0,0:0:0:0:
256,192,70887,1,8,0:0:0:0:
256,192,71262,1,0,0:0:0:0:
256,192,71449,1,8,0:0:0:0:
256,192,71543,1,8,0:0:0:0:
256,192,71637,1,8,0:0:0:0:
256,192,71824,1,0,0:0:0:0:
256,192,71918,1,8,0:0:0:0:
256,192,72105,1,0,0:0:0:0:
256,192,72199,1,0,0:0:0:0:
256,192,72293,1,0,0:0:0:0:
256,192,72387,1,8,0:0:0:0:
256,192,72574,1,8,0:0:0:0:
256,192,72668,1,8,0:0:0:0:
256,192,72762,1,0,0:0:0:0:
256,192,72949,1,0,0:0:0:0:
256,192,73043,1,0,0:0:0:0:
256,192,73137,1,8,0:0:0:0:
256,192,73324,1,8,0:0:0:0:
256,192,73418,1,0,0:0:0:0:
256,192,73512,1,8,0:0:0:0:
256,192,73699,1,0,0:0:0:0:
256,192,73887,1,4,0:0:0:0:
256,192,74262,1,8,0:0:0:0:
256,192,74449,1,0,0:0:0:0:
256,192,74637,1,8,0:0:0:0:
256,192,74824,1,0,0:0:0:0:
256,192,74918,1,8,0:0:0:0:
256,192,75105,1,0,0:0:0:0:
256,192,75199,1,8,0:0:0:0:
256,192,75387,1,0,0:0:0:0:
256,192,75574,1,8,0:0:0:0:
256,192,75668,1,8,0:0:0:0:
256,192,75762,1,0,0:0:0:0:
256,192,76137,1,0,0:0:0:0:
256,192,76230,1,0,0:0:0:0:
256,192,76324,1,8,0:0:0:0:
256,192,76418,1,8,0:0:0:0:
256,192,76512,1,0,0:0:0:0:
256,192,76605,1,0,0:0:0:0:
256,192,76699,1,0,0:0:0:0:
256,192,76793,1,0,0:0:0:0:
256,192,76887,1,8,0:0:0:0:
256,192,77074,1,0,0:0:0:0:
256,192,77168,1,0,0:0:0:0:
256,192,77262,1,8,0:0:0:0:
256,192,77449,1,8,0:0:0:0:
256,192,77543,1,8,0:0:0:0:
256,192,77637,1,8,0:0:0:0:
256,192,77824,1,0,0:0:0:0:
256,192,78012,1,8,0:0:0:0:
256,192,78199,1,0,0:0:0:0:
256,192,78293,1,0,0:0:0:0:
256,192,78387,1,8,0:0:0:0:
256,192,78574,1,8,0:0:0:0:
256,192,78668,1,8,0:0:0:0:
256,192,78762,1,0,0:0:0:0:
256,192,78949,1,0,0:0:0:0:
256,192,79043,1,0,0:0:0:0:
256,192,79137,1,8,0:0:0:0:
256,192,79418,1,8,0:0:0:0:
256,192,79699,1,8,0:0:0:0:
256,192,79887,1,0,0:0:0:0:
256,192,80074,1,0,0:0:0:0:
256,192,80168,1,0,0:0:0:0:
256,192,80262,1,8,0:0:0:0:
256,192,80449,1,0,0:0:0:0:
256,192,80637,1,8,0:0:0:0:
256,192,80824,1,0,0:0:0:0:
256,192,80918,1,0,0:0:0:0:
256,192,81012,1,8,0:0:0:0:
256,192,81199,1,0,0:0:0:0:
256,192,81387,1,8,0:0:0:0:
256,192,81762,1,8,0:0:0:0:
256,192,82137,1,8,0:0:0:0:
256,192,82887,1,0,0:0:0:0:
256,192,83074,1,8,0:0:0:0:
256,192,83262,1,0,0:0:0:0:
256,192,83449,1,8,0:0:0:0:
256,192,83637,1,0,0:0:0:0:
256,192,83824,1,8,0:0:0:0:
256,192,84012,1,0,0:0:0:0:
256,192,84199,1,8,0:0:0:0:
256,192,84293,1,8,0:0:0:0:
256,192,84387,1,0,0:0:0:0:
256,192,84574,1,8,0:0:0:0:
256,192,84762,1,0,0:0:0:0:
256,192,84949,1,8,0:0:0:0:
256,192,85137,1,0,0:0:0:0:
256,192,85324,1,8,0:0:0:0:
256,192,85418,1,8,0:0:0:0:
256,192,85512,1,0,0:0:0:0:
256,192,85605,1,0,0:0:0:0:
256,192,85699,1,8,0:0:0:0:
256,192,85793,1,8,0:0:0:0:
256,192,85887,1,0,0:0:0:0:
256,192,86074,1,8,0:0:0:0:
256,192,86262,1,8,0:0:0:0:
256,192,86449,1,0,0:0:0:0:
256,192,86637,1,8,0:0:0:0:
256,192,86824,1,8,0:0:0:0:
256,192,87012,1,0,0:0:0:0:
256,192,87199,1,8,0:0:0:0:
256,192,87387,1,0,0:0:0:0:
256,192,87480,1,0,0:0:0:0:
256,192,87574,1,8,0:0:0:0:
256,192,87668,1,8,0:0:0:0:
256,192,87762,1,0,0:0:0:0:
256,192,87855,1,0,0:0:0:0:
256,192,87949,1,8,0:0:0:0:
256,192,88043,1,8,0:0:0:0:
256,192,88137,1,0,0:0:0:0:
256,192,88512,1,8,0:0:0:0:
