osu file format v13

[General]
AudioFilename: Maware! Setsugekka.mp3
AudioLeadIn: 0
PreviewTime: 58137
Countdown: 0
SampleSet: Normal
StackLeniency: 0.7
Mode: 1
LetterboxInBreaks: 0
WidescreenStoryboard: 0

[Editor]
DistanceSpacing: 0.8
BeatDivisor: 4
GridSize: 32
TimelineZoom: 1

[Metadata]
Title:Maware! Setsugetsuka
TitleUnicode:回レ!雪月花
Artist:Utagumi Setsugetsuka
ArtistUnicode:歌組雪月花
Creator:DakeDekaane
Version:Muzukashii
Source:機巧少女は傷つかない
Tags:Kikou Shoujo wa Kizutsukanai Unbreakable Machine Doll ending ED Harada Hitomi Kayano Ai Ogura Yui higedriver ヒゲドライバー Lost_The_Lights
BeatmapID:328612
BeatmapSetID:130242

[Difficulty]
HPDrainRate:5
CircleSize:5
OverallDifficulty:5
ApproachRate:5
SliderMultiplier:1.4
SliderTickRate:1

[Events]
//Background and Video events
0,0,"MawareBG.jpg",0,100
//Break Periods
//Storyboard Layer 0 (Background)
//Storyboard Layer 1 (Fail)
//Storyboard Layer 2 (Pass)
//Storyboard Layer 3 (Foreground)
//Storyboard Sound Samples

[TimingPoints]
387,375,4,1,0,60,1,0
387,-100,4,1,0,60,0,0
1137,-100,4,1,0,70,0,0
1887,-100,4,1,0,80,0,1
13887,-100,4,1,0,70,0,0
19887,-100,4,1,0,80,0,0
33387,-100,4,1,0,70,0,0
39387,-100,4,1,0,80,0,0
46887,-100,4,1,0,70,0,0
58887,-100,4,1,0,80,0,1
70887,-100,4,1,0,80,0,0
82887,-100,4,1,0,80,0,1
88887,-100,4,1,0,80,0,0

[Colours]
Combo1 : 255,255,0
Combo2 : 255,255,0

[HitObjects]
256,192,387,5,0,0:0:0:0:
256,192,762,1,8,0:0:0:0:
256,192,1137,1,0,0:0:0:0:
256,192,1230,1,0,0:0:0:0:
256,192,1324,1,0,0:0:0:0:
256,192,1512,1,8,0:0:0:0:
256,192,1699,1,8,0:0:0:0:
256,192,1887,1,0,0:0:0:0:
256,192,2074,1,8,0:0:0:0:
256,192,2262,1,0,0:0:0:0:
256,192,2449,1,8,0:0:0:0:
256,192,2637,1,0,0:0:0:0:
256,192,3012,1,0,0:0:0:0:
256,192,3199,1,8,0:0:0:0:
256,192,3387,1,0,0:0:0:0:
256,192,3574,1,8,0:0:0:0:
256,192,3762,1,0,0:0:0:0:
256,192,3949,1,8,0:0:0:0:
256,192,4137,1,0,0:0:0:0:
256,192,4512,1,0,0:0:0:0:
256,192,4699,1,8,0:0:0:0:
256,192,4793,1,8,0:0:0:0:
256,192,4887,1,8,0:0:0:0:
256,192,5074,1,8,0:0:0:0:
256,192,5262,1,0,0:0:0:0:
256,192,5449,1,8,0:0:0:0:
256,192,5637,1,0,0:0:0:0:
256,192,6012,1,0,0:0:0:0:
256,192,6199,1,8,0:0:0:0:
256,192,6387,1,0,0:0:0:0:
256,192,6574,1,8,0:0:0:0:
256,192,6762,1,0,0:0:0:0:
256,192,6949,1,8,0:0:0:0:
256,192,7137,1,0,0:0:0:0:
256,192,7324,1,8,0:0:0:0:
256,192,7418,1,8,0:0:0:0:
256,192,7512,1,8,0:0:0:0:
256,192,7887,1,0,0:0:0:0:
256,192,8074,1,8,0:0:0:0:
256,192,8262,1,0,0:0:0:0:
256,192,8449,1,8,0:0:0:0:
256,192,8637,1,0,0:0:0:0:
256,192,8824,1,8,0:0:0:0:
256,192,9199,1,8,0:0:0:0:
256,192,9387,1,0,0:0:0:0:
256,192,9574,1,8,0:0:0:0:
256,192,9762,1,0,0:0:0:0:
256,192,9949,1,8,0:0:0:0:
256,192,10137,1,0,0:0:0:0:
256,192,10324,1,8,0:0:0:0:
256,192,10699,1,8,0:0:0:0:
256,192,10887,1,0,0:0:0:0:
256,192,11074,1,8,0:0:0:0:
256,192,11262,1,0,0:0:0:0:
256,192,11449,1,8,0:0:0:0:
256,192,11637,1,0,0:0:0:0:
256,192,11824,1,8,0:0:0:0:
256,192,12199,1,8,0:0:0:0:
256,192,12387,1,0,0:0:0:0:
256,192,12574,1,8,0:0:0:0:
256,192,12762,1,0,0:0:0:0:
256,192,12949,1,8,0:0:0:0:
256,192,13043,1,8,0:0:0:0:
256,192,13137,1,8,0:0:0:0:
256,192,13324,1,8,0:0:0:0:
256,192,13418,1,8,0:0:0:0:
256,192,13512,1,8,0:0:0:0:
256,192,13699,1,8,0:0:0:0:
256,192,13887,1,0,0:0:0:0:
256,192,14262,1,0,0:0:0:0:
256,192,14449,1,0,0:0:0:0:
256,192,14637,1,0,0:0:0:0:
256,192,15012,1,0,0:0:0:0:
256,192,15387,1,0,0:0:0:0:
256,192,15574,1,0,0:0:0:0:
256,192,15762,1,0,0:0:0:0:
251,189,16137,1,0,0:0:0:0:
251,189,16230,1,0,0:0:0:0:
256,192,16418,1,0,0:0:0:0:
251,189,16512,1,0,0:0:0:0:
256,192,16699,1,0,0:0:0:0:
256,192,16887,1,0,0:0:0:0:
256,192,17262,1,0,0:0:0:0:
256,192,17449,1,0,0:0:0:0:
256,192,17637,1,0,0:0:0:0:
256,192,18012,1,0,0:0:0:0:
256,192,18387,1,8,0:0:0:0:
256,192,18574,1,0,0:0:0:0:
256,192,18762,1,8,0:0:0:0:
256,192,18949,1,8,0:0:0:0:
256,192,19137,1,0,0:0:0:0:
256,192,19512,1,8,0:0:0:0:
256,192,19887,1,8,0:0:0:0:
256,192,20262,1,8,0:0:0:0:
256,192,20449,1,0,0:0:0:0:
256,192,20637,1,8,0:0:0:0:
256,192,20824,1,0,0:0:0:0:
256,192,21012,1,8,0:0:0:0:
256,192,21387,1,8,0:0:0:0:
256,192,21762,1,8,0:0:0:0:
256,192,21949,1,0,0:0:0:0:
256,192,22137,1,8,0:0:0:0:
256,192,22324,1,0,0:0:0:0:
256,192,22512,1,0,0:0:0:0:
256,192,22887,1,8,0:0:0:0:
256,192,23262,1,8,0:0:0:0:
256,192,23449,1,0,0:0:0:0:
256,192,23637,1,8,0:0:0:0:
256,192,23824,1,0,0:0:0:0:
256,192,24012,1,8,0:0:0:0:
256,192,24387,1,4,0:0:0:0:
256,192,24762,1,4,0:0:0:0:
256,192,25137,1,4,0:0:0:0:
256,192,25887,1,4,0:0:0:0:
256,192,27387,1,0,0:0:0:0:
256,192,27574,1,8,0:0:0:0:
256,192,27762,1,0,0:0:0:0:
256,192,27949,1,8,0:0:0:0:
256,192,28137,1,0,0:0:0:0:
256,192,28512,1,0,0:0:0:0:
256,192,28699,1,8,0:0:0:0:
256,192,28887,1,0,0:0:0:0:
256,192,29074,1,8,0:0:0:0:
256,192,29262,1,0,0:0:0:0:
256,192,29449,1,8,0:0:0:0:
256,192,29637,1,0,0:0:0:0:
256,192,29824,1,8,0:0:0:0:
256,192,29918,1,8,0:0:0:0:
256,192,30012,1,8,0:0:0:0:
256,192,30199,1,8,0:0:0:0:
256,192,30387,1,0,0:0:0:0:
256,192,30762,1,8,0:0:0:0:
256,192,30949,1,0,0:0:0:0:
256,192,31324,1,8,0:0:0:0:
256,192,31512,1,0,0:0:0:0:
256,192,31699,1,8,0:0:0:0:
256,192,31887,1,0,0:0:0:0:
256,192,31980,1,0,0:0:0:0:
256,192,32074,1,0,0:0:0:0:
256,192,32262,1,0,0:0:0:0:
256,192,32449,1,8,0:0:0:0:
256,192,32637,1,0,0:0:0:0:
256,192,33012,1,8,0:0:0:0:
256,192,33387,1,0,0:0:0:0:
256,192,33762,1,0,0:0:0:0:
256,192,33949,1,0,0:0:0:0:
256,192,34137,1,0,0:0:0:0:
256,192,34512,1,0,0:0:0:0:
256,192,34887,1,0,0:0:0:0:
256,192,35074,1,0,0:0:0:0:
256,192,35262,1,0,0:0:0:0:
256,192,35637,1,0,0:0:0:0:
256,192,35730,1,0,0:0:0:0:
256,192,35918,1,0,0:0:0:0:
256,192,36012,1,0,0:0:0:0:
256,192,36199,1,0,0:0:0:0:
256,192,36387,1,0,0:0:0:0:
256,192,36762,1,0,0:0:0:0:
256,192,36949,1,0,0:0:0:0:
256,192,37137,1,0,0:0:0:0:
256,192,37512,1,0,0:0:0:0:
256,192,37887,1,8,0:0:0:0:
256,192,38074,1,0,0:0:0:0:
256,192,38262,1,8,0:0:0:0:
256,192,38449,1,8,0:0:0:0:
256,192,38637,1,0,0:0:0:0:
256,192,39012,1,8,0:0:0:0:
256,192,39387,1,8,0:0:0:0:
256,192,39762,1,8,0:0:0:0:
256,192,39949,1,0,0:0:0:0:
256,192,40137,1,8,0:0:0:0:
256,192,40324,1,0,0:0:0:0:
256,192,40512,1,8,0:0:0:0:
256,192,40887,1,8,0:0:0:0:
256,192,41262,1,8,0:0:0:0:
256,192,41449,1,0,0:0:0:0:
256,192,41637,1,8,0:0:0:0:
256,192,41824,1,0,0:0:0:0:
256,192,42012,1,0,0:0:0:0:
256,192,42387,1,8,0:0:0:0:
256,192,42762,1,8,0:0:0:0:
251,190,42949,1,0,0:0:0:0:
256,192,43137,1,8,0:0:0:0:
251,190,43324,1,0,0:0:0:0:
256,192,43512,1,8,0:0:0:0:
256,192,43887,1,4,0:0:0:0:
256,192,44262,1,4,0:0:0:0:
256,192,44637,1,4,0:0:0:0:
256,192,45387,1,4,0:0:0:0:
260,191,46137,1,0,0:0:0:0:
256,192,46512,1,8,0:0:0:0:
260,191,46887,1,0,0:0:0:0:
260,191,47262,1,0,0:0:0:0:
256,194,47449,1,0,0:0:0:0:
256,194,47543,1,0,0:0:0:0:
256,192,47637,1,0,0:0:0:0:
260,191,48012,1,0,0:0:0:0:
259,196,48199,1,0,0:0:0:0:
260,191,48387,1,0,0:0:0:0:
260,191,48762,1,0,0:0:0:0:
261,186,48949,1,0,0:0:0:0:
261,186,49043,1,0,0:0:0:0:
256,192,49137,1,0,0:0:0:0:
260,191,49512,1,0,0:0:0:0:
260,191,49699,1,0,0:0:0:0:
260,191,49887,1,0,0:0:0:0:
260,191,50262,1,0,0:0:0:0:
260,191,50449,1,0,0:0:0:0:
257,183,50543,1,0,0:0:0:0:
256,192,50637,1,0,0:0:0:0:
260,191,51012,1,0,0:0:0:0:
260,191,51199,1,0,0:0:0:0:
257,183,51293,1,0,0:0:0:0:
260,191,51387,1,0,0:0:0:0:
260,191,51762,1,0,0:0:0:0:
260,191,52137,1,0,0:0:0:0:
263,193,52324,1,8,0:0:0:0:
260,191,52512,1,8,0:0:0:0:
260,191,52887,1,4,0:0:0:0:
260,191,53637,1,0,0:0:0:0:
260,191,54387,1,0,0:0:0:0:
260,191,54762,1,0,0:0:0:0:
260,191,54949,1,0,0:0:0:0:
260,191,55137,1,8,0:0:0:0:
260,191,55512,1,0,0:0:0:0:
260,191,55887,2,0,B|512:192|512:192|512:0|512:0|384:0,1,560
256,192,58137,1,12,0:0:0:0:
256,192,58887,8,0,60949,0:0:0:0:
256,192,61137,5,12,0:0:0:0:
256,192,61418,1,12,0:0:0:0:
256,192,61699,1,12,0:0:0:0:
256,192,61887,1,0,0:0:0:0:
256,192,62074,1,8,0:0:0:0:
256,192,62262,1,0,0:0:0:0:
256,192,62449,1,8,0:0:0:0:
256,192,62637,1,0,0:0:0:0:
256,192,62918,1,0,0:0:0:0:
256,192,63199,1,0,0:0:0:0:
256,192,63387,1,8,0:0:0:0:
256,192,63574,1,0,0:0:0:0:
256,192,63668,1,0,0:0:0:0:
256,192,63762,1,0,0:0:0:0:
256,192,63949,1,0,0:0:0:0:
256,192,64137,1,8,0:0:0:0:
256,192,64887,8,0,66949,0:0:0:0:
256,192,67137,5,12,0:0:0:0:
256,192,67418,1,12,0:0:0:0:
256,192,67699,1,12,0:0:0:0:
256,192,67887,1,0,0:0:0:0:
256,192,68074,1,8,0:0:0:0:
256,192,68262,1,0,0:0:0:0:
256,192,68449,1,8,0:0:0:0:
256,192,68637,1,0,0:0:0:0:
256,192,68918,1,0,0:0:0:0:
256,192,69199,1,0,0:0:0:0:
256,192,69387,1,8,0:0:0:0:
256,192,69574,1,0,0:0:0:0:
256,192,69668,1,0,0:0:0:0:
256,192,69762,1,0,0:0:0:0:
256,192,69949,1,0,0:0:0:0:
256,192,70137,1,4,0:0:0:0:
256,192,70512,1,4,0:0:0:0:
256,192,70887,1,4,0:0:0:0:
256,192,71637,1,8,0:0:0:0:
256,192,72199,1,0,0:0:0:0:
256,192,72387,1,0,0:0:0:0:
256,192,72574,1,0,0:0:0:0:
256,192,72668,1,0,0:0:0:0:
256,192,72762,1,0,0:0:0:0:
256,192,72949,1,0,0:0:0:0:
256,192,73137,1,8,0:0:0:0:
256,192,73324,1,8,0:0:0:0:
256,192,73512,1,0,0:0:0:0:
256,192,73699,1,0,0:0:0:0:
256,192,73887,1,4,0:0:0:0:
256,192,74262,1,8,0:0:0:0:
256,192,74637,1,0,0:0:0:0:
256,192,74824,1,0,0:0:0:0:
256,192,75012,1,8,0:0:0:0:
256,192,75387,1,8,0:0:0:0:
256,192,75574,1,0,0:0:0:0:
256,192,75762,1,8,0:0:0:0:
256,192,76137,1,4,0:0:0:0:
256,192,76512,1,4,0:0:0:0:
256,192,76887,1,4,0:0:0:0:
256,192,77637,1,8,0:0:0:0:
256,192,78199,1,0,0:0:0:0:
256,192,78387,1,0,0:0:0:0:
256,192,78574,1,0,0:0:0:0:
256,192,78668,1,0,0:0:0:0:
256,192,78762,1,0,0:0:0:0:
256,192,78949,1,0,0:0:0:0:
256,192,79137,1,8,0:0:0:0:
256,192,79418,1,8,0:0:0:0:
256,192,79699,1,8,0:0:0:0:
256,192,80074,1,0,0:0:0:0:
256,192,80262,1,0,0:0:0:0:
256,192,80449,1,0,0:0:0:0:
256,192,80637,1,8,0:0:0:0:
256,192,81012,1,8,0:0:0:0:
256,192,81199,1,0,0:0:0:0:
256,192,81387,1,8,0:0:0:0:
256,192,81762,1,8,0:0:0:0:
256,192,82137,1,8,0:0:0:0:
256,192,82887,1,0,0:0:0:0:
256,192,83074,1,8,0:0:0:0:
256,192,83262,1,0,0:0:0:0:
256,192,83449,1,8,0:0:0:0:
256,192,83637,1,0,0:0:0:0:
256,192,84012,1,0,0:0:0:0:
256,192,84199,1,8,0:0:0:0:
256,192,84387,1,0,0:0:0:0:
256,192,84574,1,8,0:0:0:0:
256,192,84762,1,0,0:0:0:0:
256,192,84949,1,8,0:0:0:0:
256,192,85137,1,0,0:0:0:0:
256,192,85324,1,8,0:0:0:0:
256,192,85418,1,8,0:0:0:0:
256,192,85512,1,8,0:0:0:0:
256,192,85699,1,8,0:0:0:0:
256,192,85887,1,0,0:0:0:0:
256,192,86262,1,8,0:0:0:0:
256,192,86449,1,0,0:0:0:0:
256,192,86824,1,8,0:0:0:0:
256,192,87012,1,0,0:0:0:0:
256,192,87199,1,8,0:0:0:0:
256,192,87387,1,0,0:0:0:0:
256,192,87480,1,0,0:0:0:0:
256,192,87574,1,0,0:0:0:0:
256,192,87762,1,0,0:0:0:0:
256,192,87949,1,8,0:0:0:0:
256,192,88137,1,0,0:0:0:0:
256,192,88512,1,8,0:0:0:0:
