osu file format v13

[General]
AudioFilename: Maware! Setsugekka.mp3
AudioLeadIn: 0
PreviewTime: 58137
Countdown: 0
SampleSet: Normal
StackLeniency: 0.7
Mode: 1
LetterboxInBreaks: 0
WidescreenStoryboard: 0

[Editor]
DistanceSpacing: 0.8
BeatDivisor: 4
GridSize: 32
TimelineZoom: 1

[Metadata]
Title:Maware! Setsugetsuka
TitleUnicode:回レ!雪月花
Artist:Utagumi Setsugetsuka
ArtistUnicode:歌組雪月花
Creator:DakeDekaane
Version:Futsuu
Source:機巧少女は傷つかない
Tags:Kikou Shoujo wa Kizutsukanai Unbreakable Machine Doll ending ED Harada Hitomi Kayano Ai Ogura Yui higedriver ヒゲドライバー Lost_The_Lights
BeatmapID:328610
BeatmapSetID:130242

[Difficulty]
HPDrainRate:4
CircleSize:5
OverallDifficulty:4
ApproachRate:5
SliderMultiplier:1.4
SliderTickRate:1

[Events]
//Background and Video events
0,0,"MawareBG.jpg",0,100
//Break Periods
//Storyboard Layer 0 (Background)
//Storyboard Layer 1 (Fail)
//Storyboard Layer 2 (Pass)
//Storyboard Layer 3 (Foreground)
//Storyboard Sound Samples

[TimingPoints]
387,375,4,1,0,60,1,0
387,-100,4,1,0,60,0,0
1137,-100,4,1,0,70,0,0
1887,-100,4,1,0,80,0,1
13887,-100,4,1,0,70,0,0
19887,-100,4,1,0,80,0,0
33387,-100,4,1,0,70,0,0
39387,-100,4,1,0,80,0,0
46887,-100,4,1,0,70,0,0
58887,-100,4,1,0,80,0,1
70887,-100,4,1,0,80,0,0
82887,-100,4,1,0,80,0,1
88887,-100,4,1,0,80,0,0

[Colours]
Combo1 : 255,255,0
Combo2 : 255,255,0

[HitObjects]
256,192,1887,5,0,0:0:0:0:
256,192,2262,1,8,0:0:0:0:
256,192,2637,1,0,0:0:0:0:
256,192,3012,1,8,0:0:0:0:
256,192,3387,1,0,0:0:0:0:
256,192,3762,1,8,0:0:0:0:
256,192,4137,1,0,0:0:0:0:
256,192,4512,1,8,0:0:0:0:
256,192,4699,1,8,0:0:0:0:
256,192,4887,1,0,0:0:0:0:
256,192,5262,1,8,0:0:0:0:
256,192,5637,1,0,0:0:0:0:
256,192,6012,1,8,0:0:0:0:
256,192,6387,1,0,0:0:0:0:
256,192,7512,1,8,0:0:0:0:
256,192,7887,1,8,0:0:0:0:
256,192,8262,1,0,0:0:0:0:
256,192,8637,1,8,0:0:0:0:
256,192,9012,1,0,0:0:0:0:
256,192,9387,1,8,0:0:0:0:
256,192,9762,1,0,0:0:0:0:
256,192,10137,1,8,0:0:0:0:
256,192,10512,1,0,0:0:0:0:
256,192,10699,1,0,0:0:0:0:
256,192,10887,1,8,0:0:0:0:
256,192,11262,1,0,0:0:0:0:
256,192,11637,1,8,0:0:0:0:
256,192,12012,1,0,0:0:0:0:
256,192,12387,1,8,0:0:0:0:
256,192,12762,1,0,0:0:0:0:
256,192,13137,2,0,L|416:192,1,140
256,192,13887,1,0,0:0:0:0:
256,192,14262,1,0,0:0:0:0:
256,192,14637,1,8,0:0:0:0:
256,192,15387,1,0,0:0:0:0:
256,192,15762,1,8,0:0:0:0:
256,192,15949,1,8,0:0:0:0:
256,192,16137,1,8,0:0:0:0:
256,192,16887,1,0,0:0:0:0:
256,192,17262,1,0,0:0:0:0:
256,192,17637,1,8,0:0:0:0:
256,192,18387,1,0,0:0:0:0:
256,192,18762,1,8,0:0:0:0:
256,192,18949,1,8,0:0:0:0:
256,192,19137,1,8,0:0:0:0:
256,192,19887,1,8,0:0:0:0:
256,192,20262,1,8,0:0:0:0:
256,192,20637,1,8,0:0:0:0:
256,192,21012,1,0,0:0:0:0:
256,192,21387,1,8,0:0:0:0:
256,192,21762,1,8,0:0:0:0:
256,192,22137,1,8,0:0:0:0:
256,192,22512,1,0,0:0:0:0:
256,192,22887,1,8,0:0:0:0:
256,192,23262,1,8,0:0:0:0:
256,192,23637,1,8,0:0:0:0:
256,192,24012,1,0,0:0:0:0:
256,192,24387,1,4,0:0:0:0:
256,192,24762,1,4,0:0:0:0:
256,192,25137,1,4,0:0:0:0:
256,192,25887,1,4,0:0:0:0:
256,192,27387,1,0,0:0:0:0:
256,192,27762,1,8,0:0:0:0:
256,192,28137,1,0,0:0:0:0:
256,192,28512,1,8,0:0:0:0:
256,192,28887,1,0,0:0:0:0:
256,192,29262,1,8,0:0:0:0:
256,192,29637,1,0,0:0:0:0:
256,192,30012,1,8,0:0:0:0:
256,192,30199,1,8,0:0:0:0:
256,192,30387,1,12,0:0:0:0:
256,192,30949,1,12,0:0:0:0:
256,192,31512,1,12,0:0:0:0:
256,192,31887,1,12,0:0:0:0:
256,192,33012,1,8,0:0:0:0:
256,192,33387,1,0,0:0:0:0:
256,192,33762,1,0,0:0:0:0:
256,192,34137,1,8,0:0:0:0:
256,192,34887,1,0,0:0:0:0:
256,192,35262,1,8,0:0:0:0:
256,192,35449,1,8,0:0:0:0:
256,192,35637,1,8,0:0:0:0:
256,192,36387,1,0,0:0:0:0:
256,192,36762,1,0,0:0:0:0:
256,192,37137,1,8,0:0:0:0:
256,192,37887,1,0,0:0:0:0:
256,192,38262,1,8,0:0:0:0:
256,192,38449,1,8,0:0:0:0:
256,192,38637,1,8,0:0:0:0:
256,192,39387,1,8,0:0:0:0:
256,192,39762,1,8,0:0:0:0:
256,192,40137,1,8,0:0:0:0:
256,192,40512,1,0,0:0:0:0:
256,192,40887,1,8,0:0:0:0:
256,192,41262,1,8,0:0:0:0:
256,192,41637,1,8,0:0:0:0:
256,192,42012,1,0,0:0:0:0:
256,192,42387,1,8,0:0:0:0:
256,192,42762,1,8,0:0:0:0:
256,192,43137,1,8,0:0:0:0:
256,192,43512,1,0,0:0:0:0:
256,192,43887,1,4,0:0:0:0:
256,192,44262,1,4,0:0:0:0:
256,192,44637,1,4,0:0:0:0:
256,192,45387,1,4,0:0:0:0:
256,192,46137,1,0,0:0:0:0:
261,191,46512,1,0,0:0:0:0:
256,192,46887,1,4,0:0:0:0:
256,192,47637,1,0,0:0:0:0:
256,192,48012,1,0,0:0:0:0:
262,189,48199,1,0,0:0:0:0:
256,192,48387,1,0,0:0:0:0:
262,189,48762,1,0,0:0:0:0:
256,192,49137,1,0,0:0:0:0:
256,192,49512,1,0,0:0:0:0:
256,192,49699,1,0,0:0:0:0:
262,189,49887,1,8,0:0:0:0:
262,189,50637,1,8,0:0:0:0:
261,193,51012,1,0,0:0:0:0:
277,184,51199,1,0,0:0:0:0:
256,192,51387,12,0,52887,0:0:0:0:
256,192,53637,5,0,0:0:0:0:
256,192,54387,1,8,0:0:0:0:
256,192,54762,1,0,0:0:0:0:
256,192,54949,1,0,0:0:0:0:
256,192,55137,1,0,0:0:0:0:
256,192,55887,2,0,B|512:192|512:192|512:0|512:0|384:0,1,560
256,192,58887,12,0,61137,0:0:0:0:
256,192,61887,5,0,0:0:0:0:
256,192,62262,1,0,0:0:0:0:
256,192,62637,1,8,0:0:0:0:
256,192,63012,1,8,0:0:0:0:
256,192,63387,1,0,0:0:0:0:
256,192,63762,1,0,0:0:0:0:
256,192,63949,1,0,0:0:0:0:
256,192,64137,1,8,0:0:0:0:
256,192,64887,8,0,67137,0:0:0:0:
256,192,67887,5,0,0:0:0:0:
256,192,68262,1,0,0:0:0:0:
256,192,68637,1,8,0:0:0:0:
256,192,69012,1,8,0:0:0:0:
256,192,69387,1,0,0:0:0:0:
256,192,69574,1,0,0:0:0:0:
256,192,69762,1,0,0:0:0:0:
256,192,70137,1,8,0:0:0:0:
256,192,70512,1,8,0:0:0:0:
256,192,70887,1,4,0:0:0:0:
256,192,71637,1,0,0:0:0:0:
256,192,72387,1,0,0:0:0:0:
256,192,72762,1,0,0:0:0:0:
256,192,73137,1,8,0:0:0:0:
256,192,73324,1,8,0:0:0:0:
256,192,73512,1,8,0:0:0:0:
256,192,73887,1,4,0:0:0:0:
256,192,74637,1,0,0:0:0:0:
256,192,75387,1,0,0:0:0:0:
256,192,75574,1,0,0:0:0:0:
256,192,75762,1,0,0:0:0:0:
256,192,76137,1,8,0:0:0:0:
256,192,76512,1,8,0:0:0:0:
256,192,76887,1,4,0:0:0:0:
256,192,77637,1,8,0:0:0:0:
256,192,78387,1,0,0:0:0:0:
250,198,78574,1,0,0:0:0:0:
256,192,78762,1,0,0:0:0:0:
256,192,79137,1,8,0:0:0:0:
256,192,79512,1,8,0:0:0:0:
256,192,79887,1,0,0:0:0:0:
256,192,80637,1,8,0:0:0:0:
256,192,81387,1,8,0:0:0:0:
256,192,81762,1,8,0:0:0:0:
256,192,82137,1,8,0:0:0:0:
256,192,82887,1,0,0:0:0:0:
256,192,83262,1,8,0:0:0:0:
256,192,83637,1,0,0:0:0:0:
256,192,84012,1,8,0:0:0:0:
256,192,84387,1,0,0:0:0:0:
256,192,84762,1,8,0:0:0:0:
256,192,85137,1,0,0:0:0:0:
256,192,85512,1,8,0:0:0:0:
256,192,85699,1,8,0:0:0:0:
256,192,85887,1,12,0:0:0:0:
256,192,86449,1,12,0:0:0:0:
256,192,87012,1,12,0:0:0:0:
256,192,87387,1,12,0:0:0:0:
256,192,88512,1,8,0:0:0:0:
