osu file format v5

[General]
AudioFilename: 0104694815.mp3
AudioLeadIn: 0
PreviewTime: -1
Countdown: 1
SampleSet: Normal
StackLeniency: 0.7
Mode: 0
LetterboxInBreaks: 1

[Metadata]
Title:bokuhakuma
Artist:Utada Hikaru
Creator:keywa_y
Version:Normal
Source:
Tags:

[Difficulty]
HPDrainRate:5
CircleSize:5
OverallDifficulty:5
SliderMultiplier:1.4
SliderTickRate:1

[Events]
//Background and Video events
//Break Periods
//Storyboard Layer 0 (Background)
//Storyboard Layer 1 (Failing)
//Storyboard Layer 2 (Passing)
//Storyboard Layer 3 (Foreground)
//Storyboard Sound Samples
//Background Colour Transformations
3,100,163,162,255

[TimingPoints]
3050,1051.63157894737,4,1,0,100,1,0

[HitObjects]
128,192,5153,1,0
128,192,5679,1,0
256,192,6204,1,8
256,192,6730,1,0
352,192,7256,1,0
352,192,7782,1,8
416,192,8308,1,0
416,192,8833,1,0
96,160,9359,2,10,B|256:160,1,140
159,208,10937,1,0
214,201,12514,1,8
214,201,13040,1,8
298,139,14092,1,0
298,139,14486,1,0
187,140,15143,1,0
187,140,15538,1,0
183,237,16195,1,0
64,160,16721,2,10,B|288:160,1,210
64,224,18824,2,8,B|288:224,1,210
166,152,20927,5,0
166,152,21453,1,0
74,204,21979,2,8,B|155:203|152:204,3,70
166,152,24082,1,0
264,157,25134,1,0
170,161,26185,1,2
170,161,26711,1,2
192,192,27237,1,2
103,172,28289,1,0
148,145,29340,1,0
240,212,30392,1,0
124,216,31444,1,2
256,192,31969,12,0,34073
101,184,35124,6,2,B|175:181,2,70
243,168,37228,1,0
120,192,38279,2,2,B|210:193,1,70
192,128,39331,1,0
192,128,39857,1,0
124,216,40382,2,2,B|338:220,1,210
120,114,42486,2,8,B|196:114,3,70
161,208,44589,1,0
225,209,45641,1,0
232,140,46692,1,2
256,192,47744,12,0,49847
220,169,50899,5,0
220,169,51425,1,0
296,259,51950,1,8
204,172,53002,1,0
204,172,53528,1,0
285,154,54054,1,8
285,154,54579,1,0
400,150,55105,1,0
185,239,56157,1,8
143,196,57209,2,2,B|289:196,1,140
311,150,59312,1,0
217,210,60363,1,0
272,132,61415,1,0
256,192,62467,1,8
256,192,62993,12,4,66147
