osu file format v9

[General]
AudioFilename: Utada - 5. This One (Crying Like A Child).mp3
AudioLeadIn: 0
PreviewTime: 64542
Countdown: 0
SampleSet: Soft
StackLeniency: 0.7
Mode: 0
LetterboxInBreaks: 0

[Editor]
Bookmarks: 14055,189673,202305
DistanceSpacing: 1
BeatDivisor: 4
GridSize: 4

[Metadata]
Title:This One (Crying Like A Child)
Artist:Utada Hikaru
Creator:dkun
Version:Trust
Source:
Tags:MathiasXII

[Difficulty]
HPDrainRate:5
CircleSize:4
OverallDifficulty:5
ApproachRate:5
SliderMultiplier:1
SliderTickRate:2

[Events]
//Background and Video events
0,0,"hikki.png"
//Break Periods
2,189872,201105
//Storyboard Layer 0 (Background)
//Storyboard Layer 1 (Fail)
//Storyboard Layer 2 (Pass)
//Storyboard Layer 3 (Foreground)
//Storyboard Sound Samples
//Background Colour Transformations
3,100,163,162,255

[TimingPoints]
200,394.736842105263,4,2,0,60,1,0
57042,-100,4,2,0,60,0,1
57239,-100,4,2,0,60,0,0
58621,-100,4,2,0,60,0,1
58818,-100,4,2,0,60,0,0
60199,-100,4,2,0,60,0,1
60397,-100,4,2,0,60,0,0
63357,-100,4,2,0,60,0,1
88621,-100,4,2,0,60,0,0
132831,-100,4,2,0,60,0,1
133028,-100,4,2,0,60,0,0
134410,-100,4,2,0,60,0,1
134607,-100,4,2,0,60,0,0
135989,-100,4,2,0,60,0,1
136186,-100,4,2,0,60,0,0
139147,-100,4,2,0,60,0,1
164410,-100,4,2,0,60,0,0
202305,-100,4,2,0,60,0,1
252831,-100,4,2,0,60,0,0
253621,-100,4,2,0,50,0,0
253818,-100,4,2,0,40,0,0
254015,-100,4,2,0,30,0,0
254213,-100,4,2,0,20,0,0
254410,-100,4,2,0,10,0,0

[Colours]
Combo1 : 255,150,0
Combo2 : 0,128,255
Combo3 : 255,159,159
Combo4 : 128,128,255

[HitObjects]
164,308,14213,1,0
164,308,14410,2,0,B|256:376|348:308,1,200,2|8
436,256,15594,2,0,B|464:160,1,100,0|0
388,96,16384,2,0,B|360:192,2,100,2|8|0
304,40,17568,5,0
304,40,17765,2,0,B|224:100|108:80,1,200
64,76,18752,1,0
68,176,19147,6,0,B|116:152|164:160,1,100,0|2
116,248,19936,2,0,B|68:272|20:264,2,100,8|0|0
208,204,21121,1,2
300,248,21515,2,0,B|348:272|396:264,3,100,8|0|0|2
448,260,22897,1,0
496,244,23094,1,8
460,152,23489,6,0,B|472:52,1,100
372,56,24278,2,0,B|276:96|176:72,1,200,0|2
76,184,25463,6,0,B|172:144|272:168,1,200,2|8
372,184,26647,2,0,B|472:200,1,100
404,276,27436,2,0,B|305:260,1,100,2|8
256,252,28028,1,0
208,244,28226,1,2
116,284,28621,6,0,B|44:204|76:96,1,200,8|0
156,32,29805,2,0,B|220:76|220:76|256:20|292:76|292:76|356:32,1,250,2|0
356,31,30989,5,8
448,72,31384,1,0
376,144,31778,2,0,B|448:220|452:328,1,200,2|8
352,332,32963,2,0,B|212:376|52:344,1,300,0|8
136,284,34542,6,0,B|112:180,1,100
36,252,35331,2,0,B|12:148,1,100,0|8
64,68,36121,1,0
112,48,36318,1,0
160,28,36515,1,0
256,64,36910,1,2
352,28,37305,1,8
448,56,37699,6,0,B|508:144|496:256,1,200,0|2
404,208,38884,2,0,B|400:312,1,100,8|0
316,360,39673,2,0,B|319:260,1,100,0|2
236,204,40463,2,0,B|232:308,1,100,8|0
136,324,41252,1,0
116,100,42042,6,0,B|192:52|256:36|320:52|396:100,1,300,8|2
480,156,43621,1,8
448,252,44015,1,0
376,320,44410,6,0,B|336:352|280:348,1,100,0|2
200,292,45199,2,0,B|240:260|296:264,1,100,8|0
392,240,45989,2,0,B|472:176|456:60,1,200,2|8
456,60,47173,1,0
352,44,47568,6,0,B|256:92|160:44,1,200,2|8
92,116,48752,2,0,B|24:200|56:304,1,200,0|2
55,303,49936,1,8
55,303,50331,1,0
148,344,50726,6,0,B|352:360,1,200,2|8
472,272,51910,2,0,B|372:300|276:256,1,200,0|2
232,236,52897,1,0
188,208,53094,1,8
92,232,53489,1,0
92,232,53884,6,0,B|12:156|28:48,2,200,2|8|0
160,304,55857,1,2
204,324,56055,1,0
248,344,56252,1,8
348,324,56647,5,0
448,308,57042,2,0,B|496:204|488:112,1,200,2|8
404,60,58226,5,0
356,52,58423,1,0
308,44,58621,2,0,B|200:32|108:60,1,200,2|8
52,140,59805,5,0
44,188,60002,1,0
36,236,60199,2,0,B|16:336,1,100,0|2
112,300,60989,2,0,B|131:201,1,100,8|0
208,268,61778,2,0,B|188:366,1,100,0|2
280,324,62568,2,0,B|299:225,1,100,8|0
384,276,63357,6,0,B|476:220|488:112,1,200,2|8
428,32,64542,1,0
336,68,64936,2,0,B|232:92|140:48,1,200,2|8
96,32,65923,1,0
48,44,66121,1,0
68,140,66515,6,0,B|44:240,1,100,0|2
144,224,67305,2,0,B|120:324,1,100,8|0
220,336,68094,2,0,B|420:344,1,200,2|8
456,252,69278,6,0,B|408:272|340:256,1,100
312,172,70068,2,0,B|360:192|428:176,1,100
460,168,70660,1,0
504,148,70857,1,0
444,68,71252,6,0,B|396:88|328:72,1,100,0|2
244,68,72042,2,0,B|44:60,1,200,8|0
44,60,73226,1,2
84,152,73621,6,0,B|180:192|280:156,1,200,8|0
376,128,74805,1,2
396,248,75199,2,0,B|292:216|200:260,1,200,8|0
112,304,76383,5,2
28,252,76778,1,8
88,172,77173,1,0
60,76,77568,6,0,B|160:88|256:48,1,200,2|8
304,32,78555,1,0
352,36,78752,1,0
436,92,79147,2,0,B|500:280,1,200,2|8
500,281,80331,1,0
416,336,80726,2,0,B|384:236,1,100,0|2
292,276,81515,2,0,B|261:180,1,100,8|0
164,208,82305,2,0,B|194:303,2,100,0|2|8
76,252,83489,6,0,B|0:180|32:64,1,200,0|2
132,60,84673,2,0,B|232:84|328:48,1,200,8|0
328,47,85857,1,2
444,144,86252,6,0,B|344:120|248:156,1,200,8|0
247,156,87436,1,2
152,188,87831,2,0,B|52:180,1,100,8|0
92,272,88621,2,0,B|192:280,1,100,0|2
241,284,89213,1,0
290,288,89410,1,8
389,293,89805,5,0
389,293,90002,1,0
389,293,90199,2,0,B|480:232|480:124,1,200,2|8
468,24,91384,1,0
468,24,91778,1,0
256,60,92568,1,8
44,24,93357,5,0
32,72,93555,1,0
16,120,93752,1,2
88,192,94147,2,0,B|52:232|64:288,1,100,8|0
156,244,94936,2,0,B|192:204|180:148,1,100,0|2
164,52,95726,1,8
164,52,96121,5,0
164,52,96318,1,0
164,52,96515,2,0,B|256:8|360:36,1,200,2|8
420,116,97699,2,0,B|376:144|320:124,1,100
268,208,98489,2,0,B|312:236|368:216,1,100,2|8
416,304,99278,6,0,B|280:372|120:328,1,300,2|8
28,304,100857,1,0
84,220,101252,2,0,B|12:144|20:36,2,200,2|8|0
160,288,103226,2,0,B|252:328,1,100,2|8
228,232,104015,2,0,B|136:192,1,100
64,124,104805,6,0,B|20:92|16:40,2,100,2|8|0
128,48,105989,2,0,B|224:24|328:36,1,200,2|8
424,48,107173,1,0
472,136,107568,2,0,B|496:232,1,100,0|2
396,228,108357,2,0,B|420:324,2,100,8|0|0
368,132,109542,1,2
280,88,109936,6,0,B|184:56|80:80,1,200,8|0
36,168,111121,2,0,B|84:188|136:176,1,100,2|8
232,164,111910,1,0
280,156,112107,1,0
328,148,112305,1,0
428,132,112699,1,2
428,132,113094,1,8
428,132,113489,1,0
468,224,113884,6,0,B|504:264|504:316,1,100,0|2
404,324,114673,2,0,B|308:352|204:340,1,200,8|0
108,328,115857,1,2
40,256,116252,2,0,B|36:156,1,100,8|0
32,56,117042,5,2
256,344,117831,1,8
480,56,118621,1,2
256,344,119410,1,8
352,44,120199,6,0,B|256:92|160:44,1,200,2|8
72,92,121384,1,0
72,92,121778,2,0,B|28:184,1,100,0|2
128,176,122568,2,0,B|112:276,1,100,8|0
200,324,123357,6,0,B|300:352|400:332,1,200,2|8
452,248,124542,2,0,B|404:224|352:236,1,100
284,164,125331,2,0,B|332:140|384:152,1,100,2|8
480,168,126121,1,0
452,72,126515,6,0,B|236:36,1,200,2|8
156,44,127699,1,0
80,108,128094,2,0,B|0:176|12:288,1,200,2|8
11,286,129278,1,0
96,340,129673,6,0,B|200:352,1,100,0|2
148,264,130463,2,0,B|44:252,1,100,8|0
120,180,131252,2,0,B|224:192,1,100,0|2
320,204,132042,1,8
320,204,132239,1,0
320,204,132436,1,0
256,192,132831,12,0,134015
256,192,134410,12,0,135594
256,344,135989,6,0,B|356:384|456:344,1,200,2|8
508,264,137173,2,0,B|460:244|408:264,1,100
312,256,137963,2,0,B|264:224|260:172,1,100,2|8
256,72,138752,1,0
256,72,138949,1,0
256,72,139147,5,0
144,252,139542,1,2
368,252,139936,1,8
256,348,140331,5,0
368,168,140726,1,0
144,168,141120,1,2
144,168,141515,2,0,B|24:124|36:20,2,200,8|2|8
256,192,143489,1,0
368,168,143884,6,0,B|488:124|476:20,2,200,2|8|0
256,192,145857,1,2
196,272,146252,6,0,B|156:304|100:304,2,100,8|0|0
284,324,147436,2,0,B|324:356|380:356,1,100,2|8
476,352,148226,1,0
428,264,148621,2,0,B|476:176|456:68,1,200,2|8
356,68,149805,6,0,B|152:60,1,200,0|2
92,136,150989,2,0,B|140:160|192:144,1,100,8|0
136,228,151778,2,0,B|88:252|36:236,1,100,0|2
92,324,152568,2,0,B|140:348|192:332,1,100,8|0
288,308,153357,5,0
384,340,153752,1,2
472,288,154147,2,0,B|504:192|472:92,1,200,8|0
384,44,155331,1,2
384,144,155726,2,0,B|416:240|384:340,1,200,8|0
284,340,156910,6,0,B|236:356|184:348,1,100,2|8
232,260,157699,2,0,B|280:244|332:252,1,100
428,268,158489,1,2
428,268,158686,1,0
428,268,158884,5,8
256,104,159278,1,0
84,268,159673,1,0
152,152,160068,1,2
256,336,160462,1,8
360,152,160857,1,0
256,336,161252,1,0
160,44,162042,6,0,B|256:92|352:44,1,200,8|0
448,72,163226,2,0,B|488:272,1,200
256,192,164410,12,0,165594
208,324,165989,5,2
256,340,166186,1,0
304,324,166384,1,2
404,336,166778,1,8
496,300,167173,2,0,B|508:184|460:88,1,200,0|2
467,104,168357,1,8
384,52,168752,6,0,B|280:48,1,100
208,116,169542,2,0,B|160:136|108:128,1,100,2|8
44,204,170331,2,0,B|92:224|144:216,1,100
200,300,171121,6,0,B|152:320|100:312,2,100,2|8|0
292,336,172305,2,0,B|388:372|492:348,1,200,0|8
488,348,173489,1,0
484,248,173884,6,0,B|436:268|384:252,1,100,0|2
332,168,174673,2,0,B|380:188|432:172,1,100,8|0
476,84,175463,2,0,B|428:104|376:88,1,100,0|2
328,80,176055,1,0
280,92,176252,1,8
132,56,176647,1,0
20,156,177042,5,0
84,232,177436,1,2
40,320,177831,2,0,B|80:356|132:356,1,100,8|0
196,280,178621,2,0,B|296:264|396:292,1,200,2|8
332,368,179805,2,0,B|276:272|316:176,1,200,0|2
315,176,180989,1,8
352,84,181384,6,0,B|256:48|152:68,1,200,0|2
60,92,182568,2,0,B|24:184,1,100,8|0
124,188,183357,2,0,B|87:281,1,100,0|2
172,332,184147,5,8
220,340,184344,1,0
268,348,184542,1,2
368,344,184936,1,0
460,304,185331,1,2
472,204,185726,1,8
420,120,186121,2,0,B|468:96|472:40,2,100,0|0|2
340,64,187305,6,0,B|244:16|144:48,1,200,8|0
88,128,188489,2,0,B|136:152|184:140,1,100,2|8
124,220,189278,2,0,B|76:244|28:232,1,100
128,108,202305,6,0,B|36:164|24:272,1,200,2|8
84,352,203490,1,0
176,316,203884,2,0,B|280:292|372:336,1,200,2|8
416,352,204871,1,0
464,340,205069,1,0
444,244,205463,6,0,B|468:144,1,100,0|2
368,160,206253,2,0,B|392:60,1,100,8|0
292,48,207042,2,0,B|92:40,1,200,2|8
56,132,208226,6,0,B|104:112|172:128,1,100
200,212,209016,2,0,B|152:192|84:208,1,100
52,216,209608,1,0
8,236,209805,1,0
68,316,210200,6,0,B|116:296|184:312,1,100,0|2
268,316,210990,2,0,B|468:324,1,200,8|0
468,324,212174,1,2
428,232,212569,6,0,B|332:192|232:228,1,200,8|0
136,256,213753,1,2
116,136,214147,2,0,B|220:168|312:124,1,200,8|0
400,80,215331,5,2
484,132,215726,1,8
424,212,216121,1,0
452,308,216516,6,0,B|352:296|256:336,1,200,2|8
208,352,217503,1,0
160,348,217700,1,0
76,292,218095,2,0,B|12:104,1,200,2|8
12,103,219279,1,0
96,48,219674,2,0,B|128:148,1,100,0|2
220,108,220463,2,0,B|251:204,1,100,8|0
348,176,221253,2,0,B|318:81,2,100,0|2|8
436,132,222437,6,0,B|512:204|480:320,1,200,0|2
380,324,223621,2,0,B|280:300|184:336,1,200,8|0
184,337,224805,1,2
68,240,225200,6,0,B|168:264|264:228,1,200,8|0
265,228,226384,1,2
352,176,226779,2,0,B|452:184,1,100,8|0
512,104,227569,2,0,B|412:96,1,100,0|2
412,96,228160,1,0
412,96,228357,1,0
256,72,228752,1,0
256,72,229147,5,0
144,252,229542,1,2
368,252,229936,1,8
256,348,230331,5,0
368,168,230726,1,0
144,168,231120,1,2
144,168,231515,2,0,B|24:124|36:20,2,200,8|2|8
256,192,233489,1,0
368,168,233884,6,0,B|488:124|476:20,2,200,2|8|0
256,192,235857,1,2
196,272,236252,6,0,B|156:304|100:304,2,100,8|0|0
284,324,237436,2,0,B|324:356|380:356,1,100,2|8
476,352,238226,1,0
428,264,238621,2,0,B|476:176|456:68,1,200,2|8
356,68,239805,6,0,B|152:60,1,200,0|2
92,136,240989,2,0,B|140:160|192:144,1,100,8|0
136,228,241778,2,0,B|88:252|36:236,1,100,0|2
92,324,242568,2,0,B|140:348|192:332,1,100,8|0
288,308,243357,5,0
384,340,243752,1,2
472,288,244147,2,0,B|504:192|472:92,1,200,8|0
384,44,245331,1,2
384,144,245726,2,0,B|416:240|384:340,1,200,8|0
284,340,246910,6,0,B|236:356|184:348,1,100,2|8
232,260,247699,2,0,B|280:244|332:252,1,100
428,268,248489,1,2
428,268,248686,1,0
428,268,248884,5,8
476,180,249278,1,2
464,80,249673,2,0,B|368:44|264:56,1,200,8|0
172,80,250857,5,0
156,180,251252,1,0
56,192,251647,1,2
88,288,252042,2,0,B|120:328|172:336,1,100,8|0
256,192,252634,12,2,254410
