osu file format v5

[General]
AudioFilename: Utada Hikaru - Simple and Clean (Remix).mp3
AudioLeadIn: 0
PreviewTime: -1
Countdown: 1
SampleSet: Normal
StackLeniency: 0.7
Mode: 0
LetterboxInBreaks: 1
EditorBookmarks: 50576

[Metadata]
Title:Simple and Clean (Techno Remix)
Artist:Utada Hikaru
Creator:osuplayer111
Version:Normal
Source:Kingdom Hearts
Tags:

[Difficulty]
HPDrainRate:7
CircleSize:5
OverallDifficulty:6
SliderMultiplier:1.4
SliderTickRate:2

[Events]
//Background and Video events
0,0,"KH2_Sora_Kairi_Riku.jpg"
1,0,"Filmato_0002.wmv"
//Break Periods
2,73622,73709
//Storyboard Layer 0 (Background)
//Storyboard Layer 1 (Failing)
//Storyboard Layer 2 (Passing)
//Storyboard Layer 3 (Foreground)
//Storyboard Sound Samples
//Background Colour Transformations
3,100,163,162,255

[TimingPoints]
14342,461.538461538462,4,1,0,52,1
90038,-100,4,2,0,100,0
104807,-100,4,1,0,52,0

[Colours]
Combo1 : 0,0,255
Combo2 : 128,255,255
Combo3 : 0,128,192

[HitObjects]
40,32,14342,1,8
120,32,14803,1,8
200,32,15265,1,2
280,32,15726,1,4
280,112,16188,5,8
200,112,16649,1,8
120,112,17111,1,2
40,112,17572,1,4
40,200,18034,6,2,B|40:352,1,140
152,200,18957,2,2,B|152:344,1,140,2|2
264,200,19880,2,2,B|264:368,1,140
368,200,20803,1,10
256,192,21265,12,8,22188
336,352,22649,5,2
448,352,23111,1,4
488,288,23572,5,8
400,288,24034,1,8
312,288,24495,1,2
224,288,24957,1,4
144,288,25418,6,2,B|-8:288,1,140
0,176,26342,2,2,B|160:176,1,140
248,176,27265,1,4
48,48,27957,5,0
48,48,28188,2,0,B|344:48,1,280,0|4
408,48,29572,5,0
344,104,30034,1,0
344,184,30495,1,0
408,240,30957,1,0
408,320,31418,1,0
408,360,31649,5,0
408,360,31880,2,0,B|120:360,1,280,0|4
40,360,33265,1,0
40,272,33726,1,0
80,272,33957,6,2,B|240:272,1,140
304,272,34880,1,0
384,272,35342,5,0
384,272,35572,2,0,B|480:224|480:160|376:152|328:88|472:56,2,280
312,320,37880,2,4,B|264:368|240:248|184:336,1,140
64,328,39034,5,0
64,328,39265,2,0,B|-8:304|-3:217|101:186|208:264|108:324|88:328,2,280
64,368,41341,6,2,B|136:368,1,70
176,368,41803,2,4,B|248:368,1,70
248,328,42265,2,2,B|160:328,1,70
136,328,42726,2,4,B|48:328,1,70
64,288,43188,2,2,B|144:288,1,70
176,288,43649,2,4,B|264:288,1,70
288,288,44111,5,0
288,288,44341,2,0,B|376:288|376:208|280:208|192:208|192:128|304:128|392:128|392:64|288:64|192:64,1,420
176,64,45957,5,0
176,104,46188,2,0,B|176:264|264:264|264:176|264:64|336:64|336:144|336:264|432:184,1,420
496,136,48034,1,0
496,96,48265,5,0
496,96,48495,2,0,B|496:16,1,70,0|4
456,24,48957,6,0,B|304:24,1,140
288,56,49649,6,2,B|216:128,1,70
272,136,50111,2,2,B|344:208,1,70
352,208,50572,2,2,B|280:280,1,70
296,312,51034,6,2,L|152:312|208:248,1,210
248,240,51957,1,0
248,240,52072,1,4
328,240,52418,6,0,B|456:240,2,105
424,176,53572,2,4,B|424:24,1,140
312,32,54495,2,4,B|312:184,1,140
368,272,55418,5,0
312,272,55649,6,0,B|144:272,1,140
256,192,56572,12,4,58188
48,344,58649,6,8,B|48:208,3,105
48,176,60034,1,8
112,232,60495,6,8,B|112:96,3,105
112,64,61880,1,8
192,64,62341,6,2,B|304:64|304:184|240:192|200:192|160:192|152:168|160:136|160:112|168:96|200:96|224:104|224:128|224:136|224:160,1,350
224,192,63726,1,0
224,232,63957,2,2,B|224:328|280:344|312:320|312:216,1,210
312,104,65341,5,4
224,104,65572,5,4
136,32,66034,6,2,B|8:32,2,105
136,88,66957,2,2,B|16:88,2,105
136,144,67880,2,2,B|24:144,2,105
144,200,68803,2,2,B|144:272|208:272,1,105
280,296,69495,1,2
336,296,69726,6,6,B|504:296,1,140
480,240,70418,1,0
480,240,70534,2,2,B|480:104,1,105
256,192,71341,12,4,73418
464,40,75265,6,4,B|168:40,1,280
56,144,77111,6,2,B|56:264,2,105
56,104,78034,1,8
96,104,78265,1,2
136,104,78495,1,8
136,144,78726,1,2
136,184,78957,6,4,B|136:248|152:280|192:296|256:304|272:280|288:208|288:168,1,280
288,96,80341,6,2,B|288:56,2,35
288,136,80803,2,2,B|288:272,1,122.5
288,296,81438,1,2
288,336,81668,1,4
144,336,82418,5,2
144,336,82649,2,2,B|16:336,1,105
40,272,83342,1,2
40,272,83572,2,2,B|160:272,1,105
208,272,84265,5,2
248,272,84495,2,6,B|400:272,3,140
432,272,86111,1,0
472,272,86342,2,6,B|512:272|512:336|472:360|402:330|402:330,3,140
256,192,88188,12,4,90034
256,192,90957,5,0
40,40,91880,6,8,B|152:40,1,105
208,40,92572,1,8
248,40,92803,1,8
328,40,93265,1,8
408,40,93726,2,4,B|480:40|520:56|520:128|520:168|496:200|392:184,1,280
336,184,95111,6,8,B|272:184,2,35
336,224,95572,2,8,B|208:224,1,122.5
168,224,96207,1,8
128,224,96438,1,8
48,320,97130,5,8
96,320,97418,2,2,B|224:320,1,105,2|6
264,320,98111,1,8
304,320,98342,2,2,B|440:320,1,105,2|6
408,256,99034,5,8
368,256,99265,2,2,B|288:256,1,70
296,216,99726,2,2,B|376:216,1,70
408,216,100188,2,2,B|408:136,1,70
408,104,100649,1,2
408,64,100880,2,2,B|408:8|320:0|288:40|296:176,2,245
256,192,102957,12,4,104803
