osu file format v5

[General]
AudioFilename: Utada Hikaru - Simple and Clean (Remix).mp3
AudioLeadIn: 0
PreviewTime: -1
Countdown: 1
SampleSet: Normal
StackLeniency: 0.7
Mode: 0
LetterboxInBreaks: 1
EditorBookmarks: 14345,75269,93726,104807

[Metadata]
Title:Simple and Clean (Techno Remix)
Artist:Utada Hikaru
Creator:osuplayer111
Version:Luxary ReMiX
Source:Kingdom Hearts
Tags:

[Difficulty]
HPDrainRate:7
CircleSize:5
OverallDifficulty:7
SliderMultiplier:2
SliderTickRate:2

[Events]
//Background and Video events
0,0,"KH2_Sora_Kairi_Riku.jpg"
1,0,"Filmato_0002.wmv"
//Break Periods
2,73272,74365
//Storyboard Layer 0 (Background)
//Storyboard Layer 1 (Failing)
//Storyboard Layer 2 (Passing)
//Storyboard Layer 3 (Foreground)
//Storyboard Sound Samples
//Background Colour Transformations
3,100,163,162,255

[TimingPoints]
14342,461.538461538462,4,1,1,50,1
15611,-100,4,1,2,50,0
16072,-100,4,1,1,50,0
17457,-100,4,1,2,50,0
21149,-100,4,1,1,50,0
25303,-100,4,1,2,50,0
27149,-100,4,1,2,0,0
27380,-100,4,1,1,15,0
27553,-100,4,1,1,30,0
27668,-100,4,1,1,50,0
34534,-100,4,1,2,50,0
35688,-100,4,1,1,50,0
38457,-100,4,1,2,50,0
39149,-100,4,1,1,50,0
41111,-50,4,1,2,50,0
41688,-100,4,1,1,50,0
42149,-50,4,1,2,50,0
42611,-50,4,1,1,50,0
43880,-100,4,1,1,50,0
45611,-100,4,1,2,50,0
48149,-100,4,1,1,50,0
49303,-100,4,1,2,50,0
49534,-100,4,1,1,50,0
53342,-100,4,1,2,50,0
55072,-100,4,1,1,50,0
59457,-100,4,1,2,50,0
63611,-100,4,1,1,50,0
69611,-100,4,1,2,50,0
71226,-100,4,1,1,50,0
75149,-100,4,1,2,50,0
76534,-100,4,1,1,50,0
78842,-100,4,1,2,50,0
80266,-100,4,1,1,50,0
85995,-100,4,1,2,50,0
91303,-100,4,1,1,50,0
93611,-100,4,1,2,50,0
94995,-100,4,1,1,50,0
96611,-100,4,1,2,50,0
97303,-100,4,1,1,50,0
102742,-100,4,1,2,50,0

[Colours]
Combo1 : 0,0,255
Combo2 : 128,255,255
Combo3 : 0,128,192

[HitObjects]
256,192,10418,12,0,13880
40,40,14341,5,8
40,120,14572,1,8
40,200,14803,1,8
40,280,15034,2,2,B|120:256|120:160|120:104,1,200
120,32,15726,1,4
120,32,15841,1,0
120,32,15957,1,4
200,32,16188,6,8,B|160:88|232:128,1,100
296,120,16649,1,8
376,120,16880,2,0,B|416:176|344:216,1,100,2|0
280,208,17341,1,2
200,208,17572,1,4
120,208,17803,1,4
40,208,18034,1,2
40,128,18265,6,0,B|88:64|160:56|256:88,1,200
272,136,18957,1,2
296,208,19188,2,0,B|248:272|176:280|80:248,1,200
56,200,19880,1,2
56,120,20111,6,0,B|56:16,4,100,0|0|0|2|0
136,120,21265,1,8
176,120,21380,1,2
216,120,21495,1,8
256,120,21611,1,2
296,120,21726,1,0
376,120,21957,5,8
456,120,22188,1,0
464,200,22418,2,0,B|360:200,1,100,8|2
304,144,22880,2,2,B|424:144,1,100,2|2
352,80,23342,2,0,B|352:192,1,100,8|0
408,232,23803,2,0,B|408:120,1,100,8|0
288,200,24265,2,0,B|288:256,6,50,8|0|2|0|2|0|2
216,224,25188,1,2
136,224,25418,6,0,B|56:224|24:192|56:168|176:168,1,200,4|0
216,224,26111,2,0,B|272:216|200:168|304:160|392:160|416:160,1,200,4|0
400,240,26803,2,0,B|400:296|360:296|360:240,1,100,4|0
384,160,27265,5,0
456,184,27495,1,8
456,224,27611,1,2
456,264,27726,1,8
448,344,27957,5,0
448,344,28188,1,0
448,344,28418,1,0
368,344,28649,2,0,B|392:264|376:224|304:224|296:264|304:336,1,200,0|8
232,344,29342,6,0,B|120:344,1,100,0|8
72,288,29803,2,0,B|176:288,1,100,0|2
112,232,30265,2,0,B|8:232,1,100,0|8
72,176,30726,2,0,B|176:176,1,100,0|2
328,184,31418,5,8
408,184,31649,1,0
464,128,31880,1,2
392,88,32111,2,8,B|288:88,1,100,0|2
240,144,32572,5,0
240,144,32688,1,0
240,144,32803,1,8
80,144,33265,6,0,B|80:256,1,100,2|0
192,352,33957,2,4,B|256:336|272:264|272:216|272:168,1,200
272,104,34649,2,0,B|384:104,1,100,4|0
448,104,35111,5,4
440,184,35342,1,0
384,240,35572,1,8
320,280,35803,2,0,L|280:280|272:312|256:280|240:312|224:280|200:312,1,200
128,296,36495,6,0,B|80:264|48:216|48:152|40:104,1,200,2|0
40,48,37188,1,2
120,48,37418,1,2
200,48,37649,1,8
352,56,37879,5,8
352,56,37995,1,2
352,56,38110,1,8
352,56,38226,1,2
352,56,38341,1,0
400,120,38572,6,0,B|456:168|464:208,1,100,0|4
472,280,39034,1,0
472,352,39265,6,0,B|264:352,1,200
192,352,39957,1,0
192,352,40072,2,0,B|72:336|144:304|144:304|256:280|88:200,1,250
472,32,41342,6,4,B|504:80|520:144|496:208|456:248,1,200,4|4
320,224,41803,1,10
160,224,42034,1,6
32,224,42265,2,4,B|0:176|-16:112|8:48|48:8,1,200
184,32,42726,5,2
184,32,42842,1,0
184,32,42957,1,2
344,32,43188,1,2
344,32,43303,1,0
344,32,43418,1,2
200,104,43649,6,4,B|264:112|328:112|224:160|224:192|232:192|256:192|328:168,1,200
376,144,44111,6,8,B|472:80,3,100
464,168,45034,5,8
464,168,45149,1,0
464,168,45265,2,8,B|464:216,1,100
328,248,45726,2,0,B|208:248,1,100,4|0
144,248,46188,5,8
64,224,46418,1,8
24,152,46649,1,8
88,104,46880,1,8
88,104,46995,1,0
216,96,47342,2,0,B|208:136|136:176,1,100,8|4
152,248,47803,5,2
232,248,48034,1,2
312,248,48265,1,2
312,248,48380,1,0
312,248,48496,2,2,B|368:240|376:176,1,100
384,104,48957,2,8,B|376:56|304:40,1,100
232,40,49418,1,4
152,40,49649,6,0,B|152:152,1,100,2|8
208,80,50111,2,0,B|152:80|88:128,1,100,2|8
48,152,50572,1,2
48,232,50803,1,8
104,296,51034,6,0,B|160:304|232:296|280:272|312:216|304:136,1,300
304,139,51957,1,0
304,139,52072,1,0
184,136,52418,5,2
224,64,52649,1,0
296,40,52880,2,0,B|416:40,1,100,2|0
432,192,53572,5,4
432,352,54034,1,4
272,352,54495,1,4
272,192,54957,1,4
272,272,55188,6,2,B|128:272,1,100
88,272,55649,1,8
88,272,55765,1,8
88,152,56111,1,8
248,152,56573,5,0
328,152,56803,1,2
400,112,57034,1,0
432,88,57149,2,0,B|384:40|280:48,1,150,2|0
208,48,57726,5,0
48,48,58188,1,0
40,216,58649,5,8
40,296,58880,1,0
40,336,58995,1,8
120,336,59226,1,0
160,336,59342,2,0,B|272:336,1,100,8|4
336,336,59803,1,4
416,336,60034,1,4
480,184,60495,5,8
480,104,60726,1,0
480,64,60842,1,8
368,24,61188,2,0,B|296:24,3,50,0|8|0|0
280,24,61649,2,4,B|152:24,1,100
256,192,62342,12,0,63265
160,32,63726,5,2
240,40,63957,1,0
272,56,64072,1,2
288,88,64188,1,0
288,168,64418,2,0,B|288:272,1,100,0|8
288,344,64880,2,0,B|224:344|216:272,1,100,0|8
216,208,65342,5,0
216,208,65572,1,0
216,40,66034,5,2
136,40,66265,1,0
104,64,66380,1,2
24,152,66726,1,0
24,232,66957,1,2
64,296,67188,1,0
88,328,67303,1,2
208,328,67649,1,0
288,328,67880,6,0,B|360:328,4,50,2|0|0|2|0
288,248,68572,2,0,B|288:184|256:136,1,100,0|8
184,64,69149,1,0
152,40,69265,2,0,B|104:32|40:72,1,100,8|0
40,144,69726,6,0,B|40:208|144:216|176:136|112:96|88:96|64:120|64:160|96:168,1,200,4|0
136,184,70418,1,0
136,184,70534,1,4
312,272,71342,5,0
352,200,71573,1,2
384,128,71803,1,0
416,56,72034,1,2
336,32,72265,6,0,B|304:96,1,50
256,184,72726,2,4,B|232:232|320:72,1,150
256,192,75265,6,4,B|208:192|208:136|256:136|312:136|312:192|312:248|256:248|208:248|152:248|152:192|152:128|272:72,1,400
400,48,76649,2,0,B|448:24|488:96,1,100
480,168,77111,1,8
480,208,77226,5,0
480,248,77342,1,8
480,328,77572,2,2,B|400:320|400:240,1,100
408,192,78034,2,8,B|408:152|312:152,1,100
248,152,78495,1,2
304,96,78726,1,8
360,144,78957,2,4,B|440:232|528:16|352:16|312:24|296:24|224:56|216:88|200:136,1,400
216,272,80342,5,8
216,312,80457,1,0
216,352,80572,1,8
136,352,80803,2,2,B|56:352|24:248,1,150
24,144,81380,2,2,B|24:32,1,100
144,32,81957,6,0,B|272:32,1,100,0|8
320,32,82418,6,0,B|320:80|320:80|368:80|320:128,1,100,0|8
336,232,82995,1,2
336,352,83342,2,0,B|280:328|248:272,1,100,0|8
216,176,83918,1,2
104,168,84265,6,8,B|112:112|168:72,2,100
104,248,84957,1,2
144,320,85188,1,2
216,352,85418,2,8,B|328:352,1,100
376,304,85880,1,2
424,240,86111,2,4,B|480:200|528:128|464:56|384:32|288:56|208:88|208:144|336:216|408:208|456:160|416:96|336:88|304:120|304:144|344:160|376:112,1,500
424,88,87495,5,8
424,88,87726,1,8
40,40,88188,5,4
40,352,88649,1,4
472,352,89111,2,0,B|472:192,1,150,4|8
472,32,89803,1,8
392,32,90034,6,4,B|352:32|280:40|272:72|304:96|352:96|400:80|440:112|432:144|352:120|296:120|288:120|296:96|344:80|368:64|416:56|440:96|440:136|416:160|352:144|336:152,1,400
184,152,91419,1,8
152,176,91534,1,0
144,216,91649,1,8
200,272,91880,6,2,B|216:224|240:128|256:288|272:304|296:152,1,200
296,136,92457,1,8
304,96,92572,2,2,B|400:32,1,100
440,96,93034,2,8,B|344:160,1,100
304,208,93495,1,2
304,208,93726,2,4,B|344:208|416:216|424:248|392:272|344:272|296:256|256:288|264:320|344:296|400:296|408:296|400:272|352:256|328:240|280:232|256:272|256:312|280:336|344:320|360:328,1,400
432,184,95111,5,8
416,144,95226,1,0
384,112,95342,1,8
304,104,95572,2,2,B|184:104,1,100
160,104,95918,1,0
104,40,96149,1,0
144,40,96265,2,2,B|256:40,1,100
320,40,96726,2,4,B|424:40,1,100
496,40,97188,5,0
480,120,97418,1,8
424,184,97650,1,0
392,208,97765,1,8
288,272,98111,2,2,B|232:296|168:272,1,100
120,240,98572,1,0
88,208,98688,1,2
56,88,99034,6,8,B|104:48|152:40,2,100
40,168,99726,1,2
56,248,99957,1,2
104,312,100188,2,8,B|152:336|216:320,1,100
272,280,100649,1,8
256,192,100880,12,0,102495
112,72,102957,6,0,L|256:72,1,100,4|0
288,72,103418,1,4
368,96,103649,1,0
304,144,103880,2,4,B|224:296,2,150
224,136,104803,5,4
