osu file format v10

[General]
AudioFilename: Simple And Clean Nightcore.mp3
AudioLeadIn: 1996
PreviewTime: 688
Countdown: 0
SampleSet: Soft
StackLeniency: 0.7
Mode: 1
LetterboxInBreaks: 1

[Editor]
DistanceSpacing: 1.1
BeatDivisor: 4
GridSize: 4

[Metadata]
Title:Simple and Clean (Nightcore)
TitleUnicode:Simple and Clean (Nightcore)
Artist:Utada Hikaru
ArtistUnicode:Utada Hikaru
Creator:Saturos-fangirl
Version:Taiko Oni
Source:Kingdom Hearts 2
Tags:project five human emotions desire SFG taiko ctb
BeatmapID:189487
BeatmapSetID:64370

[Difficulty]
HPDrainRate:6
CircleSize:5
OverallDifficulty:6
ApproachRate:7
SliderMultiplier:1.4
SliderTickRate:2

[Events]
//Background and Video events
0,0,"simpleloveplain.jpg"
//Break Periods
2,19869,21142
//Storyboard Layer 0 (Background)
Sprite,Background,Centre,"simplelovecolor.jpg",321,241 F,0,0,140678,0 S,0,0,216604,0.625 F,0,140678,159363,1 F,0,159363,178641,0 F,0,178641,216604,1
//Storyboard Layer 1 (Fail)
//Storyboard Layer 2 (Pass)
//Storyboard Layer 3 (Foreground)
//Storyboard Sound Samples
//Background Colour Transformations
3,100,163,162,255

[TimingPoints]
688,593.178447849728,4,2,1,100,1,0
688,-100,4,1,1,100,0,1
7361,-86.9565217391304,4,1,1,80,0,1
10030,-100,4,1,1,80,0,1
19224,-100,4,1,1,80,0,0
60005,-100,4,1,1,80,0,1
78690,-100,4,1,1,80,0,0
121696,-100,4,1,1,80,0,1
140381,-100,4,1,1,80,0,0
140678,-100,4,1,1,80,0,1
159363,-100,4,1,1,80,0,0
159659,-100,4,1,1,80,0,1
166333,-86.9565217391304,4,1,1,80,0,1
167519,-100,4,1,1,80,0,1
178344,-100,4,1,1,80,0,0
178641,-100,4,1,1,80,0,1
197326,-100,4,1,1,80,0,0
197623,-100,4,1,1,80,0,1
216604,-100,4,1,1,80,0,0

[Colours]
Combo1 : 136,202,221
Combo2 : 250,120,114

[HitObjects]
256,188,688,1,0,0:0:0
256,188,984,1,0,0:0:0
388,192,1132,5,8,0:0:0
256,188,1281,5,0,0:0:0
256,188,1577,1,0,0:0:0
256,188,1874,1,0,0:0:0
388,192,2022,5,8,0:0:0
388,192,2170,1,8,0:0:0
256,188,2467,5,0,0:0:0
388,192,2615,5,8,0:0:0
256,188,2764,5,0,0:0:0
256,188,3060,1,0,0:0:0
256,188,3357,1,0,0:0:0
388,192,3505,5,8,0:0:0
256,188,3653,5,0,0:0:0
256,188,3950,1,0,0:0:0
388,192,4098,5,8,0:0:0
388,192,4247,1,8,0:0:0
256,188,4543,5,0,0:0:0
388,192,4840,5,8,0:0:0
388,192,4988,1,8,0:0:0
256,188,5136,5,0,0:0:0
388,192,5433,5,8,0:0:0
256,188,5730,5,0,0:0:0
388,192,6026,5,8,0:0:0
388,192,6174,1,8,0:0:0
256,188,6323,5,0,0:0:0
388,192,6471,5,8,0:0:0
388,192,6619,1,8,0:0:0
256,188,6916,5,0,0:0:0
388,192,7212,5,8,0:0:0
256,188,7361,5,0,0:0:0
388,192,7509,5,8,0:0:0
256,188,7806,5,0,0:0:0
256,188,8102,1,0,0:0:0
256,188,8251,1,0,0:0:0
388,192,8399,5,8,0:0:0
256,188,8695,5,0,0:0:0
256,188,8992,1,0,0:0:0
256,188,9140,1,0,0:0:0
388,192,9289,5,8,0:0:0
388,192,9437,1,8,0:0:0
256,188,9585,5,0,0:0:0
256,188,9882,1,0,0:0:0
320,88,10178,5,12,0:0:0
256,188,10475,5,0,0:0:0
388,192,10623,5,8,0:0:0
388,192,10920,1,8,0:0:0
256,188,11068,5,8,0:0:0
388,192,11365,5,8,0:0:0
256,188,11513,5,0,0:0:0
256,188,11810,1,0,0:0:0
388,192,11958,5,8,0:0:0
256,188,12254,5,0,0:0:0
320,104,12551,5,12,0:0:0
256,188,12848,5,0,0:0:0
256,188,12996,1,0,0:0:0
388,192,13144,5,8,0:0:0
256,188,13441,5,0,0:0:0
388,192,13737,5,8,0:0:0
256,188,14034,5,0,0:0:0
256,188,14182,1,0,0:0:0
388,192,14331,5,8,0:0:0
256,188,14627,5,0,0:0:0
324,96,14924,5,12,0:0:0
256,188,15220,5,0,0:0:0
256,188,15369,1,0,0:0:0
388,192,15517,5,8,0:0:0
256,188,15814,5,0,0:0:0
388,192,15962,5,8,0:0:0
256,188,16258,5,0,0:0:0
388,192,16407,5,8,0:0:0
256,188,16703,5,0,0:0:0
256,188,17000,1,0,0:0:0
256,188,17148,1,0,0:0:0
388,192,17296,5,8,0:0:0
256,188,17593,5,0,0:0:0
388,192,17890,5,8,0:0:0
256,188,18186,5,0,0:0:0
256,188,18335,1,0,0:0:0
388,192,18483,5,8,0:0:0
388,192,18779,1,8,0:0:0
256,188,18928,5,0,0:0:0
388,192,19224,5,8,0:0:0
256,188,19373,5,0,0:0:0
256,188,19669,1,0,0:0:0
384,192,22042,5,8,0:0:0
256,192,22339,5,0,0:0:0
256,192,22487,1,0,0:0:0
384,192,22635,5,8,0:0:0
256,192,22932,5,0,0:0:0
384,192,23228,5,8,0:0:0
384,192,23673,1,8,0:0:0
256,192,23821,5,0,0:0:0
256,192,24118,1,0,0:0:0
384,192,24415,5,8,0:0:0
256,192,24711,5,0,0:0:0
256,192,24860,1,0,0:0:0
384,192,25008,5,8,0:0:0
384,192,25304,1,8,0:0:0
384,192,25601,1,8,0:0:0
256,192,25749,5,0,0:0:0
256,192,26046,1,0,0:0:0
384,192,26194,5,8,0:0:0
256,192,26491,5,0,0:0:0
256,192,26787,1,0,0:0:0
256,192,27232,1,0,0:0:0
384,192,27381,5,8,0:0:0
256,192,27677,5,0,0:0:0
256,192,27825,1,0,0:0:0
384,192,27974,5,8,0:0:0
256,192,28270,5,0,0:0:0
384,192,28567,5,8,0:0:0
256,192,28863,5,0,0:0:0
256,192,29012,1,0,0:0:0
384,192,29160,5,8,0:0:0
384,192,29457,1,8,0:0:0
384,192,29753,1,8,0:0:0
256,192,30050,5,0,0:0:0
256,192,30198,1,0,0:0:0
384,192,30346,5,8,0:0:0
384,192,30643,1,8,0:0:0
256,192,30791,5,0,0:0:0
256,192,31088,1,0,0:0:0
384,192,31236,5,8,0:0:0
256,192,31533,5,0,0:0:0
256,192,31829,1,0,0:0:0
256,192,31978,1,0,0:0:0
384,192,32126,5,8,0:0:0
256,192,32423,5,0,0:0:0
384,192,32719,5,8,0:0:0
256,192,33016,5,0,0:0:0
384,192,33164,5,8,0:0:0
384,192,33312,1,8,0:0:0
256,192,33609,5,0,0:0:0
384,192,33905,5,8,0:0:0
384,192,34202,1,8,0:0:0
256,192,34350,5,0,0:0:0
384,192,34499,5,8,0:0:0
256,192,34795,5,0,0:0:0
384,192,35092,5,8,0:0:0
256,192,35388,5,0,0:0:0
256,192,35537,1,0,0:0:0
384,192,35685,5,8,0:0:0
256,192,35833,5,0,0:0:0
256,192,36130,1,0,0:0:0
384,192,36278,5,8,0:0:0
256,192,36427,5,0,0:0:0
256,192,36723,1,0,0:0:0
384,192,36871,5,8,0:0:0
256,192,37168,5,0,0:0:0
384,192,37465,5,8,0:0:0
256,192,37761,5,0,0:0:0
384,192,37909,5,8,0:0:0
384,192,38206,1,8,0:0:0
256,192,38354,5,0,0:0:0
384,192,38651,5,8,0:0:0
256,192,38948,5,0,0:0:0
256,192,39096,1,0,0:0:0
384,192,39244,5,8,0:0:0
256,192,39689,5,0,0:0:0
256,192,39986,1,0,0:0:0
384,192,40134,5,8,0:0:0
256,192,40282,5,0,0:0:0
384,192,40430,5,8,0:0:0
384,192,40579,1,8,0:0:0
384,192,40727,1,8,0:0:0
312,100,41024,5,4,0:0:0
256,192,41320,1,0,0:0:0
256,192,41469,1,0,0:0:0
384,192,41617,5,8,0:0:0
256,192,41913,5,0,0:0:0
256,192,42062,1,0,0:0:0
384,192,42210,5,8,0:0:0
256,192,42507,5,0,0:0:0
384,192,42655,5,8,0:0:0
384,192,42951,1,8,0:0:0
256,192,43100,5,0,0:0:0
316,108,43396,1,4,0:0:0
256,192,43693,1,0,0:0:0
256,192,43841,1,0,0:0:0
384,192,43990,5,8,0:0:0
384,192,44286,1,8,0:0:0
384,192,44434,1,8,0:0:0
256,192,44583,5,0,0:0:0
256,192,44731,1,0,0:0:0
256,192,44879,5,8,0:0:0
384,192,45028,1,8,0:0:0
384,192,45176,5,0,0:0:0
256,192,45324,1,0,0:0:0
256,192,45472,1,0,0:0:0
384,192,45769,5,8,0:0:0
256,192,46066,5,0,0:0:0
384,192,46214,5,8,0:0:0
256,192,46362,5,0,0:0:0
256,192,46659,1,0,0:0:0
384,192,46807,5,8,0:0:0
384,192,47104,1,8,0:0:0
256,192,47252,5,0,0:0:0
384,192,47549,5,8,0:0:0
256,192,47697,5,0,0:0:0
256,192,47845,1,0,0:0:0
256,192,47993,1,0,0:0:0
312,112,48142,1,4,0:0:0
256,192,48438,1,0,0:0:0
256,192,48587,1,0,0:0:0
384,192,48735,5,8,0:0:0
256,192,49032,5,0,0:0:0
256,192,49180,1,0,0:0:0
384,192,49328,5,8,0:0:0
256,192,49625,5,0,0:0:0
384,192,49921,5,8,0:0:0
384,192,50218,1,8,0:0:0
384,192,50366,1,8,0:0:0
256,192,50514,5,0,0:0:0
256,192,50811,1,0,0:0:0
256,192,50959,1,0,0:0:0
384,192,51108,5,8,0:0:0
256,192,51404,5,0,0:0:0
384,192,51553,5,8,0:0:0
384,192,51849,1,8,0:0:0
384,192,51997,1,8,0:0:0
256,192,52146,5,0,0:0:0
256,192,52294,1,0,0:0:0
256,192,52442,1,0,0:0:0
384,192,52591,5,8,0:0:0
256,192,52887,5,0,0:0:0
256,192,53184,1,0,0:0:0
256,192,53332,1,0,0:0:0
384,192,53480,5,8,0:0:0
256,192,53777,5,0,0:0:0
384,192,54074,5,8,0:0:0
384,192,54222,1,8,0:0:0
256,192,54370,5,0,0:0:0
384,192,54667,5,8,0:0:0
384,192,54815,1,8,0:0:0
256,192,54963,5,0,0:0:0
320,112,55260,1,4,0:0:0
256,192,55705,1,0,0:0:0
384,192,55853,5,8,0:0:0
256,192,56150,5,0,0:0:0
256,192,56298,1,0,0:0:0
384,192,56446,5,8,0:0:0
256,192,56595,5,0,0:0:0
384,192,56743,5,8,0:0:0
384,192,56891,1,8,0:0:0
256,192,57039,5,0,0:0:0
256,192,57336,1,0,0:0:0
316,104,57633,5,12,0:0:0
256,192,57929,5,0,0:0:0
256,192,58078,1,0,0:0:0
384,192,58226,5,8,0:0:0
256,192,58522,5,0,0:0:0
316,104,58819,5,12,0:0:0
256,192,59116,5,0,0:0:0
256,192,59264,1,0,0:0:0
384,192,59412,5,8,0:0:0
384,192,59560,1,8,0:0:0
256,192,59709,5,0,0:0:0
256,192,59857,1,0,0:0:0
316,104,60005,5,12,0:0:0
256,192,60302,5,0,0:0:0
384,192,60450,5,8,0:0:0
256,192,60747,5,0,0:0:0
384,192,60895,5,8,0:0:0
256,192,61192,5,0,0:0:0
256,192,61340,1,0,0:0:0
384,192,61488,5,8,0:0:0
256,192,61637,5,0,0:0:0
384,192,61785,5,8,0:0:0
384,192,61933,1,8,0:0:0
256,192,62081,5,0,0:0:0
256,192,62378,1,0,0:0:0
256,192,62675,1,0,0:0:0
384,192,62823,5,8,0:0:0
384,192,62971,1,8,0:0:0
384,192,63120,1,8,0:0:0
256,192,63268,5,0,0:0:0
256,192,63564,1,0,0:0:0
384,192,63713,5,8,0:0:0
256,192,63861,5,0,0:0:0
256,192,64009,1,0,0:0:0
384,192,64158,5,8,0:0:0
384,192,64307,1,8,0:0:0
256,192,64455,5,0,0:0:0
256,192,64751,2,4,B|84:192,2,140
256,192,66234,1,0,0:0:0
368,192,66530,5,8,0:0:0
260,192,66679,5,0,0:0:0
368,192,66827,5,8,0:0:0
368,192,66975,1,8,0:0:0
260,192,67123,5,0,0:0:0
260,192,67420,1,0,0:0:0
368,192,67717,5,8,0:0:0
368,192,67865,1,8,0:0:0
260,192,68013,5,0,0:0:0
260,192,68310,1,0,0:0:0
260,192,68458,1,0,0:0:0
368,192,68606,5,8,0:0:0
260,192,68755,5,0,0:0:0
368,192,68903,5,8,0:0:0
260,192,69051,5,0,0:0:0
260,192,69200,1,0,0:0:0
316,100,69496,5,12,0:0:0
260,192,69793,5,0,0:0:0
368,192,69941,5,8,0:0:0
368,192,70238,1,8,0:0:0
260,192,70386,5,0,0:0:0
368,192,70683,5,8,0:0:0
260,192,70979,5,0,0:0:0
368,192,71127,5,8,0:0:0
368,192,71276,1,8,0:0:0
368,192,71424,1,8,0:0:0
260,192,71572,5,0,0:0:0
312,104,71869,5,12,0:0:0
260,192,72166,5,0,0:0:0
368,192,72314,5,8,0:0:0
368,192,72462,1,8,0:0:0
260,192,72610,5,0,0:0:0
368,192,72759,5,8,0:0:0
260,192,73055,5,0,0:0:0
260,192,73204,1,0,0:0:0
368,192,73352,5,8,0:0:0
260,192,73500,5,0,0:0:0
368,192,73648,5,8,0:0:0
260,192,73945,5,0,0:0:0
312,108,74242,5,12,0:0:0
260,192,74538,5,0,0:0:0
260,192,74687,1,0,0:0:0
368,192,74835,5,8,0:0:0
260,192,75131,5,0,0:0:0
368,192,75280,5,8,0:0:0
260,192,75576,5,0,0:0:0
368,192,75725,5,8,0:0:0
260,192,76021,5,0,0:0:0
260,192,76169,1,0,0:0:0
260,192,76318,1,0,0:0:0
368,192,76614,5,8,0:0:0
260,192,76911,5,0,0:0:0
260,192,77059,1,0,0:0:0
368,192,77208,5,8,0:0:0
260,192,77504,5,0,0:0:0
368,192,77652,5,8,0:0:0
260,192,77801,5,0,0:0:0
260,192,77949,1,0,0:0:0
368,192,78097,5,8,0:0:0
260,192,78246,5,0,0:0:0
260,192,78394,1,0,0:0:0
368,192,78542,5,8,0:0:0
260,192,78690,5,0,0:0:0
260,192,78987,1,0,0:0:0
260,192,79284,1,0,0:0:0
260,192,79432,1,0,0:0:0
368,192,79580,5,8,0:0:0
260,192,79877,5,0,0:0:0
260,192,80173,1,0,0:0:0
260,192,80322,1,0,0:0:0
260,192,80618,1,0,0:0:0
368,192,80767,5,8,0:0:0
260,192,81063,5,0,0:0:0
260,192,81211,1,0,0:0:0
260,192,81360,1,0,0:0:0
260,192,81656,1,0,0:0:0
368,192,81953,5,8,0:0:0
260,192,82250,5,0,0:0:0
260,192,82398,1,0,0:0:0
260,192,82694,1,0,0:0:0
260,192,82843,1,0,0:0:0
260,192,82991,1,0,0:0:0
368,192,83139,5,8,0:0:0
260,192,83288,5,0,0:0:0
260,192,83436,1,0,0:0:0
312,112,83732,1,4,0:0:0
368,192,84326,5,8,0:0:0
260,192,84622,5,0,0:0:0
260,192,84771,1,0,0:0:0
368,192,84919,5,8,0:0:0
260,192,85512,5,0,0:0:0
260,192,85809,1,0,0:0:0
260,192,85957,1,0,0:0:0
368,192,86105,5,8,0:0:0
368,192,86698,1,8,0:0:0
260,192,86995,5,0,0:0:0
368,192,87292,5,8,0:0:0
260,192,87588,5,0,0:0:0
368,192,87736,5,8,0:0:0
368,192,87885,1,8,0:0:0
260,192,88033,5,0,0:0:0
368,192,88181,5,8,0:0:0
260,192,88478,5,0,0:0:0
368,192,88774,5,8,0:0:0
368,192,89071,1,8,0:0:0
260,192,89368,5,0,0:0:0
260,192,89516,1,0,0:0:0
368,192,89664,5,8,0:0:0
260,192,89961,5,0,0:0:0
368,192,90257,5,8,0:0:0
260,192,90554,5,0,0:0:0
260,192,90702,1,0,0:0:0
260,192,90851,1,0,0:0:0
260,192,91296,1,0,0:0:0
368,192,91444,5,8,0:0:0
260,192,91740,5,0,0:0:0
260,192,92037,1,0,0:0:0
260,192,92185,1,0,0:0:0
368,192,92334,5,8,0:0:0
368,192,92482,1,8,0:0:0
368,192,92630,1,8,0:0:0
260,192,92778,5,0,0:0:0
260,192,92927,1,0,0:0:0
368,192,93223,5,8,0:0:0
260,192,93520,5,0,0:0:0
368,192,93668,5,8,0:0:0
260,192,93817,5,0,0:0:0
260,192,94113,1,0,0:0:0
368,192,94410,5,8,0:0:0
260,192,94706,5,0,0:0:0
368,192,94855,5,8,0:0:0
260,192,95003,5,0,0:0:0
260,192,95299,1,0,0:0:0
260,192,95596,1,0,0:0:0
260,192,95893,1,0,0:0:0
368,192,96041,5,8,0:0:0
368,192,96189,1,8,0:0:0
260,192,96486,5,0,0:0:0
260,192,96782,1,0,0:0:0
368,192,96931,5,8,0:0:0
260,192,97227,5,0,0:0:0
368,192,97376,5,8,0:0:0
260,192,97672,5,0,0:0:0
260,192,97969,1,0,0:0:0
368,192,98265,5,8,0:0:0
260,192,98414,5,0,0:0:0
368,192,98562,5,8,0:0:0
368,192,98859,1,8,0:0:0
260,192,99007,5,0,0:0:0
368,192,99155,5,8,0:0:0
260,192,99452,5,0,0:0:0
260,192,99748,1,0,0:0:0
368,192,100045,5,8,0:0:0
260,192,100193,5,0,0:0:0
368,192,100341,5,8,0:0:0
260,192,100638,5,0,0:0:0
368,192,100935,5,8,0:0:0
260,192,101083,5,0,0:0:0
260,192,101231,1,0,0:0:0
260,192,101528,1,0,0:0:0
260,192,101824,1,0,0:0:0
260,192,101973,1,0,0:0:0
368,192,102121,5,8,0:0:0
260,192,102269,5,0,0:0:0
368,192,102418,5,8,0:0:0
368,192,102566,1,8,0:0:0
317,109,102714,5,4,0:0:0
260,192,103011,1,0,0:0:0
260,192,103159,1,0,0:0:0
368,192,103307,5,8,0:0:0
260,192,103604,5,0,0:0:0
260,192,103752,1,0,0:0:0
368,192,103901,5,8,0:0:0
260,192,104197,5,0,0:0:0
368,192,104345,5,8,0:0:0
368,192,104494,1,8,0:0:0
260,192,104642,5,0,0:0:0
368,192,104790,5,8,0:0:0
311,111,105087,5,4,0:0:0
260,192,105383,1,0,0:0:0
260,192,105532,1,0,0:0:0
368,192,105680,5,8,0:0:0
260,192,105977,5,0,0:0:0
260,192,106125,1,0,0:0:0
368,192,106273,5,8,0:0:0
368,192,106422,1,8,0:0:0
260,192,106570,5,0,0:0:0
260,192,106718,1,0,0:0:0
368,192,106866,5,8,0:0:0
260,192,107163,5,0,0:0:0
368,192,107460,5,8,0:0:0
260,192,107756,5,0,0:0:0
260,192,107905,1,0,0:0:0
368,192,108053,5,8,0:0:0
260,192,108349,5,0,0:0:0
368,192,108498,5,8,0:0:0
368,192,108794,1,8,0:0:0
260,192,108943,5,0,0:0:0
368,192,109239,5,8,0:0:0
260,192,109387,5,0,0:0:0
260,192,109536,1,0,0:0:0
368,192,109684,5,8,0:0:0
260,192,109832,5,0,0:0:0
260,192,110129,1,0,0:0:0
368,192,110426,5,8,0:0:0
260,192,110722,5,0,0:0:0
260,192,110870,1,0,0:0:0
260,192,111019,1,0,0:0:0
260,192,111315,1,0,0:0:0
368,192,111612,5,8,0:0:0
260,192,111908,5,0,0:0:0
260,192,112057,1,0,0:0:0
368,192,112205,5,8,0:0:0
368,192,112650,1,8,0:0:0
260,192,112798,5,0,0:0:0
260,192,113095,1,0,0:0:0
368,192,113243,5,8,0:0:0
260,192,113688,5,0,0:0:0
260,192,113985,1,0,0:0:0
368,192,114133,5,8,0:0:0
260,192,114429,5,0,0:0:0
368,192,114578,5,8,0:0:0
260,192,114874,5,0,0:0:0
368,192,115171,5,8,0:0:0
260,192,115319,5,0,0:0:0
260,192,115468,1,0,0:0:0
368,192,115764,5,8,0:0:0
260,192,115912,5,0,0:0:0
260,192,116061,1,0,0:0:0
368,192,116357,5,8,0:0:0
260,192,116506,5,0,0:0:0
368,192,116654,5,8,0:0:0
312,104,116950,5,4,0:0:0
260,192,117395,1,0,0:0:0
368,192,117544,5,8,0:0:0
260,192,117840,5,0,0:0:0
260,192,117989,1,0,0:0:0
260,192,118285,1,0,0:0:0
368,192,118433,5,8,0:0:0
368,192,118730,1,8,0:0:0
260,192,119027,5,0,0:0:0
368,192,119323,5,8,0:0:0
368,192,119471,1,8,0:0:0
260,192,119620,5,0,0:0:0
368,192,119768,5,8,0:0:0
368,192,119916,1,8,0:0:0
260,192,120213,5,0,0:0:0
368,192,120510,5,8,0:0:0
260,192,120658,5,0,0:0:0
368,192,120806,5,8,0:0:0
368,192,120954,1,8,0:0:0
260,192,121103,5,0,0:0:0
260,192,121251,1,0,0:0:0
260,192,121399,1,0,0:0:0
312,104,121696,5,12,0:0:0
260,192,121992,5,0,0:0:0
260,192,122141,1,0,0:0:0
368,192,122289,5,8,0:0:0
260,192,122586,5,0,0:0:0
368,192,122734,5,8,0:0:0
368,192,123031,1,8,0:0:0
260,192,123179,5,0,0:0:0
368,192,123475,5,8,0:0:0
260,192,123772,5,0,0:0:0
308,120,124069,5,12,0:0:0
260,192,124365,5,0,0:0:0
368,192,124514,5,8,0:0:0
368,192,124662,1,8,0:0:0
260,192,124958,5,0,0:0:0
368,192,125107,5,8,0:0:0
260,192,125255,5,0,0:0:0
260,192,125403,1,0,0:0:0
368,192,125552,5,8,0:0:0
368,192,125848,1,8,0:0:0
260,192,125996,5,0,0:0:0
260,192,126145,1,0,0:0:0
308,104,126441,5,12,0:0:0
260,192,126738,5,0,0:0:0
260,192,126886,1,0,0:0:0
368,192,127035,5,8,0:0:0
260,192,127331,5,0,0:0:0
260,192,127479,1,0,0:0:0
260,192,127776,1,0,0:0:0
260,192,127924,1,0,0:0:0
368,192,128221,5,8,0:0:0
260,192,128369,5,0,0:0:0
368,192,128517,5,8,0:0:0
368,192,128666,1,8,0:0:0
260,192,128814,5,0,0:0:0
260,192,129111,1,0,0:0:0
260,192,129259,1,0,0:0:0
368,192,129407,5,8,0:0:0
260,192,129704,5,0,0:0:0
260,192,129852,1,0,0:0:0
260,192,130149,1,0,0:0:0
368,192,130297,5,8,0:0:0
260,192,130445,5,0,0:0:0
368,192,130594,5,8,0:0:0
260,192,130742,5,0,0:0:0
260,192,130890,1,0,0:0:0
316,104,131187,5,12,0:0:0
260,192,131483,5,0,0:0:0
368,192,131632,5,8,0:0:0
368,192,131780,1,8,0:0:0
260,192,131928,5,0,0:0:0
368,192,132077,5,8,0:0:0
368,192,132373,1,8,0:0:0
260,192,132521,5,0,0:0:0
260,192,132670,1,0,0:0:0
368,192,132818,5,8,0:0:0
260,192,133115,5,0,0:0:0
260,192,133263,1,0,0:0:0
260,192,133411,1,0,0:0:0
312,100,133559,5,12,0:0:0
260,192,133856,5,0,0:0:0
368,192,134004,5,8,0:0:0
368,192,134153,1,8,0:0:0
260,192,134449,5,0,0:0:0
368,192,134746,5,8,0:0:0
260,192,134894,5,0,0:0:0
260,192,135042,1,0,0:0:0
400,200,135191,5,8,0:0:0
260,192,135487,5,0,0:0:0
260,192,135636,1,0,0:0:0
260,192,135784,1,0,0:0:0
308,116,135932,5,12,0:0:0
260,192,136229,5,0,0:0:0
260,192,136377,1,0,0:0:0
400,200,136525,5,8,0:0:0
260,192,136822,5,0,0:0:0
400,200,136970,5,8,0:0:0
400,200,137267,1,8,0:0:0
260,192,137415,5,0,0:0:0
260,192,137712,1,0,0:0:0
260,192,138008,1,0,0:0:0
260,192,138157,1,0,0:0:0
368,188,138305,5,8,0:0:0
260,192,138601,5,0,0:0:0
260,192,138750,1,0,0:0:0
368,188,138898,5,8,0:0:0
260,192,139195,5,0,0:0:0
368,188,139343,5,8,0:0:0
368,188,139491,1,8,0:0:0
260,192,139640,5,0,0:0:0
368,188,139788,5,8,0:0:0
260,192,140084,5,0,0:0:0
368,188,140233,5,8,0:0:0
260,192,140381,5,0,0:0:0
312,104,140678,5,12,0:0:0
260,192,141122,5,0,0:0:0
368,188,141271,5,8,0:0:0
260,192,141567,5,0,0:0:0
260,192,141864,1,0,0:0:0
260,192,142012,1,0,0:0:0
260,192,142309,1,0,0:0:0
368,188,142457,5,8,0:0:0
260,192,142754,5,0,0:0:0
368,188,143050,5,8,0:0:0
260,192,143347,5,0,0:0:0
260,192,143495,1,0,0:0:0
368,188,143644,5,8,0:0:0
260,192,143940,5,0,0:0:0
368,188,144237,5,8,0:0:0
260,192,144533,5,0,0:0:0
260,192,144682,1,0,0:0:0
368,188,144830,5,8,0:0:0
260,192,145126,5,0,0:0:0
368,188,145423,5,8,0:0:0
260,192,145868,5,0,0:0:0
368,188,146016,5,8,0:0:0
260,192,146313,5,0,0:0:0
260,192,146609,1,0,0:0:0
260,192,146906,1,0,0:0:0
368,188,147203,5,8,0:0:0
260,192,147499,5,0,0:0:0
368,188,147796,5,8,0:0:0
260,192,148092,5,0,0:0:0
368,188,148241,5,8,0:0:0
368,188,148389,1,8,0:0:0
260,192,148537,5,0,0:0:0
368,188,148686,5,8,0:0:0
260,192,148834,5,0,0:0:0
260,192,148982,1,0,0:0:0
260,192,149279,1,0,0:0:0
368,188,149575,5,8,0:0:0
260,192,149872,5,0,0:0:0
304,108,150168,5,12,0:0:0
260,192,150465,5,0,0:0:0
260,192,150613,1,0,0:0:0
368,188,150762,5,8,0:0:0
260,192,151058,5,0,0:0:0
304,108,151355,5,12,0:0:0
260,192,151651,5,0,0:0:0
260,192,151800,1,0,0:0:0
368,188,151948,5,8,0:0:0
260,192,152245,5,0,0:0:0
260,192,152541,1,0,0:0:0
260,192,152838,1,0,0:0:0
260,192,152986,1,0,0:0:0
368,188,153134,5,8,0:0:0
260,192,153431,5,0,0:0:0
260,192,153728,1,0,0:0:0
260,192,153876,1,0,0:0:0
368,188,154024,5,8,0:0:0
260,192,154172,5,0,0:0:0
368,188,154321,5,8,0:0:0
260,192,154469,1,8,0:0:0
260,192,154617,5,0,0:0:0
312,104,154914,5,12,0:0:0
368,188,155507,1,8,0:0:0
260,192,155655,5,0,0:0:0
368,188,155804,5,8,0:0:0
260,192,156100,5,0,0:0:0
260,192,156397,1,0,0:0:0
368,188,156693,5,8,0:0:0
260,192,156990,5,0,0:0:0
312,104,157287,5,12,0:0:0
260,192,157583,5,0,0:0:0
260,192,157731,1,0,0:0:0
368,188,157880,5,8,0:0:0
260,192,158176,5,0,0:0:0
312,104,158473,5,12,0:0:0
260,192,158770,5,0,0:0:0
368,188,158918,5,8,0:0:0
260,192,159214,5,0,0:0:0
368,188,159363,5,8,0:0:0
312,104,159659,5,4,0:0:0
256,188,159956,1,0,0:0:0
388,192,160104,5,8,0:0:0
256,188,160253,5,0,0:0:0
256,188,160549,1,0,0:0:0
256,188,160846,1,0,0:0:0
388,192,160994,5,8,0:0:0
388,192,161142,1,8,0:0:0
256,188,161439,5,0,0:0:0
388,192,161587,5,8,0:0:0
256,188,161736,5,0,0:0:0
256,188,162032,1,0,0:0:0
256,188,162329,1,0,0:0:0
388,192,162477,5,8,0:0:0
256,188,162625,5,0,0:0:0
256,188,162922,1,0,0:0:0
388,192,163070,5,8,0:0:0
388,192,163219,1,8,0:0:0
256,188,163515,5,0,0:0:0
388,192,163812,5,8,0:0:0
388,192,163960,1,8,0:0:0
256,188,164108,5,0,0:0:0
256,188,164405,2,4,B|92:188,2,140
256,188,165888,1,0,0:0:0
388,192,166184,5,8,0:0:0
256,188,166333,5,0,0:0:0
388,192,166481,5,8,0:0:0
256,188,166778,5,0,0:0:0
256,188,167074,1,0,0:0:0
256,188,167223,1,0,0:0:0
388,192,167371,5,8,0:0:0
256,188,167667,5,0,0:0:0
256,188,167964,1,0,0:0:0
256,188,168112,1,0,0:0:0
388,192,168261,5,8,0:0:0
388,192,168409,1,8,0:0:0
256,188,168557,5,0,0:0:0
256,188,168854,1,0,0:0:0
320,88,169150,5,12,0:0:0
256,188,169447,5,0,0:0:0
388,192,169595,5,8,0:0:0
388,192,169892,1,8,0:0:0
256,188,170040,5,8,0:0:0
388,192,170337,5,8,0:0:0
256,188,170485,5,0,0:0:0
256,188,170782,1,0,0:0:0
388,192,170930,5,8,0:0:0
256,188,171226,5,0,0:0:0
320,104,171523,5,12,0:0:0
256,188,171820,5,0,0:0:0
256,188,171968,1,0,0:0:0
388,192,172116,5,8,0:0:0
256,188,172413,5,0,0:0:0
388,192,172709,5,8,0:0:0
256,188,173006,5,0,0:0:0
256,188,173154,1,0,0:0:0
388,192,173303,5,8,0:0:0
256,188,173599,5,0,0:0:0
324,96,173896,5,12,0:0:0
256,188,174192,5,0,0:0:0
256,188,174341,1,0,0:0:0
388,192,174489,5,8,0:0:0
256,188,174786,5,0,0:0:0
388,192,174934,5,8,0:0:0
256,188,175230,5,0,0:0:0
388,192,175379,5,8,0:0:0
256,188,175675,5,0,0:0:0
256,188,175972,1,0,0:0:0
256,188,176120,1,0,0:0:0
388,192,176268,5,8,0:0:0
256,188,176565,5,0,0:0:0
388,192,176862,5,8,0:0:0
256,188,177158,5,0,0:0:0
256,188,177307,1,0,0:0:0
388,192,177455,5,8,0:0:0
388,192,177751,1,8,0:0:0
256,188,177900,5,0,0:0:0
388,192,178196,5,8,0:0:0
256,188,178345,5,0,0:0:0
320,88,178641,5,12,0:0:0
256,188,178938,5,0,0:0:0
388,192,179234,5,8,0:0:0
256,188,179531,5,0,0:0:0
256,188,179679,1,0,0:0:0
256,188,179827,1,0,0:0:0
256,188,180124,1,0,0:0:0
388,192,180421,5,8,0:0:0
256,188,180717,5,0,0:0:0
388,192,181014,5,8,0:0:0
256,188,181310,5,0,0:0:0
256,188,181459,1,0,0:0:0
388,192,181607,5,8,0:0:0
256,188,181904,5,0,0:0:0
388,192,182200,5,8,0:0:0
256,188,182348,5,0,0:0:0
388,192,182497,5,8,0:0:0
256,188,182645,5,0,0:0:0
388,192,182793,5,8,0:0:0
256,188,183090,5,0,0:0:0
388,192,183386,5,8,0:0:0
256,188,183683,5,0,0:0:0
256,188,183831,1,0,0:0:0
388,192,183980,5,8,0:0:0
256,188,184276,5,0,0:0:0
256,188,184573,1,0,0:0:0
256,188,184721,1,0,0:0:0
256,188,184869,1,0,0:0:0
388,192,185166,5,8,0:0:0
256,188,185463,5,0,0:0:0
388,192,185759,5,8,0:0:0
256,188,186056,5,0,0:0:0
388,192,186204,5,8,0:0:0
388,192,186352,1,8,0:0:0
256,188,186501,5,0,0:0:0
388,192,186649,5,8,0:0:0
388,192,186797,1,8,0:0:0
256,188,186946,5,0,0:0:0
256,188,187242,1,0,0:0:0
388,192,187539,5,8,0:0:0
256,188,187835,5,0,0:0:0
328,96,188132,5,12,0:0:0
256,188,188428,5,0,0:0:0
388,192,188577,5,8,0:0:0
256,188,188873,5,0,0:0:0
256,188,189022,1,0,0:0:0
328,96,189318,5,12,0:0:0
256,188,189615,5,0,0:0:0
388,192,189763,5,8,0:0:0
256,188,190060,5,0,0:0:0
256,188,190208,1,0,0:0:0
388,192,190505,5,8,0:0:0
256,188,190801,5,0,0:0:0
388,192,191098,5,8,0:0:0
256,188,191394,5,0,0:0:0
256,188,191543,1,0,0:0:0
256,188,191691,1,0,0:0:0
256,188,191988,1,0,0:0:0
388,192,192284,5,8,0:0:0
256,188,192432,5,0,0:0:0
388,192,192581,5,8,0:0:0
324,104,192877,1,12,0:0:0
256,188,193322,5,0,0:0:0
388,192,193470,5,8,0:0:0
256,188,193619,5,0,0:0:0
388,192,193767,5,8,0:0:0
256,188,194064,5,0,0:0:0
256,188,194360,1,0,0:0:0
256,188,194509,1,0,0:0:0
388,192,194657,5,8,0:0:0
256,188,194953,5,0,0:0:0
316,96,195250,5,12,0:0:0
256,188,195547,5,0,0:0:0
388,192,195843,5,8,0:0:0
256,188,196140,5,0,0:0:0
256,188,196288,1,0,0:0:0
316,96,196436,5,12,0:0:0
256,188,196733,5,0,0:0:0
388,192,196881,5,8,0:0:0
256,188,197178,5,0,0:0:0
388,192,197326,5,8,0:0:0
312,104,197623,1,12,0:0:0
260,192,198067,5,0,0:0:0
368,188,198216,5,8,0:0:0
260,192,198512,5,0,0:0:0
260,192,198809,1,0,0:0:0
260,192,198957,1,0,0:0:0
260,192,199254,1,0,0:0:0
368,188,199402,5,8,0:0:0
260,192,199699,5,0,0:0:0
368,188,199995,5,8,0:0:0
260,192,200292,5,0,0:0:0
260,192,200440,1,0,0:0:0
368,188,200589,5,8,0:0:0
260,192,200885,5,0,0:0:0
368,188,201182,5,8,0:0:0
260,192,201478,5,0,0:0:0
260,192,201627,1,0,0:0:0
368,188,201775,5,8,0:0:0
260,192,202071,5,0,0:0:0
368,188,202368,5,8,0:0:0
260,192,202813,5,0,0:0:0
368,188,202961,5,8,0:0:0
260,192,203258,5,0,0:0:0
260,192,203554,1,0,0:0:0
260,192,203851,1,0,0:0:0
368,188,204148,5,8,0:0:0
260,192,204444,5,0,0:0:0
368,188,204741,5,8,0:0:0
260,192,205037,5,0,0:0:0
368,188,205186,5,8,0:0:0
368,188,205334,1,8,0:0:0
260,192,205482,5,0,0:0:0
368,188,205631,5,8,0:0:0
260,192,205779,5,0,0:0:0
260,192,205927,1,0,0:0:0
260,192,206224,1,0,0:0:0
368,188,206520,5,8,0:0:0
260,192,206817,5,0,0:0:0
304,108,207113,5,12,0:0:0
260,192,207410,5,0,0:0:0
260,192,207558,1,0,0:0:0
368,188,207707,5,8,0:0:0
260,192,208003,5,0,0:0:0
304,108,208300,5,12,0:0:0
260,192,208596,5,0,0:0:0
260,192,208745,1,0,0:0:0
368,188,208893,5,8,0:0:0
260,192,209190,5,0,0:0:0
260,192,209486,1,0,0:0:0
260,192,209783,1,0,0:0:0
260,192,209931,1,0,0:0:0
368,188,210079,5,8,0:0:0
260,192,210376,5,0,0:0:0
260,192,210673,1,0,0:0:0
260,192,210821,1,0,0:0:0
368,188,210969,5,8,0:0:0
260,192,211117,5,0,0:0:0
368,188,211266,5,8,0:0:0
260,192,211414,1,8,0:0:0
260,192,211562,5,0,0:0:0
312,104,211859,5,12,0:0:0
368,188,212452,1,8,0:0:0
260,192,212600,5,0,0:0:0
368,188,212749,5,8,0:0:0
260,192,213045,5,0,0:0:0
260,192,213342,1,0,0:0:0
368,188,213638,5,8,0:0:0
260,192,213935,5,0,0:0:0
312,104,214232,5,12,0:0:0
260,192,214528,5,0,0:0:0
260,192,214676,1,0,0:0:0
368,188,214825,5,8,0:0:0
260,192,215121,5,0,0:0:0
312,104,215418,5,12,0:0:0
260,192,215715,5,0,0:0:0
368,188,215863,5,8,0:0:0
260,192,216159,5,0,0:0:0
368,188,216308,5,8,0:0:0
312,104,216604,1,12,0:0:0
