osu file format v13

[General]
AudioFilename: Simple And Clean Nightcore.mp3
AudioLeadIn: 1996
PreviewTime: 688
Countdown: 0
SampleSet: Soft
StackLeniency: 0.7
Mode: 0
LetterboxInBreaks: 1
WidescreenStoryboard: 0

[Editor]
DistanceSpacing: 1
BeatDivisor: 4
GridSize: 4
TimelineZoom: 1

[Metadata]
Title:Simple and Clean (Nightcore)
TitleUnicode:Simple and Clean (Nightcore)
Artist:Utada Hikaru
ArtistUnicode:Utada Hikaru
Creator:Saturos-fangirl
Version:Hard
Source:Kingdom Hearts 2
Tags:project five human emotions desire SFG taiko ctb
BeatmapID:189486
BeatmapSetID:64370

[Difficulty]
HPDrainRate:6
CircleSize:5
OverallDifficulty:6
ApproachRate:7
SliderMultiplier:1.7
SliderTickRate:2

[Events]
//Background and Video events
0,0,"simpleloveplain.jpg",0,0
//Break Periods
2,19424,21882
2,78890,82832
//Storyboard Layer 0 (Background)
Sprite,Background,Centre,"simplelovecolor.jpg",320,240 F,0,0,140678,0 S,0,0,216604,0.624 F,0,140678,159363,1 F,0,159363,178641,0 F,0,178641,216604,1
Sprite,Background,Centre,"to_reach_the_skies_with_you_by_haimerejzero.jpg",321,241 S,0,-2000,235586,0.75 F,0,0,9882,1 F,0,9289,9882,1,0 F,0,60005,69496,1 F,0,68606,69496,1,0 F,0,121696,131183,1 F,0,130297,131183,1,0 F,0,159659,169150,1 F,0,168260,169150,1,0
//Storyboard Layer 1 (Fail)
//Storyboard Layer 2 (Pass)
//Storyboard Layer 3 (Foreground)
//Storyboard Sound Samples
//Background Colour Transformations
3,100,163,162,255

[TimingPoints]
688,593.178447849728,4,2,1,100,1,0
688,-100,4,2,1,100,0,1
7361,-86.9565217391304,4,2,1,80,0,1
10030,-100,4,2,1,80,0,1
19224,-100,4,2,1,80,0,0
60005,-100,4,2,1,80,0,1
78690,-100,4,2,1,80,0,0
121696,-100,4,2,1,80,0,1
140381,-100,4,2,1,80,0,0
140678,-100,4,2,1,80,0,1
159363,-100,4,2,1,80,0,0
159659,-100,4,2,1,80,0,1
166333,-86.9565217391304,4,2,1,80,0,1
167519,-100,4,2,1,80,0,1
178344,-100,4,2,1,80,0,0
178641,-100,4,2,1,80,0,1
197326,-100,4,2,1,80,0,0
197623,-100,4,2,1,80,0,1
216604,-100,4,2,1,80,0,0

[Colours]
Combo1 : 146,224,235
Combo2 : 250,120,114
Combo3 : 192,170,240
Combo4 : 96,238,199

[HitObjects]
398,81,688,6,0,P|426:140|414:199,1,127.5
416,200,1281,1,8,0:0:0:0:
336,148,1577,2,0,P|308:207|320:266,1,127.5
319,267,2170,1,8,0:0:0:0:
392,328,2467,2,0,B|364:364|300:360,1,85,2|0,0:0|0:0,0:0:0:0:
236,316,3060,6,0,B|184:316|180:272|180:272|180:184,1,127.5,0|8,0:0|0:0,0:0:0:0:
180,224,3653,1,8,0:0:0:0:
88,204,3950,2,0,B|140:204|144:160|144:160|144:72,1,127.5,0|8,0:0|0:0,0:0:0:0:
144,112,4543,1,8,0:0:0:0:
144,16,4840,2,0,B|192:12|200:84,1,85,2|0,0:0|0:0,0:0:0:0:
286,127,5433,6,0,P|247:247|246:121,1,340
256,184,6916,1,8,0:0:0:0:
256,184,7212,1,2,0:0:0:0:
328,104,7509,2,0,B|260:84|164:24|256:-56|348:24|252:84|180:104,1,293.2500055933
256,184,8695,1,0,0:0:0:0:
256,316,8992,1,2,0:0:0:0:
184,224,9289,2,8,B|223:252,1,48.8750009322167
288,252,9585,2,2,B|328:224,2,48.8750009322167,2|8|8,0:0|0:0|0:0,0:0:0:0:
316,84,10178,6,0,B|364:78|364:116|364:116|364:192,2,127.5,2|0|0,0:0|0:0|0:0,0:0:0:0:
196,84,11365,2,0,B|148:76|148:116|148:116|148:192,2,127.5,8|0|0,0:0|0:0|0:0,0:0:0:0:
128,28,12551,2,0,P|256:16|384:28,1,255,2|0,0:0|0:0,0:0:0:0:
384,148,13737,2,0,P|258:159|130:147,1,255,2|0,0:0|0:0,0:0:0:0:
256,88,14924,1,2,0:0:0:0:
256,88,15517,1,0,0:0:0:0:
280,180,15814,1,0,0:0:0:0:
236,196,15962,1,8,0:0:0:0:
220,336,16407,1,8,0:0:0:0:
308,304,16703,1,2,0:0:0:0:
356,224,17000,1,0,0:0:0:0:
372,132,17296,6,0,P|256:84|140:132,1,255
143,71,18335,2,0,B|205:83|221:122|221:207|205:246|143:257,1,255,0|2,0:0|0:0,0:0:0:0:
420,96,22932,5,0,0:0:0:0:
388,184,23228,2,0,B|308:132|216:240|116:148,1,255,2|0,0:0|0:0,0:0:0:0:
184,84,24415,2,0,B|29:25|-30:291|200:279|303:247,1,467.5
304,248,26194,1,2,0:0:0:0:
400,260,26491,1,0,0:0:0:0:
468,324,26787,6,0,B|396:360|348:320|348:320|280:360|224:280,1,255
144,336,27974,2,0,P|112:204|144:92,1,255
204,176,29160,2,0,B|204:132|296:40|388:132|388:176,1,255
296,196,30346,1,0,0:0:0:0:
220,252,30643,1,0,0:0:0:0:
132,196,30940,1,2,0:0:0:0:
184,120,31236,1,0,0:0:0:0:
128,44,31533,5,8,0:0:0:0:
324,44,31978,1,8,0:0:0:0:
384,44,32126,1,2,0:0:0:0:
356,132,32423,1,0,0:0:0:0:
256,132,32719,2,0,B|204:148|208:212|256:220|256:220|312:232|304:308|256:312,1,255,8|8,0:0|0:0,0:0:0:0:
168,288,33905,2,0,B|144:212|108:192|80:212|80:212|108:232|144:212|144:132,1,255
160,44,35092,1,2,0:0:0:0:
252,64,35388,1,0,0:0:0:0:
312,136,35685,2,0,P|344:212|300:280,1,170
260,204,36575,1,8,0:0:0:0:
192,140,36871,1,2,0:0:0:0:
104,112,37168,5,0,0:0:0:0:
136,204,37465,2,0,P|228:288|352:288,1,255
424,236,38651,2,0,P|308:176|308:64,1,255,2|0,0:0|0:0,0:0:0:0:
392,136,39837,1,0,0:0:0:0:
256,192,40134,1,8,0:0:0:0:
232,208,40282,1,8,0:0:0:0:
224,236,40430,1,10,0:0:0:0:
232,264,40579,1,8,0:0:0:0:
256,276,40727,1,8,0:0:0:0:
136,236,41024,5,4,0:0:0:0:
56,188,41320,2,0,B|28:148|60:104,1,85,0|2,0:0|0:0,0:0:0:0:
144,148,41913,2,0,B|172:108|140:64,1,85
60,24,42507,1,0,0:0:0:0:
96,0,42655,1,10,0:0:0:0:
188,0,42951,1,8,0:0:0:0:
228,24,43100,1,0,0:0:0:0:
144,64,43396,5,8,0:0:0:0:
196,140,43693,1,0,0:0:0:0:
288,140,43990,1,2,0:0:0:0:
348,68,44286,1,0,0:0:0:0:
400,148,44583,1,8,0:0:0:0:
408,180,44731,1,8,0:0:0:0:
392,208,44879,1,8,0:0:0:0:
360,216,45028,1,8,0:0:0:0:
328,208,45176,1,2,0:0:0:0:
432,248,45472,6,0,B|500:316,1,85
388,312,46066,1,8,0:0:0:0:
352,312,46214,1,8,0:0:0:0:
316,312,46362,1,2,0:0:0:0:
208,308,46659,1,0,0:0:0:0:
180,276,46807,2,0,P|148:240|152:164,1,127.5
244,152,47549,1,2,0:0:0:0:
200,72,47845,1,0,0:0:0:0:
108,84,48142,5,8,0:0:0:0:
84,172,48438,1,0,0:0:0:0:
120,260,48735,1,2,0:0:0:0:
204,300,49032,1,0,0:0:0:0:
296,300,49328,1,8,0:0:0:0:
384,268,49625,1,0,0:0:0:0:
440,192,49921,1,2,0:0:0:0:
448,100,50218,2,0,B|408:48|332:212|240:48|208:100,1,255,0|2,0:0|0:0,0:0:0:0:
216,192,51404,1,8,0:0:0:0:
260,212,51553,1,8,0:0:0:0:
136,152,51997,6,0,P|116:204|148:272,1,127.5,2|0,0:0|0:0,0:0:0:0:
72,140,52887,2,0,P|56:220|92:304,1,170,0|2,0:0|0:0,0:0:0:0:
200,140,54074,2,0,P|216:220|180:304,1,170,0|2,0:0|0:0,0:0:0:0:
128,116,55260,1,8,0:0:0:0:
128,224,55557,1,8,0:0:0:0:
128,264,55705,1,2,0:0:0:0:
224,328,56150,5,8,0:0:0:0:
240,292,56298,2,0,P|292:268|308:200,1,127.5
264,120,57039,1,2,0:0:0:0:
256,28,57336,2,0,B|200:32|176:80,1,85,0|8,0:0|0:0,0:0:0:0:
172,160,57929,2,0,B|116:156|92:108,1,85,0|2,0:0|0:0,0:0:0:0:
96,28,58522,2,0,B|40:32|16:80,1,85,0|2,0:0|0:0,0:0:0:0:
24,160,59116,2,0,B|40:194|96:198,1,85,8|2,0:0|0:0,0:0:0:0:
128,112,59709,1,8,0:0:0:0:
212,72,60005,6,0,B|256:104|284:60|340:88,1,127.5,2|8,0:0|0:0,0:0:0:0:
380,104,60599,1,8,0:0:0:0:
296,148,60895,2,0,B|252:180|224:136|168:164,1,127.5,0|8,0:0|0:0,0:0:0:0:
128,180,61488,1,8,0:0:0:0:
204,232,61785,2,0,B|248:260|308:224,1,85,2|0,0:0|0:0,0:0:0:0:
296,148,62378,6,0,P|348:184|356:256,1,127.5
360,280,62971,1,8,0:0:0:0:
244,268,63268,2,0,P|192:232|184:160,1,127.5
180,132,63861,1,8,0:0:0:0:
224,48,64158,2,0,B|180:20|132:48,1,85,2|0,0:0|0:0,0:0:0:0:
64,96,64751,6,0,B|36:112|32:144|60:160|60:160|144:192|120:256|60:264|60:264|0:272|-8:340|40:352,1,340,8|2,0:0|0:0,0:0:0:0:
104,368,66234,1,0,0:0:0:0:
192,340,66530,1,8,0:0:0:0:
244,264,66827,2,0,B|280:252|280:232|248:220|248:220|216:208|216:192|248:176|248:176|280:160|280:148|248:136|248:136|216:124|256:76,1,255,0|2,0:0|0:0,0:0:0:0:
316,32,68013,1,0,0:0:0:0:
408,52,68310,1,8,0:0:0:0:
456,132,68606,1,8,0:0:0:0:
472,160,68755,1,8,0:0:0:0:
468,192,68903,1,10,0:0:0:0:
440,208,69051,1,8,0:0:0:0:
408,200,69200,1,8,0:0:0:0:
372,116,69496,6,0,P|312:132|288:188,2,127.5,0|2|0,0:0|0:0|0:0,0:0:0:0:
140,116,70683,2,0,P|200:132|224:188,2,127.5,0|0|0,0:0|0:0|0:0,0:0:0:0:
148,24,71869,2,0,B|180:32|216:40|256:87|256:87|296:40|332:32|364:24,1,255,2|0,0:0|0:0,0:0:0:0:
344,120,73055,2,0,B|340:180|316:228|256:256|256:256|196:228|172:180|168:120,1,340,8|2,0:0|0:0,0:0:0:0:
256,156,74538,5,0,0:0:0:0:
228,68,74835,1,8,0:0:0:0:
144,28,75131,1,0,0:0:0:0:
100,44,75280,1,8,0:0:0:0:
52,124,75576,1,0,0:0:0:0:
48,172,75725,1,8,0:0:0:0:
96,252,76021,1,2,0:0:0:0:
140,168,76318,1,8,0:0:0:0:
212,112,76614,6,0,P|296:128|336:208,1,170,0|2,0:0|0:0,0:0:0:0:
300,288,77504,1,8,0:0:0:0:
264,308,77652,2,0,B|232:404|100:360|128:248|172:240|216:260|232:224|232:172,1,297.5,0|8,0:0|0:0,0:0:0:0:
384,320,83732,5,8,0:0:0:0:
452,256,84029,1,0,0:0:0:0:
472,164,84326,1,2,0:0:0:0:
456,72,84622,1,0,0:0:0:0:
396,0,84919,2,0,B|308:48|416:192|328:244,1,255
432,208,86105,2,0,B|376:116|312:148|244:176|184:116,1,255,10|0,0:0|0:0,0:0:0:0:
256,52,87292,1,8,0:0:0:0:
164,28,87588,1,8,0:0:0:0:
120,36,87736,1,2,0:0:0:0:
96,128,88033,1,8,0:0:0:0:
60,160,88181,1,8,0:0:0:0:
144,200,88478,6,0,P|168:276|248:312,1,170
336,300,89368,1,0,0:0:0:0:
412,248,89664,2,0,B|384:208|328:196|296:208|296:208|268:176|220:164|180:180,1,255,8|0,0:0|0:0,0:0:0:0:
236,104,90851,2,0,P|224:224|108:264,1,255,2|0,0:0|0:0,0:0:0:0:
152,176,92037,1,8,0:0:0:0:
300,256,92334,1,0,0:0:0:0:
460,200,92630,1,2,0:0:0:0:
460,28,92927,1,0,0:0:0:0:
332,108,93223,6,0,B|312:136|296:108|296:108|284:80|268:108|268:108|256:136|244:108|244:108|232:80|220:108|220:108|208:108,1,170,8|2,0:0|0:0,0:0:0:0:
136,160,94113,1,0,0:0:0:0:
164,248,94410,2,0,B|184:276|200:248|200:248|212:220|228:248|228:248|240:276|252:248|252:248|264:220|276:248|276:248|288:248,1,170,8|2,0:0|0:0,0:0:0:0:
360,300,95299,1,0,0:0:0:0:
432,236,95596,2,0,B|432:200|432:200|432:152|432:152|448:148|448:148|416:136|416:136|432:128|432:128|432:100,1,170,8|2,0:0|0:0,0:0:0:0:
436,16,96486,1,0,0:0:0:0:
352,56,96782,1,8,0:0:0:0:
292,128,97079,1,8,0:0:0:0:
248,212,97376,1,2,0:0:0:0:
232,304,97672,1,8,0:0:0:0:
172,232,97969,5,8,0:0:0:0:
88,192,98265,2,0,B|84:88|180:52,1,170
180,148,99155,2,0,B|284:120|276:16,1,170,2|0,0:0|0:0,0:0:0:0:
188,52,100045,1,8,0:0:0:0:
160,68,100193,1,8,0:0:0:0:
84,112,100490,1,0,0:0:0:0:
108,132,100638,1,8,0:0:0:0:
84,220,100935,1,2,0:0:0:0:
156,276,101231,1,0,0:0:0:0:
248,268,101528,1,8,0:0:0:0:
188,196,101824,5,8,0:0:0:0:
196,164,101973,1,8,0:0:0:0:
224,148,102121,1,10,0:0:0:0:
256,152,102269,1,8,0:0:0:0:
272,180,102418,1,8,0:0:0:0:
288,208,102566,1,8,0:0:0:0:
316,224,102714,1,8,0:0:0:0:
400,264,103011,6,0,B|440:232|440:180,1,85,0|2,0:0|0:0,0:0:0:0:
440,96,103604,2,0,B|440:55|400:23,1,85
352,104,104197,1,0,0:0:0:0:
380,140,104345,1,8,0:0:0:0:
288,152,104642,1,8,0:0:0:0:
260,116,104790,1,8,0:0:0:0:
204,188,105087,5,2,0:0:0:0:
112,200,105383,1,0,0:0:0:0:
184,260,105680,1,8,0:0:0:0:
276,276,105977,1,0,0:0:0:0:
368,260,106273,1,8,0:0:0:0:
440,200,106570,1,8,0:0:0:0:
420,156,106718,2,0,P|396:108|332:72,1,127.5
292,172,107460,6,0,B|312:176|312:208|288:208|288:208|228:208|228:208|200:208|200:176|224:172,1,170,2|8,0:0|0:0,0:0:0:0:
116,204,108349,2,0,B|116:232|180:352|256:188|332:352|396:232|396:204,1,340,2|0,0:0|0:0,0:0:0:0:
256,212,109832,5,8,0:0:0:0:
292,128,110129,2,0,B|284:68|344:56,1,85,0|2,0:0|0:0,0:0:0:0:
224,128,110722,2,0,B|232:68|172:56,1,85,0|8,0:0|0:0,0:0:0:0:
256,24,111315,1,0,0:0:0:0:
348,48,111612,1,8,0:0:0:0:
416,112,111908,2,0,B|436:164|384:188|324:208|340:280,1,170,2|0,0:0|0:0,0:0:0:0:
436,248,112798,2,8,B|442:200|382:180|336:152|350:104,1,170,8|2,0:0|0:0,0:0:0:0:
308,32,113688,1,8,0:0:0:0:
264,120,113985,1,2,0:0:0:0:
256,164,114133,1,8,0:0:0:0:
256,304,114578,5,2,0:0:0:0:
184,132,115171,2,0,B|172:196|216:232|256:232|256:232|256:272,1,170,8|2,0:0|0:0,0:0:0:0:
256,164,116061,1,0,0:0:0:0:
328,132,116357,2,0,B|340:196|296:232|256:232|256:232|256:272,1,170,8|2,0:0|0:0,0:0:0:0:
256,164,117247,6,0,B|256:88,2,42.5,8|8|2,0:0|0:0|0:0,0:0:0:0:
176,208,117840,1,0,0:0:0:0:
148,248,117989,2,0,P|112:200|104:132,1,127.5
56,56,118730,2,0,B|96:24|148:52,1,85,2|0,0:0|0:0,0:0:0:0:
228,28,119323,2,0,B|278:38|290:95,1,85,8|0,0:0|0:0,0:0:0:0:
360,140,119916,2,0,B|384:184|347:231,1,85,2|0,0:0|0:0,0:0:0:0:
264,208,120510,2,0,B|237:251|178:243,1,85,2|8,0:0|0:0,0:0:0:0:
196,152,121103,2,0,B|145:141|133:84,1,85,2|8,0:0|0:0,0:0:0:0:
224,68,121696,6,0,P|272:124|336:144,1,127.5
368,152,122289,1,8,0:0:0:0:
300,68,122586,2,0,P|252:124|188:144,1,127.5,0|0,0:0|0:0,0:0:0:0:
160,148,123179,1,0,0:0:0:0:
264,272,123475,2,0,B|264:188,1,85,2|0,0:0|0:0,0:0:0:0:
256,28,124069,6,0,B|216:36|196:76|208:152,1,127.5,0|8,0:0|0:0,0:0:0:0:
204,180,124662,1,8,0:0:0:0:
268,104,124958,2,0,B|324:116|320:172|320:232,1,127.5,0|8,0:0|0:0,0:0:0:0:
320,240,125552,1,8,0:0:0:0:
304,268,125700,1,8,0:0:0:0:
276,284,125848,1,2,0:0:0:0:
244,284,125996,1,8,0:0:0:0:
216,268,126145,1,8,0:0:0:0:
136,168,126441,6,0,P|148:30|248:122,1,340,0|8,0:0|0:0,0:0:0:0:
420,72,128221,6,0,B|348:64|312:88|340:156|316:208|248:192|212:184,1,255,0|0,0:0|0:0,0:0:0:0:
180,104,129407,1,2,0:0:0:0:
140,128,129556,1,8,0:0:0:0:
164,216,129852,1,0,0:0:0:0:
124,240,130000,1,8,0:0:0:0:
64,292,130297,1,0,0:0:0:0:
40,268,130445,1,0,0:0:0:0:
24,240,130594,1,2,0:0:0:0:
32,208,130742,1,0,0:0:0:0:
52,180,130890,1,0,0:0:0:0:
40,104,131187,6,0,P|68:48|128:24,1,127.5
156,148,132077,1,0,0:0:0:0:
176,64,132373,2,0,P|226:96|239:160,1,127.5,2|0,0:0|0:0,0:0:0:0:
112,176,133263,1,0,0:0:0:0:
192,200,133559,2,0,P|159:250|95:263,1,127.5,0|0,0:0|0:0,0:0:0:0:
80,136,134449,1,0,0:0:0:0:
64,220,134746,2,0,P|13:187|0:123,1,127.5,2|0,0:0|0:0,0:0:0:0:
132,108,135636,1,0,0:0:0:0:
128,200,135932,6,0,P|256:220|380:200,1,255
372,156,136970,1,8,0:0:0:0:
336,128,137119,2,0,B|256:64|180:132,1,170,2|0,0:0|0:0,0:0:0:0:
272,168,138008,1,0,0:0:0:0:
196,252,138305,2,0,B|232:188|300:252|248:312|196:320|168:348|168:348|140:320|88:308|36:252|104:188|140:252,1,425,0|2,0:0|0:0,0:0:0:0:
180,120,140233,1,8,0:0:0:0:
220,152,140381,1,8,0:0:0:0:
252,64,140678,6,0,B|320:32|336:136|368:184|464:164,1,255,2|0,0:0|0:0,0:0:0:0:
424,80,141864,1,8,0:0:0:0:
340,36,142161,1,8,0:0:0:0:
252,64,142457,1,2,0:0:0:0:
216,144,142754,1,8,0:0:0:0:
292,200,143050,6,0,P|248:236|180:232,2,127.5,0|2|0,0:0|0:0|0:0,0:0:0:0:
376,156,144237,2,0,B|392:208|364:252,1,85,8|0,0:0|0:0,0:0:0:0:
368,52,144830,2,0,B|418:73|433:122,1,85,2|0,0:0|0:0,0:0:0:0:
280,44,145423,6,0,P|176:104|168:228,1,255
248,300,146609,1,2,0:0:0:0:
340,320,146906,1,0,0:0:0:0:
432,296,147203,1,8,0:0:0:0:
480,216,147499,1,0,0:0:0:0:
484,124,147796,5,8,0:0:0:0:
404,176,148092,2,0,B|352:208|352:208,1,42.5,8|2,0:0|0:0,0:0:0:0:
276,176,148537,2,0,B|328:208|328:208,1,42.5,8|8,0:0|0:0,0:0:0:0:
336,108,148982,2,0,P|280:52|208:88,1,170,0|2,0:0|0:0,0:0:0:0:
56,152,149872,5,0,0:0:0:0:
148,152,150168,2,0,B|304:152,1,127.5,8|2,0:0|0:0,0:0:0:0:
388,212,151058,1,0,0:0:0:0:
296,212,151355,2,0,B|136:212,1,127.5,8|2,0:0|0:0,0:0:0:0:
136,348,152245,1,0,0:0:0:0:
64,288,152541,5,8,0:0:0:0:
32,200,152838,1,0,0:0:0:0:
72,116,153134,1,2,0:0:0:0:
164,108,153431,1,0,0:0:0:0:
236,52,153728,1,8,0:0:0:0:
328,44,154024,1,0,0:0:0:0:
400,104,154321,1,2,0:0:0:0:
256,192,154617,12,0,156100,0:0:0:0:
56,104,156693,5,2,0:0:0:0:
124,40,156990,1,0,0:0:0:0:
156,128,157287,2,0,B|168:172|224:168|296:164|308:232,1,170,8|2,0:0|0:0,0:0:0:0:
224,264,158176,1,8,0:0:0:0:
148,208,158473,2,0,B|160:164|216:168|288:172|300:104,1,170,8|2,0:0|0:0,0:0:0:0:
216,72,159363,1,0,0:0:0:0:
398,81,159659,6,0,P|426:140|414:199,1,127.5
416,200,160252,1,8,0:0:0:0:
336,148,160548,2,0,P|308:207|320:266,1,127.5
319,267,161141,1,8,0:0:0:0:
392,328,161438,2,0,B|364:364|300:360,1,85,2|0,0:0|0:0,0:0:0:0:
236,316,162031,6,0,B|184:316|180:272|180:272|180:184,1,127.5,0|8,0:0|0:0,0:0:0:0:
180,224,162624,1,8,0:0:0:0:
88,204,162921,2,0,B|140:204|144:160|144:160|144:72,1,127.5,0|8,0:0|0:0,0:0:0:0:
144,112,163514,1,8,0:0:0:0:
144,16,163811,2,0,B|192:12|200:84,1,85,2|0,0:0|0:0,0:0:0:0:
286,127,164404,6,0,P|247:247|246:121,1,340
256,184,165887,1,8,0:0:0:0:
256,184,166183,1,2,0:0:0:0:
328,104,166480,2,0,B|260:84|164:24|256:-56|348:24|252:84|180:104,1,293.2500055933
256,184,167666,5,0,0:0:0:0:
256,316,167963,1,2,0:0:0:0:
184,224,168260,2,8,B|223:252,1,48.8750009322167
288,252,168556,2,2,B|328:224,2,48.8750009322167,2|8|8,0:0|0:0|0:0,0:0:0:0:
316,84,169149,6,0,B|364:78|364:116|364:116|364:192,2,127.5,2|0|0,0:0|0:0|0:0,0:0:0:0:
196,84,170336,2,0,B|148:76|148:116|148:116|148:192,2,127.5,8|0|0,0:0|0:0|0:0,0:0:0:0:
128,28,171522,2,0,P|256:16|384:28,1,255,2|0,0:0|0:0,0:0:0:0:
384,148,172708,2,0,P|258:159|130:147,1,255,2|0,0:0|0:0,0:0:0:0:
256,88,173895,1,2,0:0:0:0:
256,88,174488,1,0,0:0:0:0:
280,180,174785,1,0,0:0:0:0:
236,196,174933,1,8,0:0:0:0:
220,336,175378,1,8,0:0:0:0:
308,304,175674,1,2,0:0:0:0:
356,224,175971,1,0,0:0:0:0:
372,132,176267,6,0,P|256:84|140:132,1,255
143,71,177306,2,0,B|205:83|221:122|221:207|205:246|143:257,1,255,0|2,0:0|0:0,0:0:0:0:
408,248,178641,6,0,P|288:200|180:252,1,255
144,160,179827,2,0,P|304:108|460:168,1,340
376,284,181459,1,2,0:0:0:0:
240,308,181904,1,0,0:0:0:0:
212,220,182200,2,0,B|156:220|136:280,1,85,8|0,0:0|0:0,0:0:0:0:
60,224,182793,2,0,B|116:224|136:164,1,85,2|0,0:0|0:0,0:0:0:0:
52,128,183386,6,0,P|144:56|240:132,1,255
200,188,184573,2,0,B|152:216|104:176,1,85,2|0,0:0|0:0,0:0:0:0:
164,104,185166,1,8,0:0:0:0:
252,68,185463,1,0,0:0:0:0:
344,88,185759,5,2,0:0:0:0:
408,156,186056,1,0,0:0:0:0:
408,204,186204,1,8,0:0:0:0:
348,276,186501,1,0,0:0:0:0:
300,280,186649,1,8,0:0:0:0:
260,260,186797,1,8,0:0:0:0:
240,220,186946,1,10,0:0:0:0:
328,184,187242,1,8,0:0:0:0:
328,184,187539,1,8,0:0:0:0:
380,104,187835,5,0,0:0:0:0:
312,40,188132,2,0,B|280:48|280:76|256:96|232:76|232:48|200:40,1,127.5,2|0,0:0|0:0,0:0:0:0:
100,120,189022,1,8,0:0:0:0:
16,136,189318,2,0,B|24:168|52:168|72:192|52:216|24:216|16:248,1,127.5,2|0,0:0|0:0,0:0:0:0:
156,276,190208,1,8,0:0:0:0:
240,232,190505,6,0,B|280:260|280:312,1,85,2|0,0:0|0:0,0:0:0:0:
320,220,191098,2,0,B|280:192|280:140,1,85,8|0,0:0|0:0,0:0:0:0:
192,180,191691,2,0,B|192:136|152:108,1,85,2|0,0:0|0:0,0:0:0:0:
68,72,192284,1,8,0:0:0:0:
68,72,192581,2,0,P|192:36|312:64,1,255
352,100,193619,1,8,0:0:0:0:
368,144,193767,1,8,0:0:0:0:
276,144,194064,1,8,0:0:0:0:
192,188,194360,1,8,0:0:0:0:
192,280,194657,1,2,0:0:0:0:
276,236,194953,1,8,0:0:0:0:
276,144,195250,6,0,P|240:72|160:40,1,170,0|2,0:0|0:0,0:0:0:0:
184,132,196140,1,0,0:0:0:0:
276,144,196436,2,0,P|312:72|392:40,1,170,0|2,0:0|0:0,0:0:0:0:
364,132,197326,1,0,0:0:0:0:
252,64,197623,6,0,B|320:32|336:136|368:184|464:164,1,255,2|0,0:0|0:0,0:0:0:0:
424,80,198809,1,8,0:0:0:0:
340,36,199106,1,8,0:0:0:0:
252,64,199402,1,2,0:0:0:0:
216,144,199699,1,8,0:0:0:0:
292,200,199995,6,0,P|248:236|180:232,2,127.5,0|2|0,0:0|0:0|0:0,0:0:0:0:
376,156,201182,2,0,B|392:208|364:252,1,85,8|0,0:0|0:0,0:0:0:0:
368,52,201775,2,0,B|418:73|433:122,1,85,2|0,0:0|0:0,0:0:0:0:
280,44,202368,6,0,P|176:104|168:228,1,255
248,300,203554,1,2,0:0:0:0:
340,320,203851,1,0,0:0:0:0:
432,296,204148,1,8,0:0:0:0:
480,216,204444,1,0,0:0:0:0:
484,124,204741,5,8,0:0:0:0:
404,176,205037,2,0,B|352:208|352:208,1,42.5,8|2,0:0|0:0,0:0:0:0:
276,176,205482,2,0,B|328:208|328:208,1,42.5,8|8,0:0|0:0,0:0:0:0:
336,108,205927,2,0,P|280:52|208:88,1,170,0|2,0:0|0:0,0:0:0:0:
56,152,206817,5,0,0:0:0:0:
148,152,207113,2,0,B|304:152,1,127.5,8|2,0:0|0:0,0:0:0:0:
388,212,208003,1,0,0:0:0:0:
296,212,208300,2,0,B|136:212,1,127.5,0|2,0:0|0:0,0:0:0:0:
136,348,209190,1,0,0:0:0:0:
64,288,209486,5,8,0:0:0:0:
32,200,209783,1,0,0:0:0:0:
72,116,210079,1,2,0:0:0:0:
164,108,210376,1,0,0:0:0:0:
236,52,210673,1,8,0:0:0:0:
328,44,210969,1,0,0:0:0:0:
400,104,211266,1,2,0:0:0:0:
256,192,211562,12,0,213045,0:0:0:0:
56,104,213638,5,2,0:0:0:0:
124,40,213935,1,0,0:0:0:0:
156,128,214232,2,0,B|168:172|224:168|296:164|308:232,1,170,8|2,0:0|0:0,0:0:0:0:
224,264,215121,1,8,0:0:0:0:
148,208,215418,2,0,B|160:164|216:168|288:172|300:104,1,170,8|2,0:0|0:0,0:0:0:0:
216,72,216308,5,0,0:0:0:0:
224,264,216604,1,4,0:0:0:0:
