osu file format v14

[General]
AudioFilename: Utada Hikaru - Sour Cherry (El Poco Maro Remix.mp3
AudioLeadIn: 2200
PreviewTime: 65670
Countdown: 0
SampleSet: None
StackLeniency: 0.5
Mode: 0
LetterboxInBreaks: 0
WidescreenStoryboard: 1

[Editor]
DistanceSpacing: 1.5
BeatDivisor: 4
GridSize: 4
TimelineZoom: 1.2

[Metadata]
Title:Sakura Nagashi (el poco maro Remix)
TitleUnicode:桜流し (el poco maro Remix)
Artist:Utada Hikaru
ArtistUnicode:宇多田ヒカル
Creator:Sandrusja
Version:AR10
Source:ヱヴァンゲリヲン新劇場版:Q
Tags:dnb
BeatmapID:917338
BeatmapSetID:424690

[Difficulty]
HPDrainRate:6
CircleSize:4
OverallDifficulty:7.8
ApproachRate:10
SliderMultiplier:1.6
SliderTickRate:2

[Events]
//Background and Video events
0,0,"Background.jpg",0,0
//Break Periods
2,87688,108820
2,284052,302491
2,327687,337776
//Storyboard Layer 0 (Background)
Sprite,Background,Centre,"blossom.png",320,240 L,152942,8 F,0,0,,1 M,0,0,5454,-365,-240,570,405 R,0,0,5454,0,0.35 F,0,4091,5454,1,0 L,240214,4 F,0,0,,1 M,0,0,5454,-365,-240,570,405 R,0,0,5454,0,0.35 F,0,4091,5454,1,0 L,349305,8 F,0,0,,1 M,0,0,5454,-365,-240,570,405 R,0,0,5454,0,0.35 F,0,4091,5454,1,0 S,0,152942,,1.1
Sprite,Background,Centre,"blossom.png",320,240 L,155669,7 F,0,0,,1 M,0,0,5454,-210,-115,680,345 R,0,0,5454,-0.15,-1.3 F,0,4091,5454,1,0 L,241578,3 F,0,0,,1 M,0,0,5454,-210,-115,680,345 R,0,0,5454,-0.15,-1.3 F,0,4091,5454,1,0 L,350669,7 F,0,0,,1 M,0,0,5454,-210,-115,680,345 R,0,0,5454,-0.15,-1.3 F,0,4091,5454,1,0 S,0,155669,,1.1
Sprite,Background,Centre,"blossom.png",320,240 L,158396,6 F,0,0,,1 M,0,0,5454,-75,-155,140,220 R,0,0,5454,2.5,2.75 F,0,4091,5454,1,0 L,242942,2 F,0,0,,1 M,0,0,5454,-75,-155,140,220 R,0,0,5454,2.5,2.75 F,0,4091,5454,1,0 L,352033,6 F,0,0,,1 M,0,0,5454,-75,-155,140,220 R,0,0,5454,2.5,2.75 F,0,4091,5454,1,0 S,0,158396,,1.31
//Storyboard Layer 1 (Fail)
//Storyboard Layer 2 (Pass)
//Storyboard Layer 3 (Foreground)
Sprite,Foreground,Centre,"Names/ProfessionalBox.png",320,240 M,0,-125,,478,433 S,0,-125,,0.6159999 F,0,-125,215,0,1 F,0,215,87317,1 F,0,87317,87658,1,0 F,0,108965,109305,0,1 F,0,109305,130066,1 F,0,130066,130748,1,0 F,0,196408,196578,0,1 F,0,196578,217374,1 F,0,217374,218226,1,0 F,0,239874,240214,0,1 F,0,240214,260328,1 F,0,260328,261862,1,0 F,0,305328,305668,0,1 F,0,305668,326124,1 F,0,326124,327487,1,0 F,0,338055,338395,0,1 F,0,338395,346578,1 F,0,346578,346663,1,0 F,0,346663,346748,1,0 F,0,346749,346834,1,0 F,0,346834,346919,1,0 F,0,346919,347004,1,0 F,0,347004,347089,1,0 F,0,347089,347174,1,0 F,0,347175,347260,1,0 F,0,347260,347345,1,0 F,0,347345,347430,1,0 F,0,347430,347515,1,0 F,0,347516,347601,1,0 F,0,347601,347686,1,0 F,0,347686,347771,1,0 F,0,347771,347856,1,0 F,0,347856,347941,1,0 F,0,347942,348027,1,0 F,0,348027,348112,1,0 F,0,348112,348197,1,0 F,0,348197,348282,1,0 F,0,348283,348368,1,0 F,0,348368,348453,1,0 F,0,348453,348538,1,0 F,0,348538,348623,1,0 F,0,348624,348709,1,0 F,0,348709,348794,1,0 F,0,348794,348879,1,0 F,0,348879,348964,1,0 F,0,348964,349049,1,0 F,0,392771,393111,0,1 F,0,393111,433851,1,0.9852941 F,0,433851,441351,0.9852941,0
Sprite,Foreground,Centre,"Names/Asphyxia.png",320,240 M,0,130748,,478,433 S,0,130748,,0.6159999 F,0,130748,131088,0,1 F,0,131088,196067,1 F,0,196067,196408,1,0 F,0,218226,218481,0,1 F,0,218481,,1 F,0,218481,238851,1 F,0,238851,239703,1,0 F,0,239703,,0 F,0,261862,262117,0,1 F,0,262117,,1 F,0,262117,281124,1 F,0,281124,283851,1,0 F,0,349135,349390,0,1 F,0,349390,,1 F,0,349390,392430,1 F,0,392430,392771,1,0
//Storyboard Sound Samples

[TimingPoints]
216,340.909090909091,4,2,1,25,1,0
39420,-117.647058823529,4,2,1,25,0,0
40102,-100,4,2,1,25,0,0
43852,-100,4,2,1,40,0,0
67289,-100,4,2,2,40,0,0
67460,-100,4,2,1,40,0,0
70017,-100,4,2,2,40,0,0
70187,-100,4,2,1,40,0,0
72744,-100,4,2,2,40,0,0
72914,-100,4,2,1,40,0,0
75471,-100,4,2,2,40,0,0
75642,-100,4,2,1,40,0,0
78198,-100,4,2,2,40,0,0
78369,-100,4,2,1,40,0,0
80926,-100,4,2,2,40,0,0
81096,-100,4,2,1,40,0,0
83653,-100,4,2,2,40,0,0
83823,-100,4,2,1,40,0,0
85272,-100,4,2,1,35,0,0
85784,-100,4,2,1,30,0,0
109270,340.909090909091,4,2,1,30,1,0
109270,-166.666666666667,4,2,1,20,0,0
131124,340.909090909091,4,2,1,40,1,0
131124,-117.647058823529,4,2,1,35,0,0
147487,-117.647058823529,4,2,1,40,0,0
150214,-117.647058823529,4,2,1,35,0,0
151578,-117.647058823529,4,2,1,40,0,0
152942,-83.3333333333333,4,2,1,50,0,1
163254,-83.3333333333333,4,2,2,50,0,1
163425,-83.3333333333333,4,2,1,50,0,1
196578,-100,4,2,1,40,0,0
234760,-100,4,2,1,35,0,0
237487,-100,4,2,1,40,0,0
238851,-100,4,2,1,45,0,0
240214,-83.3333333333333,4,2,1,50,0,1
262033,-100,4,2,1,40,0,0
280783,-100,4,2,1,35,0,0
282487,-100,4,2,1,25,0,0
302942,-100,4,2,1,20,0,0
303624,-100,4,2,1,30,0,0
304305,-100,4,2,1,40,0,0
304987,-100,4,2,1,50,0,0
305328,-100,4,2,1,5,0,0
305669,-111.111111111111,4,2,1,25,0,0
314874,-111.111111111111,4,2,1,22,0,0
316578,-111.111111111111,4,2,1,20,0,0
338226,-111.111111111111,4,2,1,30,0,0
341124,-111.111111111111,4,2,1,35,0,0
343851,-117.647058823529,4,2,1,45,0,0
346578,-111.111111111111,4,2,1,50,0,0
347942,-111.111111111111,4,2,1,40,0,0
348283,-111.111111111111,4,2,1,50,0,0
348624,-111.111111111111,4,2,1,60,0,0
348964,-111.111111111111,4,2,1,70,0,0
349305,-83.3333333333333,4,2,1,50,0,1
392942,-100,4,2,1,40,0,0
395333,-100,4,2,1,35,0,0
395669,-100,4,2,1,40,0,0
402999,-100,4,2,1,35,0,0
403510,-100,4,2,1,40,0,0
408624,-100,4,2,1,35,0,0
409305,-100,4,2,1,40,0,0
417146,-100,4,2,1,35,0,0
417487,-100,4,2,1,40,0,0
422601,-100,4,2,1,35,0,0
422942,-100,4,2,1,40,0,0
423964,-100,4,2,1,35,0,0
424305,-100,4,2,1,40,0,0
428055,-100,4,2,1,35,0,0
428567,-100,4,2,1,40,0,0
433510,-100,4,2,1,30,0,0
433936,-100,4,2,1,25,0,0

[Colours]
Combo1 : 182,134,200
Combo2 : 255,147,185
Combo3 : 254,103,159
Combo4 : 128,128,128
Combo5 : 247,247,247
Combo6 : 118,243,243

[HitObjects]
168,272,216,38,0,P|228:280|276:256,1,80
320,248,556,1,0,0:0:0:0:
260,196,727,1,2,0:0:0:0:
260,196,812,1,2,0:0:0:0:
260,196,897,1,2,0:0:0:0:
260,196,983,1,2,0:0:0:0:
260,196,1068,1,2,0:0:0:0:
317,328,1238,2,0,L|321:232,1,80
206,365,1579,6,0,P|134:369|78:293,1,160,2|0,0:0|0:0,0:0:0:0:
92,220,2091,1,2,0:0:0:0:
92,220,2176,1,2,0:0:0:0:
92,220,2261,1,2,0:0:0:0:
92,220,2346,1,2,0:0:0:0:
92,220,2431,1,2,0:0:0:0:
216,216,2602,2,0,P|181:247|169:296,1,80,0|0,0:0|0:0,0:0:0:0:
293,268,2943,70,0,P|309:196|249:128,1,160,2|0,0:0|0:0,0:0:0:0:
147,152,3454,1,2,0:0:0:0:
151,164,3539,1,2,0:0:0:0:
155,176,3625,1,2,0:0:0:0:
159,188,3710,1,2,0:0:0:0:
163,200,3795,1,2,0:0:0:0:
200,280,3966,2,0,P|244:248|336:268,1,120
307,249,4306,6,0,L|320:164,1,80,2|0,0:0|0:0,0:0:0:0:
336,52,4647,1,0,0:0:0:0:
406,130,4818,1,2,0:0:0:0:
406,130,4903,1,2,0:0:0:0:
406,130,4988,1,2,0:0:0:0:
406,130,5073,1,2,0:0:0:0:
406,130,5159,1,2,0:0:0:0:
468,200,5329,2,0,P|424:224|348:204,1,120
357,211,5670,70,0,L|344:300,1,80,2|0,0:0|0:0,0:0:0:0:
333,380,6011,1,0,0:0:0:0:
260,320,6181,1,2,0:0:0:0:
248,316,6267,1,2,0:0:0:0:
236,312,6352,1,2,0:0:0:0:
224,308,6437,1,2,0:0:0:0:
212,304,6522,1,2,0:0:0:0:
121,264,6693,2,0,P|73:261|21:276,1,80
212,304,7034,6,0,P|220:256|206:210,1,80,2|0,0:0|0:0,0:0:0:0:
213,133,7375,1,0,0:0:0:0:
140,174,7545,1,2,0:0:0:0:
128,178,7630,1,2,0:0:0:0:
116,182,7716,1,2,0:0:0:0:
104,186,7801,1,2,0:0:0:0:
92,190,7886,1,2,0:0:0:0:
12,210,8056,2,0,P|0:162|4:106,1,80
104,16,8397,70,0,P|116:60|112:120,1,80,2|0,0:0|0:0,0:0:0:0:
104,188,8738,1,0,0:0:0:0:
188,148,8909,1,2,0:0:0:0:
198,144,8994,1,2,0:0:0:0:
209,140,9079,1,2,0:0:0:0:
219,136,9164,1,2,0:0:0:0:
230,132,9250,1,2,0:0:0:0:
312,84,9420,2,0,P|320:132|312:176,1,80
208,252,9761,6,0,P|256:248|300:268,1,80,2|0,0:0|0:0,0:0:0:0:
375,357,10102,2,0,P|327:361|283:341,1,80,2|0,0:0|0:0,0:0:0:0:
476,240,10443,1,0,0:0:0:0:
460,328,10613,1,0,0:0:0:0:
380,182,10784,1,0,0:0:0:0:
391,271,10954,1,0,0:0:0:0:
275,184,11125,70,0,L|270:278,1,80,2|0,0:0|0:0,0:0:0:0:
260,355,11466,1,0,0:0:0:0:
180,304,11636,1,2,0:0:0:0:
180,304,11721,1,2,0:0:0:0:
180,304,11806,1,2,0:0:0:0:
180,304,11892,1,2,0:0:0:0:
180,304,11977,1,2,0:0:0:0:
110,245,12147,2,0,P|70:245|27:262,1,80
205,214,12488,6,0,P|240:185|257:134,1,80,2|0,0:0|0:0,0:0:0:0:
279,61,12829,1,0,0:0:0:0:
188,91,13000,2,0,P|237:147|328:141,1,160,2|0,0:0|0:0,0:0:0:0:
388,90,13511,2,0,L|407:140,1,40,2|2,0:0|0:0,0:0:0:0:
279,61,13681,2,0,L|261:3,1,40,2|2,0:0|0:0,0:0:0:0:
318,147,13852,70,0,L|313:259,1,80,2|0,0:0|0:0,0:0:0:0:
310,321,14193,1,0,0:0:0:0:
393,285,14363,1,0,0:0:0:0:
393,285,14448,1,0,0:0:0:0:
393,285,14534,1,0,0:0:0:0:
229,129,14704,1,0,0:0:0:0:
200,212,14875,2,0,P|152:240|84:228,1,120
90,231,15216,6,0,L|86:317,2,80,2|0|0,0:0|0:0|0:0,0:0:0:0:
76,121,15727,1,2,0:0:0:0:
0,193,15897,1,2,0:0:0:0:
155,177,16068,1,2,0:0:0:0:
204,96,16238,2,0,L|228:48,1,40,2|2,0:0|0:0,0:0:0:0:
252,176,16409,2,0,L|228:224,1,40,2|2,0:0|0:0,0:0:0:0:
292,96,16579,70,0,B|368:56|366:129|460:76,1,160,2|0,0:0|0:0,0:0:0:0:
398,15,17091,2,0,L|402:179,1,160,2|0,0:0|0:0,0:0:0:0:
492,214,17602,1,2,0:0:0:0:
492,214,17687,1,2,0:0:0:0:
492,214,17772,1,2,0:0:0:0:
349,300,17943,5,2,0:0:0:0:
289,220,18113,1,0,0:0:0:0:
383,209,18284,1,0,0:0:0:0:
248,304,18454,2,0,P|196:316|148:312,1,80,2|0,0:0|0:0,0:0:0:0:
88,292,18795,1,0,0:0:0:0:
160,224,18966,69,2,0:0:0:0:
160,224,19051,1,2,0:0:0:0:
160,224,19136,1,2,0:0:0:0:
160,224,19221,1,2,0:0:0:0:
160,224,19306,2,0,P|176:140|148:48,1,160
8,152,19818,2,0,P|-8:240|20:328,1,160,2|0,0:0|0:0,0:0:0:0:
132,344,20329,1,2,0:0:0:0:
152,340,20414,1,2,0:0:0:0:
172,336,20500,1,2,0:0:0:0:
192,332,20585,1,2,0:0:0:0:
212,328,20670,6,0,P|300:352|384:312,1,160,2|0,0:0|0:0,0:0:0:0:
441,200,21181,2,0,P|353:176|269:216,1,160,2|0,0:0|0:0,0:0:0:0:
227,257,21693,1,2,0:0:0:0:
259,116,21863,1,2,0:0:0:0:
184,180,22034,70,0,P|144:164|112:112,1,80
148,52,22375,1,0,0:0:0:0:
184,180,22545,2,0,L|192:344,1,160
292,249,23056,2,0,L|304:209,1,40,2|2,0:0|0:0,0:0:0:0:
324,337,23227,2,0,L|312:377,1,40,2|2,0:0|0:0,0:0:0:0:
393,267,23397,6,0,L|480:265,1,80
511,93,23738,1,0,0:0:0:0:
430,163,23909,2,0,B|377:165|377:165|331:183|331:183|249:185,1,160
186,138,24420,1,2,0:0:0:0:
190,53,24591,1,2,0:0:0:0:
184,226,24761,70,0,L|180:313,1,80
104,370,25102,1,0,0:0:0:0:
12,287,25272,2,0,P|54:291|104:276,1,80
184,226,25613,1,0,0:0:0:0:
280,240,25784,2,0,P|328:264|408:240,1,120
391,252,26125,6,0,L|394:331,2,80,2|2|2,0:0|0:0|0:0,0:0:0:0:
472,152,26636,2,0,L|480:324,1,160,2|0,0:0|0:0,0:0:0:0:
392,252,27147,1,2,0:0:0:0:
388,240,27233,1,2,0:0:0:0:
384,228,27318,1,2,0:0:0:0:
380,216,27403,1,2,0:0:0:0:
376,204,27488,70,0,P|364:160|364:112,1,80
404,48,27829,1,0,0:0:0:0:
239,112,28000,2,0,P|188:163|80:127,1,160
13,144,28511,1,2,0:0:0:0:
105,248,28681,1,2,0:0:0:0:
154,73,28852,5,2,0:0:0:0:
107,154,29022,1,0,0:0:0:0:
239,112,29193,1,0,0:0:0:0:
13,144,29363,2,0,P|26:209|137:240,1,160
248,208,29875,1,2,0:0:0:0:
252,220,29960,1,2,0:0:0:0:
256,232,30045,1,2,0:0:0:0:
260,244,30130,1,2,0:0:0:0:
264,256,30216,69,2,0:0:0:0:
272,344,30386,1,0,0:0:0:0:
374,249,30556,1,0,0:0:0:0:
192,320,30727,2,0,L|33:322,1,160
112,216,31238,1,2,0:0:0:0:
192,320,31409,1,2,0:0:0:0:
374,249,31579,6,0,P|381:210|358:149,1,80
318,92,31920,1,2,0:0:0:0:
272,213,32091,2,0,L|110:216,1,160
37,315,32602,1,2,0:0:0:0:
49,311,32687,1,2,0:0:0:0:
61,307,32772,1,2,0:0:0:0:
73,303,32858,1,2,0:0:0:0:
85,299,32943,70,0,P|113:223|73:123,1,160
156,76,33454,2,0,P|196:108|240:116,1,80,2|0,0:0|0:0,0:0:0:0:
296,176,33795,1,0,0:0:0:0:
280,68,33966,1,2,0:0:0:0:
208,208,34136,1,2,0:0:0:0:
280,68,34306,6,0,P|344:80|384:72,1,80
432,40,34647,1,0,0:0:0:0:
328,160,34818,1,0,0:0:0:0:
328,160,34903,1,0,0:0:0:0:
328,160,34988,69,0,0:0:0:0:
416,148,35159,1,0,0:0:0:0:
280,68,35329,1,2,0:0:0:0:
336,236,35500,1,2,0:0:0:0:
424,104,35670,6,0,L|428:16,2,80,0|0|0,0:0|0:0|0:0,0:0:0:0:
428,240,36181,2,0,P|353:205|249:229,1,160
152,280,36693,2,0,P|101:270|62:243,1,80,2|2,0:0|0:0,0:0:0:0:
269,142,37034,70,0,B|303:227|246:227|275:315,1,160,2|0,0:0|0:0,0:0:0:0:
374,349,37545,1,2,0:0:0:0:
376,337,37630,1,2,0:0:0:0:
379,325,37716,1,2,0:0:0:0:
382,313,37801,1,2,0:0:0:0:
385,301,37886,1,2,0:0:0:0:
414,107,38056,1,2,0:0:0:0:
414,107,38227,1,2,0:0:0:0:
414,107,38397,6,0,L|421:198,1,80,2|0,0:0|0:0,0:0:0:0:
290,136,38738,2,0,L|287:229,1,80,0|0,0:0|0:0,0:0:0:0:
168,162,39079,2,0,L|176:249,1,80,0|0,0:0|0:0,0:0:0:0:
108,318,39420,6,0,B|238:386|238:251|380:326,1,272.000005187988
472,368,40272,53,2,0:0:0:0:
472,368,40358,1,2,0:0:0:0:
472,368,40443,1,2,0:0:0:0:
472,368,40528,1,2,0:0:0:0:
472,368,40613,1,2,0:0:0:0:
484,196,40784,2,0,L|479:286,1,80
472,368,41125,5,2,0:0:0:0:
256,192,41295,12,0,43511,0:0:0:0:
208,268,43852,6,0,P|212:232|204:188,1,80,4|0,0:0|0:0,0:0:0:0:
140,128,44193,1,10,0:0:0:0:
124,328,44363,2,0,P|196:368|288:332,1,160,0|8,0:0|0:0,0:0:0:0:
362,274,44875,1,2,0:0:0:0:
367,262,44960,1,2,0:0:0:0:
374,250,45045,1,2,0:0:0:0:
379,240,45130,1,2,0:0:0:0:
386,229,45216,54,0,L|396:122,1,80
192,7,45556,1,10,0:0:0:0:
275,67,45727,2,0,L|261:229,1,160,0|8,0:0|0:0,0:0:0:0:
172,244,46238,1,0,0:0:0:0:
228,320,46409,1,8,0:0:0:0:
89,192,46579,6,0,P|77:240|81:291,1,80
95,96,46920,1,10,0:0:0:0:
175,147,47091,2,0,B|206:230|146:231|182:309,1,160,0|8,0:0|0:0,0:0:0:0:
242,368,47602,2,0,P|294:356|328:360,1,80
480,289,47943,6,0,P|425:293|392:281,1,80,2|0,0:0|0:0,0:0:0:0:
251,141,48284,1,10,0:0:0:0:
344,55,48454,2,0,P|370:112|358:213,1,160,0|8,0:0|0:0,0:0:0:0:
314,312,48966,1,0,0:0:0:0:
402,286,49136,1,8,0:0:0:0:
240,272,49306,54,0,P|196:280|148:268,1,80
86,202,49647,1,8,0:0:0:0:
43,105,49818,2,0,L|31:273,1,160,2|8,0:0|0:0,0:0:0:0:
112,340,50329,1,2,0:0:0:0:
112,340,50414,1,2,0:0:0:0:
112,340,50500,1,2,0:0:0:0:
112,340,50585,1,2,0:0:0:0:
112,340,50670,6,0,P|140:304|184:280,1,80
268,244,51011,1,8,0:0:0:0:
367,347,51181,2,0,P|431:299|423:207,1,160,2|8,0:0|0:0,0:0:0:0:
268,244,51693,2,0,P|316:260|364:252,1,80,2|8,0:0|0:0,0:0:0:0:
200,162,52034,5,0,0:0:0:0:
240,336,52204,1,0,0:0:0:0:
168,272,52375,1,8,0:0:0:0:
268,244,52545,2,0,L|439:242,1,160,2|8,0:0|0:0,0:0:0:0:
323,137,53056,1,2,0:0:0:0:
323,137,53142,1,2,0:0:0:0:
323,137,53227,1,2,0:0:0:0:
323,137,53312,1,2,0:0:0:0:
323,137,53397,54,0,P|311:93|325:39,1,80
425,56,53738,1,8,0:0:0:0:
502,148,53909,2,0,P|521:226|487:318,1,160,2|8,0:0|0:0,0:0:0:0:
382,356,54420,1,8,0:0:0:0:
399,223,54591,1,0,0:0:0:0:
266,291,54761,6,0,P|218:283|159:296,1,80
107,330,55102,1,8,0:0:0:0:
268,370,55272,2,0,P|273:330|266:291,1,80
155,221,55613,1,8,0:0:0:0:
59,123,55784,2,0,P|53:75|65:30,1,80,2|0,0:0|0:0,0:0:0:0:
183,88,56125,5,2,0:0:0:0:
155,221,56295,1,0,0:0:0:0:
289,174,56466,1,8,0:0:0:0:
183,88,56636,2,0,L|188:260,1,160,2|8,0:0|0:0,0:0:0:0:
192,352,57147,1,2,0:0:0:0:
192,352,57233,1,2,0:0:0:0:
192,352,57318,1,10,0:0:0:0:
192,352,57403,1,2,0:0:0:0:
192,352,57488,54,0,P|268:380|368:336,1,160,0|8,0:0|0:0,0:0:0:0:
424,200,58000,2,0,P|348:172|248:216,1,160,0|8,0:0|0:0,0:0:0:0:
176,220,58511,2,0,L|122:208,1,40,2|2,0:0|0:0,0:0:0:0:
216,308,58681,2,0,L|260:316,1,40,2|2,0:0|0:0,0:0:0:0:
116,304,58852,6,0,P|73:307|36:304,2,80,2|0|10,0:0|0:0|0:0,0:0:0:0:
276,192,59363,2,0,P|296:111|262:14,1,160,2|8,0:0|0:0,0:0:0:0:
54,123,59875,1,2,0:0:0:0:
57,134,59960,1,2,0:0:0:0:
60,145,60045,1,10,0:0:0:0:
64,156,60130,1,2,0:0:0:0:
68,167,60216,6,0,P|112:176|170:171,1,80,2|0,0:0|0:0,0:0:0:0:
157,33,60556,1,8,0:0:0:0:
147,176,60727,2,0,L|139:340,1,160,0|8,0:0|0:0,0:0:0:0:
241,274,61238,1,2,0:0:0:0:
238,378,61409,1,2,0:0:0:0:
424,296,61579,53,2,0:0:0:0:
344,228,61750,1,0,0:0:0:0:
329,330,61920,1,8,0:0:0:0:
440,196,62091,2,0,L|448:28,1,160,2|8,0:0|0:0,0:0:0:0:
308,48,62602,1,2,0:0:0:0:
308,48,62687,1,2,0:0:0:0:
308,48,62772,1,10,0:0:0:0:
308,48,62858,1,2,0:0:0:0:
308,48,62943,6,0,B|228:88|228:16|144:56,1,160,0|8,0:0|0:0,0:0:0:0:
60,58,63454,2,0,P|83:117|198:136,1,160,0|8,0:0|0:0,0:0:0:0:
268,149,63966,2,0,P|241:195|248:241,1,80
365,222,64306,6,0,P|392:143|355:71,1,160,0|8,0:0|0:0,0:0:0:0:
169,147,64818,2,0,P|142:226|179:298,1,160,0|8,0:0|0:0,0:0:0:0:
256,328,65329,1,2,0:0:0:0:
256,328,65414,1,2,0:0:0:0:
256,328,65500,1,10,0:0:0:0:
256,328,65585,1,2,0:0:0:0:
256,328,65670,6,0,L|336:332,1,80,4|0,0:0|0:0,0:0:0:0:
434,339,66011,1,8,0:0:0:0:
336,224,66181,2,0,L|256:220,1,80
164,214,66522,1,8,0:0:0:0:
375,155,66693,2,0,L|383:323,1,160,0|8,0:0|0:0,0:0:0:0:
164,214,67204,2,0,L|156:46,1,160,0|0,0:0|0:0,0:0:0:0:
263,74,67716,69,0,0:0:0:0:
106,133,67886,1,8,0:0:0:0:
266,171,68056,1,0,0:0:0:0:
157,54,68227,1,8,0:0:0:0:
164,214,68397,6,0,L|168:306,1,80
174,384,68738,1,8,0:0:0:0:
313,321,68909,2,0,L|321:225,1,80
343,130,69250,1,8,0:0:0:0:
173,242,69420,2,0,P|247:269|322:239,1,160,0|0,0:0|0:0,0:0:0:0:
417,45,69931,2,0,P|343:18|268:48,1,160,0|0,0:0|0:0,0:0:0:0:
170,88,70443,69,0,0:0:0:0:
343,130,70613,1,0,0:0:0:0:
179,196,70784,1,8,0:0:0:0:
270,46,70954,1,0,0:0:0:0:
284,221,71125,6,0,P|290:266|274:328,2,80,0|0|8,0:0|0:0|0:0,0:0:0:0:
144,104,71636,2,0,P|128:176|162:266,1,160,0|8,0:0|0:0,0:0:0:0:
424,332,72147,2,0,P|450:257|434:179,1,160,0|8,0:0|0:0,0:0:0:0:
136,116,72659,2,0,P|120:188|154:278,1,160,0|8,0:0|0:0,0:0:0:0:
261,384,73170,1,0,0:0:0:0:
236,242,73341,1,8,0:0:0:0:
160,369,73511,1,0,0:0:0:0:
300,306,73681,1,8,0:0:0:0:
154,281,73852,70,0,L|68:265,1,80
35,175,74193,1,8,0:0:0:0:
252,220,74363,2,0,P|267:288|226:371,1,160,0|8,0:0|0:0,0:0:0:0:
35,175,74875,2,0,P|20:107|61:24,1,160,0|8,0:0|0:0,0:0:0:0:
288,116,75386,2,0,P|216:144|130:111,1,160
164,216,75897,5,0,0:0:0:0:
216,52,76068,1,8,0:0:0:0:
264,216,76238,1,0,0:0:0:0:
140,120,76409,1,8,0:0:0:0:
288,116,76579,70,0,P|332:124|376:152,2,80,0|0|8,0:0|0:0|0:0,0:0:0:0:
448,256,77091,2,0,L|460:80,1,160,0|8,0:0|0:0,0:0:0:0:
232,44,77602,2,0,L|220:220,1,160
348,344,78113,2,0,L|360:168,1,160
98,149,78625,2,0,L|90:237,1,80,0|8,0:0|0:0,0:0:0:0:
90,228,78880,1,2,0:0:0:0:
90,228,78966,1,2,0:0:0:0:
74,347,79136,1,10,0:0:0:0:
74,347,79221,1,2,0:0:0:0:
74,347,79306,6,0,P|150:371|230:341,1,160,0|8,0:0|0:0,0:0:0:0:
388,192,79818,2,0,P|312:168|232:198,1,160,0|8,0:0|0:0,0:0:0:0:
489,270,80329,2,0,P|512:192|477:98,1,160
238,193,80841,2,0,P|215:271|250:365,1,160
320,372,81352,69,0,0:0:0:0:
148,350,81522,1,8,0:0:0:0:
308,268,81693,1,2,0:0:0:0:
308,268,81778,1,2,0:0:0:0:
308,268,81863,1,10,0:0:0:0:
308,268,81948,1,2,0:0:0:0:
308,268,82034,6,0,L|200:272,1,80
130,271,82375,1,8,0:0:0:0:
47,215,82545,2,0,P|27:131|51:39,1,160,0|8,0:0|0:0,0:0:0:0:
260,16,83056,2,0,P|268:56|252:120,1,80
184,168,83397,1,0,0:0:0:0:
276,210,83568,2,0,L|444:230,1,160
378,138,84079,2,0,L|278:126,1,80,0|8,0:0|0:0,0:0:0:0:
357,307,84420,2,0,L|457:319,1,80,0|8,0:0|0:0,0:0:0:0:
276,210,84761,70,0,P|236:282|248:371,1,160,0|8,0:0|0:0,0:0:0:0:
378,138,85272,2,0,P|318:89|227:92,1,160,0|8,0:0|0:0,0:0:0:0:
401,260,85784,2,0,P|472:221|501:132,1,160
362,92,86295,1,0,0:0:0:0:
379,176,86466,1,0,0:0:0:0:
401,260,86636,1,0,0:0:0:0:
309,235,86806,6,0,L|210:197,1,80
182,278,87147,6,0,L|82:292,1,80
14,236,87488,5,4,0:0:0:0:
72,156,109270,22,0,P|124:180|184:172,1,95.9999970703126
236,156,109952,1,0,0:0:0:0:
304,124,110293,2,0,P|398:137|450:225,1,191.999994140625,0|0,0:0|0:0,0:0:0:0:
291,216,111316,2,0,P|289:162|310:116,1,95.9999970703126
204,136,111998,22,0,P|152:140|108:120,1,95.9999970703126
57,37,112680,1,0,0:0:0:0:
22,128,113020,2,0,L|13:241,2,95.9999970703126,0|0|0,0:0|0:0|0:0,0:0:0:0:
117,197,114043,2,0,L|109:297,1,95.9999970703126
212,272,114725,54,0,L|204:372,2,95.9999970703126,0|0|0,0:0|0:0|0:0,0:0:0:0:
242,173,115748,2,0,P|282:141|338:129,1,95.9999970703126
410,194,116430,2,0,P|456:181|493:151,1,95.9999970703126
336,109,117111,22,0,P|300:196|355:292,1,191.999994140625
411,341,118134,1,0,0:0:0:0:
427,255,118475,1,0,0:0:0:0:
340,284,118816,2,0,P|288:276|236:288,1,95.9999970703126
196,364,119498,2,0,P|144:368|96:356,1,95.9999970703126
29,296,120180,54,0,P|14:246|13:189,1,95.9999970703126
20,116,120861,1,0,0:0:0:0:
87,168,121202,2,0,P|187:200|277:170,1,191.999994140625
351,144,122225,2,0,L|346:243,1,95.9999970703126
341,323,122907,21,0,0:0:0:0:
268,282,123248,1,0,0:0:0:0:
190,300,123589,1,0,0:0:0:0:
122,348,123930,2,0,P|110:308|134:236,1,95.9999970703126,0|0,0:0|0:0,0:0:0:0:
196,212,124611,1,0,0:0:0:0:
270,258,124952,1,0,0:0:0:0:
190,300,125293,1,0,0:0:0:0:
356,249,125634,54,0,L|348:353,2,95.9999970703126,0|0|0,0:0|0:0|0:0,0:0:0:0:
431,113,126657,2,0,P|404:143|336:155,1,95.9999970703126,0|0,0:0|0:0,0:0:0:0:
258,119,127339,2,0,P|197:109|78:168,1,191.999994140625
81,244,128361,22,0,P|41:232|3:173,2,95.9999970703126,0|0|0,0:0|0:0|0:0,0:0:0:0:
161,212,129384,2,0,B|256:175|256:265|346:217,1,191.999994140625
344,218,131124,70,0,L|356:136,1,68.0000012969971,4|0,0:0|0:0,0:0:0:0:
204,28,131464,2,0,P|220:72|204:168,1,136.000002593994
94,265,131976,1,0,0:0:0:0:
94,265,132061,1,0,0:0:0:0:
94,265,132146,2,0,P|74:237|70:197,1,68.0000012969971
168,72,132487,6,0,L|148:216,1,136.000002593994
180,300,132999,1,0,0:0:0:0:
272,272,133169,2,0,L|280:196,1,68.0000012969971,0|0,0:0|0:0,0:0:0:0:
428,124,133510,2,0,L|420:191,1,68.0000012969971,0|0,0:0|0:0,0:0:0:0:
494,73,133851,70,0,P|452:46|366:68,1,136.000002593994,0|0,0:0|0:0,0:0:0:0:
232,152,134362,1,0,0:0:0:0:
232,152,134533,2,0,P|208:120|208:84,1,68.0000012969971
332,220,134874,2,0,P|327:253|305:278,1,68.0000012969971
460,336,135214,5,0,0:0:0:0:
492,232,135385,1,0,0:0:0:0:
340,352,135555,2,0,L|184:340,1,136.000002593994
104,296,136067,1,0,0:0:0:0:
104,296,136152,1,0,0:0:0:0:
104,296,136237,2,0,P|76:264|76:228,1,68.0000012969971
197,213,136578,69,0,0:0:0:0:
256,36,136749,1,0,0:0:0:0:
313,213,136919,2,0,P|341:231|443:227,1,136.000002593994
334,112,137430,1,0,0:0:0:0:
176,112,137601,2,0,L|138:109|100:107,1,68.0000012969971
16,256,137942,5,0,0:0:0:0:
124,232,138112,1,0,0:0:0:0:
228,200,138283,2,0,P|248:232|228:344,2,136.000002593994,0|0|0,0:0|0:0|0:0,0:0:0:0:
116,52,139135,1,0,0:0:0:0:
116,52,139220,1,0,0:0:0:0:
116,52,139305,70,0,P|144:28|192:24,1,68.0000012969971
280,196,139646,2,0,P|220:176|188:112,1,136.000002593994
360,128,140158,1,0,0:0:0:0:
360,128,140328,2,0,P|384:168|384:196,1,68.0000012969971
256,328,140669,5,0,0:0:0:0:
164,288,140839,1,0,0:0:0:0:
71,246,141010,2,0,L|53:170,1,68.0000012969971,0|0,0:0|0:0,0:0:0:0:
256,47,141351,2,0,L|256:120,1,68.0000012969971
440,246,141692,2,0,L|456:176,1,68.0000012969971,0|0,0:0|0:0,0:0:0:0:
344,224,142033,69,0,0:0:0:0:
320,332,142203,1,0,0:0:0:0:
212,308,142374,2,0,B|144:288|144:328|72:304,1,136.000002593994
12,184,142885,1,0,0:0:0:0:
12,184,142970,1,0,0:0:0:0:
12,184,143055,2,0,P|32:148|40:100,1,68.0000012969971
144,208,143396,6,0,P|144:256|184:332,1,136.000002593994,0|0,0:0|0:0,0:0:0:0:
292,356,143908,1,0,0:0:0:0:
388,304,144078,2,0,L|472:316,1,68.0000012969971
508,164,144419,2,0,L|424:176,1,68.0000012969971
309,44,144760,70,0,L|376:53,1,68.0000012969971
256,124,145101,2,0,P|224:88|224:0,2,136.000002593994,0|0|0,0:0|0:0|0:0,0:0:0:0:
352,180,145953,1,0,0:0:0:0:
460,172,146124,6,0,P|476:228|444:300,1,136.000002593994
272,364,146635,2,0,P|243:303|258:238,1,136.000002593994,0|0,0:0|0:0,0:0:0:0:
136,128,147146,2,0,P|140:164|128:196,1,68.0000012969971
32,84,147487,70,0,L|24:0,1,68.0000012969971,2|0,0:0|0:0,0:0:0:0:
164,44,147828,2,0,L|170:111,1,68.0000012969971,2|0,0:0|0:0,0:0:0:0:
300,172,148169,2,0,L|293:104,1,68.0000012969971,2|0,0:0|0:0,0:0:0:0:
424,156,148510,2,0,L|430:227,1,68.0000012969971,2|0,0:0|0:0,0:0:0:0:
340,340,148851,6,0,P|304:332|276:304,1,68.0000012969971,2|0,0:0|0:0,0:0:0:0:
112,248,149192,2,0,P|145:241|170:220,1,68.0000012969971,2|0,0:0|0:0,0:0:0:0:
228,52,149533,2,0,P|194:58|169:79,1,68.0000012969971,2|0,0:0|0:0,0:0:0:0:
341,220,149874,2,0,P|366:241|400:248,1,68.0000012969971,2|0,0:0|0:0,0:0:0:0:
488,184,150214,69,2,0:0:0:0:
492,68,150385,1,2,0:0:0:0:
368,176,150555,1,2,0:0:0:0:
340,64,150726,1,2,0:0:0:0:
256,212,150896,1,2,0:0:0:0:
200,96,151067,1,2,0:0:0:0:
148,264,151237,1,2,0:0:0:0:
68,164,151408,1,2,0:0:0:0:
196,328,151578,5,2,0:0:0:0:
240,316,151664,1,2,0:0:0:0:
284,312,151749,1,2,0:0:0:0:
328,324,151835,1,2,0:0:0:0:
368,344,151920,1,2,0:0:0:0:
412,332,152005,1,2,0:0:0:0:
448,308,152090,1,2,0:0:0:0:
448,264,152175,1,2,0:0:0:0:
432,220,152261,1,2,0:0:0:0:
392,200,152346,1,2,0:0:0:0:
348,200,152431,1,2,0:0:0:0:
312,224,152516,1,2,0:0:0:0:
296,264,152602,1,2,0:0:0:0:
296,264,152942,6,0,P|252:284|108:236,1,191.999994140625,0|8,0:0|0:0,0:0:0:0:
56,160,153454,1,0,0:0:0:0:
136,104,153624,2,0,P|156:52|156:12,2,95.9999970703126,0|8|0,0:0|0:0|0:0,0:0:0:0:
292,252,154136,1,0,0:0:0:0:
292,252,154221,1,0,0:0:0:0:
292,252,154306,6,0,P|293:299|312:343,2,95.9999970703126,0|0|8,0:0|0:0|0:0,0:0:0:0:
360,144,154817,1,0,0:0:0:0:
472,208,154987,1,0,0:0:0:0:
220,336,155158,1,8,0:0:0:0:
220,336,155244,1,0,0:0:0:0:
220,336,155329,2,0,L|104:328,1,95.9999970703126,0|8,0:0|0:0,0:0:0:0:
12,168,155669,70,0,P|96:188|188:128,1,191.999994140625,0|8,0:0|0:0,0:0:0:0:
319,232,156180,2,0,P|315:279|334:322,1,95.9999970703126
464,159,156521,2,0,P|482:116|478:69,1,95.9999970703126,8|0,0:0|0:0,0:0:0:0:
354,169,156862,1,0,0:0:0:0:
354,169,156947,1,0,0:0:0:0:
354,169,157033,6,0,P|386:239|506:261,1,191.999994140625,0|8,0:0|0:0,0:0:0:0:
272,356,157544,2,0,L|292:260,1,95.9999970703126,0|0,0:0|0:0,0:0:0:0:
104,132,157885,2,0,L|123:225,1,95.9999970703126,8|0,0:0|0:0,0:0:0:0:
272,356,158226,1,8,0:0:0:0:
272,356,158311,1,0,0:0:0:0:
272,356,158396,70,0,L|224:160,1,191.999994140625,0|8,0:0|0:0,0:0:0:0:
352,36,158908,1,0,0:0:0:0:
352,36,159079,2,0,P|376:88|368:132,2,95.9999970703126,0|8|0,0:0|0:0|0:0,0:0:0:0:
304,212,159590,1,0,0:0:0:0:
304,212,159675,1,0,0:0:0:0:
304,212,159761,6,0,P|352:232|476:160,1,191.999994140625,0|8,0:0|0:0,0:0:0:0:
242,139,160272,2,0,P|214:179|210:231,1,95.9999970703126,0|0,0:0|0:0,0:0:0:0:
212,336,160612,2,0,P|216:360|232:380,1,47.9999985351563,8|0,0:0|0:0,0:0:0:0:
212,336,160783,2,0,P|160:328|116:284,1,95.9999970703126,0|8,0:0|0:0,0:0:0:0:
120,92,161124,69,0,0:0:0:0:
312,108,161294,2,0,P|328:96|340:68,1,47.9999985351563
312,108,161465,2,0,P|312:156|344:204,1,95.9999970703126,8|0,0:0|0:0,0:0:0:0:
264,356,161805,1,0,0:0:0:0:
264,356,161977,2,0,P|288:316|296:268,1,95.9999970703126,8|0,0:0|0:0,0:0:0:0:
204,108,162317,1,0,0:0:0:0:
204,108,162403,1,0,0:0:0:0:
204,108,162488,6,0,P|176:148|208:288,1,191.999994140625,0|8,0:0|0:0,0:0:0:0:
296,64,162999,1,0,0:0:0:0:
296,64,163085,1,0,0:0:0:0:
296,64,163170,2,0,L|96:92,1,191.999994140625
288,168,163681,1,8,0:0:0:0:
288,168,163852,70,0,L|392:176,1,95.9999970703126
416,180,164107,1,0,0:0:0:0:
416,180,164192,1,8,0:0:0:0:
196,228,164363,2,0,P|178:183|183:136,1,95.9999970703126,0|0,0:0|0:0,0:0:0:0:
504,144,164704,2,0,P|509:191|491:235,2,95.9999970703126,8|0|0,0:0|0:0|0:0,0:0:0:0:
476,331,165215,6,0,P|414:288|419:176,1,191.999994140625,0|8,0:0|0:0,0:0:0:0:
312,56,165727,1,0,0:0:0:0:
312,56,165812,1,0,0:0:0:0:
312,56,165897,1,0,0:0:0:0:
176,140,166067,2,0,L|76:128,1,95.9999970703126,8|0,0:0|0:0,0:0:0:0:
184,280,166408,1,8,0:0:0:0:
184,280,166493,1,0,0:0:0:0:
184,280,166579,70,0,P|268:296|368:232,1,191.999994140625,0|8,0:0|0:0,0:0:0:0:
388,156,167090,2,0,L|372:52,1,95.9999970703126
198,185,167431,2,0,L|183:279,1,95.9999970703126,8|0,0:0|0:0,0:0:0:0:
84,188,167772,2,0,L|96:124,1,47.9999985351563
84,188,167942,6,0,P|44:156|28:104,1,95.9999970703126
164,12,168283,1,8,0:0:0:0:
123,101,168454,1,0,0:0:0:0:
267,31,168624,2,0,P|291:39|318:35,1,47.9999985351563,0|0,0:0|0:0,0:0:0:0:
396,20,168795,1,8,0:0:0:0:
512,180,168965,2,0,P|481:173|457:173,1,47.9999985351563,0|0,0:0|0:0,0:0:0:0:
387,208,169136,1,8,0:0:0:0:
176,256,169305,70,0,P|132:220|128:84,1,191.999994140625,0|8,0:0|0:0,0:0:0:0:
240,132,169817,2,0,P|248:104|244:68,1,47.9999985351563,0|0,0:0|0:0,0:0:0:0:
252,140,169988,2,0,P|274:121|291:89,1,47.9999985351563,0|0,0:0|0:0,0:0:0:0:
264,152,170158,2,0,P|292:146|323:127,1,47.9999985351563,8|0,0:0|0:0,0:0:0:0:
276,168,170328,2,0,P|332:176|392:156,1,95.9999970703126,0|0,0:0|0:0,0:0:0:0:
500,324,170669,5,0,0:0:0:0:
384,360,170840,1,0,0:0:0:0:
368,328,170925,1,0,0:0:0:0:
348,304,171011,1,8,0:0:0:0:
320,288,171096,1,0,0:0:0:0:
288,276,171180,1,0,0:0:0:0:
256,272,171266,1,0,0:0:0:0:
224,276,171352,2,0,L|128:268,1,95.9999970703126,0|8,0:0|0:0,0:0:0:0:
40,152,171692,1,0,0:0:0:0:
156,76,171863,1,8,0:0:0:0:
284,164,172033,70,0,P|324:212|280:336,1,191.999994140625,0|8,0:0|0:0,0:0:0:0:
461,210,172545,1,0,0:0:0:0:
461,210,172630,1,0,0:0:0:0:
461,210,172715,1,0,0:0:0:0:
416,124,172886,2,0,P|462:113|509:126,2,95.9999970703126,8|0|0,0:0|0:0|0:0,0:0:0:0:
204,264,173397,6,0,P|157:274|111:262,1,95.9999970703126,0|0,0:0|0:0,0:0:0:0:
260,176,173738,1,8,0:0:0:0:
296,364,173908,1,0,0:0:0:0:
376,188,174079,1,0,0:0:0:0:
412,316,174249,2,0,P|472:328|532:312,1,95.9999970703126,8|0,0:0|0:0,0:0:0:0:
376,188,174590,1,8,0:0:0:0:
376,188,174675,1,0,0:0:0:0:
376,188,174761,70,0,P|356:116|228:72,1,191.999994140625,0|8,0:0|0:0,0:0:0:0:
104,124,175272,2,0,P|60:130|4:103,1,95.9999970703126,0|0,0:0|0:0,0:0:0:0:
176,252,175613,2,0,P|214:224|271:224,1,95.9999970703126,8|0,0:0|0:0,0:0:0:0:
416,360,175954,1,0,0:0:0:0:
420,336,176039,1,0,0:0:0:0:
424,312,176124,6,0,L|460:104,1,191.999994140625,0|8,0:0|0:0,0:0:0:0:
288,16,176636,2,0,L|271:117,1,95.9999970703126
64,232,176977,1,8,0:0:0:0:
64,232,177062,1,0,0:0:0:0:
64,232,177147,1,0,0:0:0:0:
36,96,177317,1,8,0:0:0:0:
200,232,177488,70,0,P|211:281|196:335,2,95.9999970703126,0|0|8,0:0|0:0|0:0,0:0:0:0:
348,148,177999,2,0,L|336:200,2,47.9999985351563,0|0|0,0:0|0:0|0:0,0:0:0:0:
200,88,178340,2,0,L|189:41,2,47.9999985351563,8|0|0,0:0|0:0|0:0,0:0:0:0:
400,40,178681,1,0,0:0:0:0:
496,216,178852,6,0,P|460:264|324:260,1,191.999994140625,0|8,0:0|0:0,0:0:0:0:
88,268,179363,2,0,P|124:220|260:224,1,191.999994140625,0|8,0:0|0:0,0:0:0:0:
340,88,179874,2,0,P|284:104|232:92,1,95.9999970703126,0|8,0:0|0:0,0:0:0:0:
392,4,180215,70,0,L|356:208,1,191.999994140625,0|8,0:0|0:0,0:0:0:0:
192,268,180727,1,0,0:0:0:0:
168,260,180812,1,0,0:0:0:0:
144,252,180897,1,0,0:0:0:0:
120,244,180982,1,0,0:0:0:0:
96,236,181067,2,0,L|0:248,2,95.9999970703126,8|0|0,0:0|0:0|0:0,0:0:0:0:
220,92,181579,6,0,B|316:48|316:120|416:80,1,191.999994140625,0|8,0:0|0:0,0:0:0:0:
500,264,182090,1,0,0:0:0:0:
476,268,182175,1,0,0:0:0:0:
452,272,182261,1,0,0:0:0:0:
224,192,182431,1,8,0:0:0:0:
224,192,182602,2,0,L|332:208,1,95.9999970703126,0|8,0:0|0:0,0:0:0:0:
168,96,182942,70,0,P|132:132|148:276,1,191.999994140625,0|8,0:0|0:0,0:0:0:0:
321,291,183454,1,0,0:0:0:0:
321,291,183539,1,0,0:0:0:0:
321,291,183624,1,0,0:0:0:0:
321,57,183795,1,8,0:0:0:0:
182,245,183965,1,0,0:0:0:0:
405,172,184136,1,0,0:0:0:0:
182,103,184306,6,0,P|136:84|2:134,1,191.999994140625,0|8,0:0|0:0,0:0:0:0:
108,208,184817,1,0,0:0:0:0:
312,148,184988,1,0,0:0:0:0:
216,328,185158,1,8,0:0:0:0:
192,336,185244,1,0,0:0:0:0:
168,344,185329,1,0,0:0:0:0:
368,300,185499,1,8,0:0:0:0:
368,300,185670,70,0,L|468:312,2,95.9999970703126,0|0|8,0:0|0:0|0:0,0:0:0:0:
140,208,186181,2,0,L|40:220,2,95.9999970703126,0|0|8,0:0|0:0|0:0,0:0:0:0:
360,112,186692,2,0,P|380:56|368:12,1,95.9999970703126
248,168,187033,6,0,P|284:212|432:216,1,191.999994140625,0|8,0:0|0:0,0:0:0:0:
260,76,187544,2,0,P|208:80|168:120,2,95.9999970703126,0|0|8,0:0|0:0|0:0,0:0:0:0:
288,292,188056,1,0,0:0:0:0:
376,152,188227,1,8,0:0:0:0:
160,256,188397,70,0,L|48:268,2,95.9999970703126,0|0|8,0:0|0:0|0:0,0:0:0:0:
368,256,188908,2,0,L|480:268,2,95.9999970703126,0|0|8,0:0|0:0|0:0,0:0:0:0:
144,80,189420,1,0,0:0:0:0:
272,48,189590,1,0,0:0:0:0:
304,56,189675,1,0,0:0:0:0:
332,76,189761,6,0,P|354:124|275:229,1,191.999994140625,0|8,0:0|0:0,0:0:0:0:
432,344,190272,2,0,P|416:296|436:248,2,95.9999970703126,0|0|8,0:0|0:0|0:0,0:0:0:0:
204,196,190783,2,0,L|211:291,1,95.9999970703126,0|8,0:0|0:0,0:0:0:0:
104,144,191124,70,0,P|164:160|304:84,1,191.999994140625,0|8,0:0|0:0,0:0:0:0:
416,188,191636,1,0,0:0:0:0:
416,188,191721,1,0,0:0:0:0:
416,188,191806,1,0,0:0:0:0:
456,344,191977,1,8,0:0:0:0:
296,304,192147,1,0,0:0:0:0:
136,344,192317,1,0,0:0:0:0:
28,220,192488,6,0,B|104:188|92:72|8:96|8:144|24:164,1,191.999994140625,0|8,0:0|0:0,0:0:0:0:
144,260,192999,1,0,0:0:0:0:
144,260,193085,1,0,0:0:0:0:
144,260,193170,1,0,0:0:0:0:
256,128,193340,1,8,0:0:0:0:
256,128,193425,1,0,0:0:0:0:
256,128,193511,1,0,0:0:0:0:
424,196,193681,1,8,0:0:0:0:
424,196,193766,1,0,0:0:0:0:
424,196,193852,70,0,P|448:244|444:304,2,95.9999970703126,0|0|0,0:0|0:0|0:0,0:0:0:0:
332,168,194363,1,0,0:0:0:0:
228,56,194533,1,0,0:0:0:0:
244,208,194704,1,0,0:0:0:0:
320,80,194874,1,0,0:0:0:0:
176,136,195045,1,0,0:0:0:0:
176,136,195215,6,0,B|190:166|174:199|147:214|147:214|102:279|-1:296|-41:159|83:85|162:173|157:269|144:303|108:332,1,479.999985351563,0|2,0:0|0:0,0:0:0:0:
240,368,196238,2,0,P|264:320|268:272,1,95.9999970703126,8|0,0:0|0:0,0:0:0:0:
320,79,196578,38,0,P|313:132|330:173,1,80,4|0,0:0|0:0,0:0:0:0:
412,220,196920,1,0,0:0:0:0:
424,114,197090,1,0,0:0:0:0:
424,114,197175,1,0,0:0:0:0:
424,114,197261,1,0,0:0:0:0:
242,202,197431,1,0,0:0:0:0:
389,314,197602,2,0,P|429:314|485:282,1,80
156,164,197942,70,0,P|148:212|168:260,2,80,0|0|0,0:0|0:0|0:0,0:0:0:0:
316,196,198454,1,0,0:0:0:0:
260,70,198624,1,0,0:0:0:0:
156,164,198795,1,0,0:0:0:0:
379,118,198965,2,0,P|427:138|463:182,1,80
316,196,199306,6,0,P|284:124|328:32,1,160
212,52,199817,1,0,0:0:0:0:
188,64,199903,1,0,0:0:0:0:
160,72,199988,1,0,0:0:0:0:
132,72,200073,1,0,0:0:0:0:
104,64,200158,1,0,0:0:0:0:
8,8,200329,2,0,L|16:112,1,80
40,212,200670,70,0,P|104:184|216:216,1,160
153,336,201181,1,0,0:0:0:0:
121,328,201266,1,0,0:0:0:0:
101,304,201352,1,0,0:0:0:0:
191,198,201522,1,0,0:0:0:0:
284,296,201692,2,0,P|336:272|384:200,1,120
376,224,202033,6,0,L|392:383,1,160
458,180,202545,1,0,0:0:0:0:
442,152,202630,1,0,0:0:0:0:
414,136,202715,1,0,0:0:0:0:
382,129,202800,1,0,0:0:0:0:
348,134,202886,1,0,0:0:0:0:
204,108,203056,2,0,P|192:68|192:20,1,80
268,224,203397,70,0,P|256:316|192:364,1,160
85,254,203908,1,0,0:0:0:0:
85,254,203994,1,0,0:0:0:0:
85,254,204079,2,0,L|196:268,1,80
349,154,204419,2,0,L|238:140,1,80
194,62,204761,6,0,P|267:33|355:73,1,160
458,212,205271,1,0,0:0:0:0:
466,103,205442,1,0,0:0:0:0:
391,267,205612,1,0,0:0:0:0:
391,267,205698,1,0,0:0:0:0:
391,267,205783,1,0,0:0:0:0:
272,140,205954,1,0,0:0:0:0:
376,180,206124,69,0,0:0:0:0:
272,260,206295,1,0,0:0:0:0:
168,216,206465,2,0,L|76:220,1,80
60,232,206721,1,0,0:0:0:0:
36,256,206806,1,0,0:0:0:0:
136,348,206977,1,0,0:0:0:0:
168,216,207147,2,0,P|172:164|168:100,1,80
168,104,207403,1,0,0:0:0:0:
164,72,207488,22,0,P|240:100|336:60,1,160
464,96,207999,1,0,0:0:0:0:
436,112,208085,1,0,0:0:0:0:
416,136,208170,1,0,0:0:0:0:
408,168,208255,1,0,0:0:0:0:
412,200,208340,1,0,0:0:0:0:
468,292,208510,54,0,L|360:304,2,80,0|0|0,0:0|0:0|0:0,0:0:0:0:
237,231,209022,2,0,L|345:219,2,80,0|0|0,0:0|0:0|0:0,0:0:0:0:
164,316,209533,2,0,P|127:244|161:146,1,160
316,103,210045,1,0,0:0:0:0:
286,115,210130,1,0,0:0:0:0:
254,113,210214,21,0,0:0:0:0:
164,77,210386,1,0,0:0:0:0:
77,9,210556,2,0,L|63:120,1,80
64,244,210897,1,0,0:0:0:0:
86,218,210982,1,0,0:0:0:0:
114,206,211067,1,0,0:0:0:0:
146,202,211153,1,0,0:0:0:0:
178,206,211238,2,0,L|198:310,1,80
292,120,211579,54,0,L|308:72,1,40
328,232,211749,2,0,L|316:276,1,40
376,156,211920,2,0,L|468:152,1,80
386,340,212261,2,0,P|303:365|228:314,1,160
184,148,212772,1,0,0:0:0:0:
184,148,212857,1,0,0:0:0:0:
184,148,212942,22,0,L|180:44,2,80,0|0|0,0:0|0:0|0:0,0:0:0:0:
112,276,213454,1,0,0:0:0:0:
256,216,213624,1,0,0:0:0:0:
100,188,213795,1,0,0:0:0:0:
204,300,213965,2,0,P|216:356|220:392,1,80
324,304,214306,2,0,P|324:212|340:112,1,160
180,44,214817,53,0,0:0:0:0:
208,64,214903,1,0,0:0:0:0:
240,72,214988,1,0,0:0:0:0:
272,72,215073,1,0,0:0:0:0:
304,64,215158,1,0,0:0:0:0:
92,4,215329,2,0,P|85:49|100:104,1,80
180,224,215670,22,0,P|184:168|172:124,2,80,0|0|0,0:0|0:0|0:0,0:0:0:0:
88,316,216181,1,0,0:0:0:0:
88,316,216266,1,0,0:0:0:0:
88,316,216352,1,0,0:0:0:0:
56,200,216522,1,0,0:0:0:0:
180,224,216692,2,0,P|236:244|336:220,1,160
452,188,217204,53,0,0:0:0:0:
360,112,217374,1,0,0:0:0:0:
468,76,217545,1,0,0:0:0:0:
284,248,217715,2,0,L|272:164,1,80
120,164,218055,1,0,0:0:0:0:
256,80,218227,1,0,0:0:0:0:
256,80,218311,1,0,0:0:0:0:
256,80,218396,5,4,0:0:0:0:
280,280,218567,2,0,L|236:288,5,40,0|0|0|0|0|0,0:0|0:0|0:0|0:0|0:0|0:0,0:0:0:0:
288,248,219079,1,0,0:0:0:0:
292,220,219164,1,0,0:0:0:0:
296,192,219249,1,0,0:0:0:0:
300,164,219335,1,0,0:0:0:0:
304,136,219420,2,0,P|344:108|388:104,1,80
507,271,219761,6,0,P|427:255|371:183,1,160
346,356,220271,2,0,L|381:173,1,160,0|0,0:0|0:0,0:0:0:0:
269,309,220783,2,0,P|254:350|259:387,1,80
329,242,221124,70,0,P|282:218|185:274,1,160,0|0,0:0|0:0,0:0:0:0:
116,336,221636,2,0,L|76:344,1,40,0|0,0:0|0:0,0:0:0:0:
12,240,221806,2,0,L|52:248,1,40
128,220,221977,1,0,0:0:0:0:
128,220,222062,1,0,0:0:0:0:
128,220,222147,1,0,0:0:0:0:
104,120,222317,1,0,0:0:0:0:
76,124,222403,1,0,0:0:0:0:
48,128,222487,6,0,L|228:136,1,160
296,76,222999,2,0,P|308:48|308:24,3,40,0|0|0|0,0:0|0:0|0:0|0:0,0:0:0:0:
288,160,223340,2,0,P|291:179|301:197,1,40,0|0,0:0|0:0,0:0:0:0:
376,156,223511,2,0,L|484:164,1,80
300,272,223852,70,0,B|220:244|220:296|136:264,1,160
16,152,224363,1,0,0:0:0:0:
44,148,224448,1,0,0:0:0:0:
72,144,224533,1,0,0:0:0:0:
252,60,224704,1,0,0:0:0:0:
224,56,224789,1,0,0:0:0:0:
196,52,224874,1,0,0:0:0:0:
188,204,225045,1,0,0:0:0:0:
216,200,225130,1,0,0:0:0:0:
244,196,225215,6,0,P|264:232|228:352,1,160
404,356,225727,2,0,L|392:296,1,40,0|0,0:0|0:0,0:0:0:0:
476,240,225897,2,0,L|484:280,1,40
352,232,226067,2,0,L|340:172,1,40,0|0,0:0|0:0,0:0:0:0:
440,140,226238,2,0,P|464:88|456:44,1,80
280,164,226579,70,0,P|258:217|300:316,1,160
128,364,227090,2,0,P|148:328|148:312,1,40
44,308,227261,2,0,P|43:266|35:252,1,40
16,156,227431,2,0,P|56:165|71:160,1,40
156,132,227602,2,0,P|180:100|192:40,1,80
140,212,227942,6,0,L|88:32,1,160
268,160,228454,1,0,0:0:0:0:
264,188,228539,1,0,0:0:0:0:
260,216,228624,1,0,0:0:0:0:
256,244,228710,1,0,0:0:0:0:
252,272,228795,1,0,0:0:0:0:
428,356,228965,1,0,0:0:0:0:
412,344,229306,70,0,P|404:296|452:192,1,160
340,64,229817,1,0,0:0:0:0:
356,88,229903,1,0,0:0:0:0:
364,116,229988,1,0,0:0:0:0:
364,144,230073,1,0,0:0:0:0:
360,172,230158,1,0,0:0:0:0:
252,272,230329,1,0,0:0:0:0:
112,224,230499,1,0,0:0:0:0:
112,224,230585,1,0,0:0:0:0:
112,224,230670,6,0,L|24:236,2,80,0|0|0,0:0|0:0|0:0,0:0:0:0:
232,72,231181,1,0,0:0:0:0:
232,72,231266,1,0,0:0:0:0:
232,72,231352,2,0,L|320:84,2,80,0|0|0,0:0|0:0|0:0,0:0:0:0:
296,256,231863,1,0,0:0:0:0:
296,256,231948,1,0,0:0:0:0:
296,256,232033,70,0,P|376:272|456:220,1,160
393,7,232545,2,0,L|357:175,1,160
228,324,233056,2,0,P|204:284|208:232,1,80
330,100,233397,6,0,L|290:284,1,160,0|0,0:0|0:0,0:0:0:0:
240,88,233908,1,0,0:0:0:0:
248,60,233994,1,0,0:0:0:0:
264,40,234079,1,0,0:0:0:0:
288,24,234164,1,0,0:0:0:0:
316,16,234249,1,0,0:0:0:0:
244,192,234420,1,0,0:0:0:0:
124,236,234590,1,0,0:0:0:0:
96,228,234675,1,0,0:0:0:0:
68,220,234761,70,0,L|44:136,1,80,2|0,0:0|0:0,0:0:0:0:
176,112,235102,2,0,L|152:28,1,80,2|0,0:0|0:0,0:0:0:0:
336,112,235442,2,0,L|357:35,1,80,2|0,0:0|0:0,0:0:0:0:
444,220,235783,2,0,L|465:143,1,80,2|0,0:0|0:0,0:0:0:0:
500,336,236124,5,0,0:0:0:0:
364,360,236295,1,0,0:0:0:0:
256,276,236465,1,0,0:0:0:0:
148,360,236636,1,0,0:0:0:0:
12,336,236806,1,0,0:0:0:0:
4,200,236977,1,0,0:0:0:0:
108,112,237147,1,0,0:0:0:0:
232,164,237317,1,0,0:0:0:0:
128,236,237488,69,0,0:0:0:0:
128,236,237658,1,0,0:0:0:0:
256,56,237829,1,0,0:0:0:0:
256,56,237999,1,0,0:0:0:0:
384,236,238170,1,0,0:0:0:0:
384,236,238340,1,0,0:0:0:0:
408,88,238511,1,0,0:0:0:0:
408,88,238681,1,0,0:0:0:0:
496,316,238851,6,0,B|457:335|428:303|428:303|394:332|327:325|292:284|284:224|308:184|344:168,1,320,0|0,0:0|0:0,0:0:0:0:
433,148,239704,69,2,0:0:0:0:
188,112,239874,1,8,0:0:0:0:
188,112,240214,38,0,P|129:104|93:76,2,95.9999970703126,0|0|8,0:0|0:0|0:0,0:0:0:0:
336,52,240727,2,0,B|376:160|312:160|348:256,1,191.999994140625,0|8,0:0|0:0,0:0:0:0:
409,319,241238,1,0,0:0:0:0:
375,337,241323,1,0,0:0:0:0:
337,340,241408,1,0,0:0:0:0:
301,326,241494,1,0,0:0:0:0:
272,302,241579,70,0,L|144:306,1,95.9999970703126
88,344,241920,1,8,0:0:0:0:
188,112,242089,2,0,L|193:219,1,95.9999970703126
177,305,242430,1,8,0:0:0:0:
270,142,242601,1,0,0:0:0:0:
286,107,242686,1,0,0:0:0:0:
312,80,242771,1,8,0:0:0:0:
349,67,242856,1,0,0:0:0:0:
388,66,242942,5,0,0:0:0:0:
477,137,243113,1,0,0:0:0:0:
332,34,243283,1,8,0:0:0:0:
320,205,243454,2,0,P|328:251|318:298,2,95.9999970703126,0|0|8,0:0|0:0|0:0,0:0:0:0:
128,76,243965,2,0,P|112:132|124:180,1,95.9999970703126
236,60,244306,70,0,B|182:61|182:61|99:35|99:35|46:35,1,191.999994140625,0|8,0:0|0:0,0:0:0:0:
90,264,244817,1,0,0:0:0:0:
90,264,244903,1,0,0:0:0:0:
90,264,244988,1,0,0:0:0:0:
238,168,245158,1,8,0:0:0:0:
254,355,245329,1,0,0:0:0:0:
254,355,245414,1,0,0:0:0:0:
254,355,245499,1,8,0:0:0:0:
254,355,245585,1,0,0:0:0:0:
254,355,245670,6,0,P|323:355|392:247,1,191.999994140625,0|8,0:0|0:0,0:0:0:0:
238,168,246181,2,0,P|252:213|302:265,1,95.9999970703126
328,120,246522,1,8,0:0:0:0:
340,16,246692,1,0,0:0:0:0:
238,168,246863,1,0,0:0:0:0:
408,193,247033,2,0,P|467:198|520:185,2,95.9999970703126,0|0|8,0:0|0:0|0:0,0:0:0:0:
204,104,247545,2,0,P|232:192|172:295,1,191.999994140625,0|8,0:0|0:0,0:0:0:0:
84,92,248056,2,0,P|80:24|100:-16,1,95.9999970703126,0|8,0:0|0:0,0:0:0:0:
132,192,248397,70,0,P|84:204|36:192,2,95.9999970703126,0|0|8,0:0|0:0|0:0,0:0:0:0:
345,46,248908,2,0,L|353:244,1,191.999994140625,0|8,0:0|0:0,0:0:0:0:
249,145,249420,1,0,0:0:0:0:
213,131,249505,1,0,0:0:0:0:
174,136,249590,1,0,0:0:0:0:
142,156,249675,1,0,0:0:0:0:
132,192,249761,6,0,L|148:308,1,95.9999970703126
232,376,250102,1,8,0:0:0:0:
352,328,250272,2,0,P|416:288|428:164,1,191.999994140625,0|8,0:0|0:0,0:0:0:0:
251,115,250783,2,0,P|291:140|367:127,1,95.9999970703126,0|8,0:0|0:0,0:0:0:0:
148,68,251124,70,0,P|140:116|152:176,1,95.9999970703126
164,192,251380,1,0,0:0:0:0:
192,212,251465,1,8,0:0:0:0:
337,281,251636,2,0,B|237:237|237:325|145:281,1,191.999994140625,0|8,0:0|0:0,0:0:0:0:
296,86,252147,2,0,B|289:217,1,95.9999970703126
104,104,252488,6,0,L|108:0,2,95.9999970703126,0|0|8,0:0|0:0|0:0,0:0:0:0:
28,232,252999,1,0,0:0:0:0:
28,232,253085,1,0,0:0:0:0:
28,232,253170,1,0,0:0:0:0:
164,212,253340,1,8,0:0:0:0:
240,348,253511,1,0,0:0:0:0:
268,376,253596,1,0,0:0:0:0:
308,384,253681,1,8,0:0:0:0:
348,376,253766,1,0,0:0:0:0:
376,360,253852,70,0,B|422:319|400:248|400:248|410:200|456:160,1,191.999994140625,0|8,0:0|0:0,0:0:0:0:
512,272,254363,1,0,0:0:0:0:
312,291,254533,2,0,B|266:259|256:203,1,95.9999970703126,0|8,0:0|0:0,0:0:0:0:
259,214,254789,1,0,0:0:0:0:
259,214,254874,1,0,0:0:0:0:
228,56,255045,1,0,0:0:0:0:
98,135,255215,2,0,P|87:90|112:23,1,95.9999970703126,0|0,0:0|0:0,0:0:0:0:
343,165,255556,2,0,P|354:210|329:277,1,95.9999970703126,8|0,0:0|0:0,0:0:0:0:
60,334,255897,5,0,0:0:0:0:
72,294,255982,1,0,0:0:0:0:
100,270,256067,2,0,L|232:262,1,95.9999970703126,8|0,0:0|0:0,0:0:0:0:
232,254,256323,1,0,0:0:0:0:
260,214,256408,1,8,0:0:0:0:
320,92,256579,70,0,P|356:172|488:172,1,191.999994140625,0|8,0:0|0:0,0:0:0:0:
185,24,257090,2,0,B|172:224,1,191.999994140625,0|8,0:0|0:0,0:0:0:0:
172,215,257516,1,0,0:0:0:0:
172,215,257602,1,0,0:0:0:0:
60,168,257772,1,0,0:0:0:0:
228,315,257942,6,0,L|348:323,1,95.9999970703126
424,232,258283,1,8,0:0:0:0:
408,204,258369,1,0,0:0:0:0:
404,172,258454,1,0,0:0:0:0:
412,140,258539,1,0,0:0:0:0:
428,112,258624,2,0,L|436:16,1,95.9999970703126,0|8,0:0|0:0,0:0:0:0:
236,220,258965,2,0,L|228:316,1,95.9999970703126,0|8,0:0|0:0,0:0:0:0:
286,136,259306,70,0,B|186:92|186:180|94:136,1,191.999994140625,0|8,0:0|0:0,0:0:0:0:
341,58,259817,2,0,P|381:137|299:233,1,191.999994140625,0|8,0:0|0:0,0:0:0:0:
236,220,260329,1,0,0:0:0:0:
256,192,260499,12,0,261692,0:0:0:0:
124,92,262033,53,0,0:0:0:0:
168,188,262203,1,0,0:0:0:0:
268,220,262374,2,0,P|320:208|352:188,1,80,8|0,0:0|0:0,0:0:0:0:
492,324,262714,1,0,0:0:0:0:
492,324,262885,2,0,P|456:306|417:299,1,80,8|0,0:0|0:0,0:0:0:0:
220,332,263227,1,0,0:0:0:0:
108,240,263397,6,0,P|88:203|165:109,1,160,0|8,0:0|0:0,0:0:0:0:
188,256,263908,2,0,P|156:304|48:296,1,160,0|8,0:0|0:0,0:0:0:0:
276,196,264420,2,0,L|267:288,1,80,0|8,0:0|0:0,0:0:0:0:
432,344,264761,69,0,0:0:0:0:
416,240,264931,1,0,0:0:0:0:
456,144,265102,2,0,L|444:64,1,80,8|0,0:0|0:0,0:0:0:0:
444,64,265357,1,0,0:0:0:0:
444,64,265442,1,0,0:0:0:0:
288,124,265613,1,8,0:0:0:0:
280,164,265698,1,0,0:0:0:0:
264,200,265783,1,0,0:0:0:0:
236,228,265869,1,0,0:0:0:0:
200,244,265954,1,0,0:0:0:0:
56,204,266124,6,0,P|36:160|36:112,2,80,0|0|8,0:0|0:0|0:0,0:0:0:0:
240,128,266635,2,0,B|316:88|316:148|397:115,1,160
504,192,267146,1,0,0:0:0:0:
456,296,267317,1,8,0:0:0:0:
456,296,267402,1,0,0:0:0:0:
456,296,267488,70,0,L|376:280,1,80,0|0,0:0|0:0,0:0:0:0:
160,364,267829,2,0,L|238:348,1,80,8|0,0:0|0:0,0:0:0:0:
244,201,268170,1,0,0:0:0:0:
67,228,268340,1,8,0:0:0:0:
40,64,268511,1,0,0:0:0:0:
216,36,268681,1,0,0:0:0:0:
332,208,268852,6,0,P|308:260|208:284,1,160,0|8,0:0|0:0,0:0:0:0:
360,112,269363,2,0,L|376:300,1,160,0|8,0:0|0:0,0:0:0:0:
216,344,269874,2,0,L|210:296,3,40,2|0|8|0,0:0|0:0|0:0|0:0,0:0:0:0:
211,304,270215,70,0,P|172:284|40:312,1,160,0|8,0:0|0:0,0:0:0:0:
276,200,270727,2,0,P|353:212|425:179,1,160,0|8,0:0|0:0,0:0:0:0:
216,148,271238,2,0,P|200:176|200:200,3,40,2|0|2|0,0:0|0:0|0:0|0:0,0:0:0:0:
198,183,271579,6,0,P|160:216|32:200,1,160,0|8,0:0|0:0,0:0:0:0:
276,76,272090,2,0,P|314:108|442:92,1,160,0|8,0:0|0:0,0:0:0:0:
488,208,272602,2,0,P|488:244|480:264,1,40
392,328,272772,2,0,P|388:308|391:288,1,40,8|0,0:0|0:0,0:0:0:0:
472,360,272942,70,0,L|300:348,1,160,0|8,0:0|0:0,0:0:0:0:
120,224,273454,2,0,L|279:235,1,160,0|8,0:0|0:0,0:0:0:0:
392,132,273965,2,0,L|336:128,1,40
252,44,274136,2,0,L|291:46,1,40
188,144,274306,6,0,P|144:148|108:140,2,80,0|0|8,0:0|0:0|0:0,0:0:0:0:
296,232,274817,1,0,0:0:0:0:
296,232,274987,2,0,L|304:328,1,80,0|8,0:0|0:0,0:0:0:0:
336,340,275244,1,0,0:0:0:0:
336,340,275329,1,0,0:0:0:0:
468,216,275499,1,8,0:0:0:0:
468,216,275585,1,0,0:0:0:0:
468,216,275670,70,0,B|448:160|496:96|496:96|464:108,1,160,0|8,0:0|0:0,0:0:0:0:
387,219,276181,2,0,P|412:274|521:278,1,160,0|8,0:0|0:0,0:0:0:0:
236,312,276692,2,0,L|240:360,3,40,0|0|0|0,0:0|0:0|0:0|0:0,0:0:0:0:
236,312,277033,6,0,L|136:304,1,80
176,160,277374,2,0,L|76:152,1,80,8|0,0:0|0:0,0:0:0:0:
240,88,277714,2,0,L|292:92,2,40,2|0|10,0:0|0:0|0:0,0:0:0:0:
320,188,278056,1,0,0:0:0:0:
356,204,278141,1,0,0:0:0:0:
396,208,278227,1,8,0:0:0:0:
436,200,278312,1,0,0:0:0:0:
468,180,278397,70,0,P|488:220|436:328,1,160,0|8,0:0|0:0,0:0:0:0:
268,312,278908,1,0,0:0:0:0:
236,288,278994,1,0,0:0:0:0:
196,276,279079,1,0,0:0:0:0:
156,276,279164,1,0,0:0:0:0:
116,284,279249,1,8,0:0:0:0:
12,192,279420,1,0,0:0:0:0:
52,184,279505,1,0,0:0:0:0:
84,160,279590,1,0,0:0:0:0:
108,128,279675,1,0,0:0:0:0:
120,92,279761,5,0,0:0:0:0:
260,140,279931,1,0,0:0:0:0:
280,172,280016,1,0,0:0:0:0:
308,200,280102,1,8,0:0:0:0:
480,128,280272,1,0,0:0:0:0:
440,120,280357,1,0,0:0:0:0:
408,100,280442,1,0,0:0:0:0:
380,72,280528,69,0,0:0:0:0:
360,36,280613,1,8,0:0:0:0:
184,152,280783,2,0,P|168:196|168:252,1,80,0|8,0:0|0:0,0:0:0:0:
256,360,281124,5,2,0:0:0:0:
256,192,281210,12,4,283852,0:0:0:0:
256,192,302941,12,0,305328,0:0:0:0:
332,272,305669,38,0,L|329:200,1,71.9999978027344
380,365,306010,1,0,0:0:0:0:
229,331,306180,2,0,L|224:179,1,143.999995605469
103,148,306691,2,0,L|106:245,1,71.9999978027344
105,219,306947,1,0,0:0:0:0:
105,219,307032,5,0,0:0:0:0:
100,311,307203,1,0,0:0:0:0:
22,180,307373,1,0,0:0:0:0:
105,219,307544,2,0,P|172:240|256:208,1,143.999995605469
328,68,308055,2,0,P|320:116|336:156,1,71.9999978027344
470,246,308396,2,0,P|483:183|467:99,1,143.999995605469
328,68,308907,69,0,0:0:0:0:
328,68,308993,1,0,0:0:0:0:
328,68,309078,1,0,0:0:0:0:
280,184,309249,1,0,0:0:0:0:
436,154,309419,2,0,P|473:146|527:163,1,71.9999978027344
348,272,309760,6,0,P|279:296|205:264,1,143.999995605469
0,208,310271,2,0,P|66:183|133:207,1,143.999995605469
216,180,310782,2,0,P|210:142|224:81,1,71.9999978027344
299,94,311123,69,0,0:0:0:0:
245,29,311294,1,0,0:0:0:0:
292,199,311464,1,0,0:0:0:0:
352,152,311635,2,0,P|420:132|496:152,1,143.999995605469
248,231,312146,2,0,P|227:159|254:73,1,143.999995605469
136,36,312657,2,0,L|128:121,1,71.9999978027344
100,224,312998,5,0,0:0:0:0:
100,224,313084,1,0,0:0:0:0:
100,224,313169,1,0,0:0:0:0:
16,152,313339,1,0,0:0:0:0:
120,309,313510,2,0,P|166:297|244:310,1,107.999996704102
225,302,313851,70,0,L|236:152,1,143.999995605469
288,72,314362,1,0,0:0:0:0:
288,72,314447,1,0,0:0:0:0:
288,72,314532,1,0,0:0:0:0:
184,68,314703,1,0,0:0:0:0:
314,203,314874,2,0,L|320:284,1,71.9999978027344
373,124,315215,6,0,P|297:108|235:142,1,143.999995605469
260,352,315727,2,0,P|336:368|397:333,1,143.999995605469
314,203,316237,1,0,0:0:0:0:
125,326,316408,1,0,0:0:0:0:
125,326,316493,1,0,0:0:0:0:
125,326,316578,6,0,P|93:274|93:191,1,143.999995605469
191,176,317089,1,0,0:0:0:0:
185,5,317260,1,0,0:0:0:0:
144,93,317430,1,0,0:0:0:0:
262,73,317601,2,0,L|352:64,1,71.9999978027344
488,141,317942,2,0,L|344:157,1,143.999995605469
191,176,318453,2,0,P|119:181|59:146,1,143.999995605469
141,305,318964,2,0,P|152:346|153:393,1,71.9999978027344
290,303,319305,70,0,P|277:231|294:144,1,143.999995605469
330,66,319816,1,0,0:0:0:0:
330,66,319902,1,0,0:0:0:0:
330,66,319987,1,0,0:0:0:0:
185,129,320157,1,0,0:0:0:0:
400,192,320328,2,0,P|407:237|403:265,1,71.9999978027344
188,264,320669,6,0,P|165:197|196:116,1,143.999995605469
236,52,321180,1,0,0:0:0:0:
96,136,321351,1,0,0:0:0:0:
275,193,321521,1,0,0:0:0:0:
140,55,321691,1,0,0:0:0:0:
140,55,321777,1,0,0:0:0:0:
140,55,321862,1,0,0:0:0:0:
351,122,322033,70,0,L|366:288,1,143.999995605469,0|0,0:0|0:0,0:0:0:0:
376,372,322544,1,0,0:0:0:0:
446,230,322714,1,0,0:0:0:0:
268,320,322885,1,0,0:0:0:0:
476,328,323055,2,0,P|450:292|450:219,1,107.999996704102
446,230,323396,6,0,L|288:240,1,143.999995605469
107,253,323907,1,0,0:0:0:0:
107,253,323993,1,0,0:0:0:0:
107,253,324078,1,0,0:0:0:0:
213,218,324248,1,0,0:0:0:0:
124,88,324419,2,0,L|127:160,1,71.9999978027344
194,320,324760,69,0,0:0:0:0:
213,218,324930,1,0,0:0:0:0:
323,87,325101,2,0,L|333:255,1,143.999995605469
417,304,325612,1,0,0:0:0:0:
433,202,325782,1,0,0:0:0:0:
256,192,326123,12,4,327487,0:0:0:0:
288,248,338226,69,0,0:0:0:0:
288,248,338311,1,0,0:0:0:0:
288,248,338396,6,0,L|296:332,1,71.9999978027344,0|0,0:0|0:0,0:0:0:0:
387,283,338737,2,0,L|399:371,1,71.9999978027344,0|0,0:0|0:0,0:0:0:0:
183,180,339078,2,0,L|175:96,1,71.9999978027344
85,135,339419,2,0,L|75:31,1,71.9999978027344,0|0,0:0|0:0,0:0:0:0:
278,177,339760,2,0,L|294:281,1,71.9999978027344
168,344,340101,2,0,L|152:240,1,71.9999978027344
140,180,340441,5,0,0:0:0:0:
72,328,340612,1,0,0:0:0:0:
240,248,340782,1,0,0:0:0:0:
68,240,340953,1,0,0:0:0:0:
252,332,341123,54,0,L|332:336,1,71.9999978027344
317,240,341464,2,0,L|397:243,1,71.9999978027344
231,54,341805,2,0,L|151:50,1,71.9999978027344
177,148,342146,2,0,L|97:144,1,71.9999978027344
349,157,342487,2,0,L|429:161,1,71.9999978027344
143,239,342828,2,0,L|63:235,1,71.9999978027344
178,148,343169,37,0,0:0:0:0:
306,256,343339,1,0,0:0:0:0:
282,160,343510,1,0,0:0:0:0:
218,316,343680,1,0,0:0:0:0:
364,189,343851,70,0,L|456:181,1,68.0000012969971,6|0,0:0|0:0,0:0:0:0:
512,285,344191,2,0,L|420:293,1,68.0000012969971,2|0,0:0|0:0,0:0:0:0:
230,276,344532,2,0,L|322:268,1,68.0000012969971,2|0,0:0|0:0,0:0:0:0:
408,372,344873,2,0,L|316:380,1,68.0000012969971,2|0,0:0|0:0,0:0:0:0:
241,337,345214,5,2,0:0:0:0:
152,184,345385,1,0,0:0:0:0:
92,304,345555,1,2,0:0:0:0:
248,256,345726,1,0,0:0:0:0:
0,216,345896,2,0,L|12:304,1,68.0000012969971,2|0,0:0|0:0,0:0:0:0:
104,372,346237,2,0,L|92:304,1,68.0000012969971,2|0,0:0|0:0,0:0:0:0:
320,168,346578,70,0,L|378:165,1,35.9999989013672,2|0,0:0|0:0,0:0:0:0:
364,80,346749,2,0,L|422:77,1,35.9999989013672,2|0,0:0|0:0,0:0:0:0:
240,108,346919,2,0,L|204:109,1,35.9999989013672,2|0,0:0|0:0,0:0:0:0:
200,192,347090,2,0,L|164:193,1,35.9999989013672,2|0,0:0|0:0,0:0:0:0:
284,264,347260,6,0,L|276:320,1,35.9999989013672,2|0,0:0|0:0,0:0:0:0:
381,232,347430,2,0,L|373:288,1,35.9999989013672,2|0,0:0|0:0,0:0:0:0:
180,328,347601,2,0,L|188:272,1,35.9999989013672,2|2,0:0|0:0,0:0:0:0:
290,228,347771,2,0,L|282:284,1,35.9999989013672,2|0,0:0|0:0,0:0:0:0:
381,232,347941,69,2,0:0:0:0:
385,196,348027,1,2,0:0:0:0:
369,152,348112,1,2,0:0:0:0:
329,124,348197,1,2,0:0:0:0:
285,116,348282,1,2,0:0:0:0:
241,124,348368,1,2,0:0:0:0:
201,140,348453,1,2,0:0:0:0:
157,140,348538,1,2,0:0:0:0:
121,116,348623,1,2,0:0:0:0:
105,76,348709,1,2,0:0:0:0:
117,36,348794,1,2,0:0:0:0:
149,8,348879,1,2,0:0:0:0:
193,8,348964,1,2,0:0:0:0:
48,292,349305,22,0,P|88:336|224:336,1,191.999994140625,0|8,0:0|0:0,0:0:0:0:
480,344,349817,2,0,P|407:284|314:293,1,191.999994140625,0|8,0:0|0:0,0:0:0:0:
192,160,350328,2,0,P|220:172|252:172,1,47.9999985351563
352,136,350498,2,0,P|330:125|306:122,1,47.9999985351563,0|0,0:0|0:0,0:0:0:0:
321,226,350669,6,0,P|385:226|445:119,1,191.999994140625,0|8,0:0|0:0,0:0:0:0:
256,144,351180,2,0,L|300:344,1,191.999994140625,0|8,0:0|0:0,0:0:0:0:
168,368,351691,2,0,L|184:308,1,47.9999985351563
104,220,351862,2,0,L|91:266,1,47.9999985351563,8|0,0:0|0:0,0:0:0:0:
32,176,352033,70,0,P|60:148|120:136,2,95.9999970703126,0|0|8,0:0|0:0|0:0,0:0:0:0:
272,296,352544,2,0,P|225:287|190:255,2,95.9999970703126,0|0|8,0:0|0:0|0:0,0:0:0:0:
340,200,353055,1,0,0:0:0:0:
380,188,353140,1,0,0:0:0:0:
424,188,353226,1,0,0:0:0:0:
464,200,353311,1,0,0:0:0:0:
500,220,353396,6,0,P|472:180|504:36,1,191.999994140625,0|8,0:0|0:0,0:0:0:0:
300,96,353908,2,0,B|204:52|204:128|104:84,1,191.999994140625,0|8,0:0|0:0,0:0:0:0:
4,228,354419,1,0,0:0:0:0:
44,240,354504,1,0,0:0:0:0:
88,240,354589,1,8,0:0:0:0:
128,228,354674,1,0,0:0:0:0:
164,204,354760,70,0,L|272:216,1,95.9999970703126,0|0,0:0|0:0,0:0:0:0:
472,124,355101,1,8,0:0:0:0:
472,124,355271,2,0,L|364:132,1,95.9999970703126
256,348,355612,2,0,L|351:340,1,95.9999970703126,8|0,0:0|0:0,0:0:0:0:
228,164,355953,1,0,0:0:0:0:
228,164,356038,1,0,0:0:0:0:
228,164,356123,6,8,P|172:112|64:136,1,191.999994140625,0|8,0:0|0:0,0:0:0:0:
328,224,356635,2,0,L|132:200,1,191.999994140625,0|8,0:0|0:0,0:0:0:0:
388,120,357146,2,0,L|452:112,1,47.9999985351563
512,216,357316,2,0,L|464:210,1,47.9999985351563,8|0,0:0|0:0,0:0:0:0:
404,316,357487,70,0,L|512:308,1,95.9999970703126
216,216,357828,2,0,P|160:228|120:276,1,95.9999970703126,8|0,0:0|0:0,0:0:0:0:
116,292,358084,1,0,0:0:0:0:
116,292,358169,1,0,0:0:0:0:
424,196,358339,2,0,P|470:139|415:40,1,191.999994140625,8|0,0:0|0:0,0:0:0:0:
184,141,358851,6,0,P|135:219|185:292,1,191.999994140625,0|8,0:0|0:0,0:0:0:0:
284,94,359362,2,0,P|244:50|99:67,1,191.999994140625,0|8,0:0|0:0,0:0:0:0:
264,184,359873,1,0,0:0:0:0:
308,184,359959,1,0,0:0:0:0:
348,168,360044,1,8,0:0:0:0:
376,132,360129,1,0,0:0:0:0:
384,88,360214,70,0,L|400:184,2,95.9999970703126,0|0|8,0:0|0:0|0:0,0:0:0:0:
484,348,360726,2,0,L|499:253,2,95.9999970703126,0|0|8,0:0|0:0|0:0,0:0:0:0:
208,304,361237,2,0,P|188:260|200:200,1,95.9999970703126
389,32,361578,5,0,0:0:0:0:
296,243,361748,1,0,0:0:0:0:
498,129,361919,1,8,0:0:0:0:
266,102,362089,1,0,0:0:0:0:
437,258,362260,1,0,0:0:0:0:
296,243,362430,1,8,0:0:0:0:
296,243,362515,1,0,0:0:0:0:
296,243,362601,2,0,P|201:230|178:215,1,95.9999970703126,0|8,0:0|0:0,0:0:0:0:
64,64,362942,70,0,L|104:288,1,191.999994140625,0|8,0:0|0:0,0:0:0:0:
414,253,363453,2,0,L|448:64,1,191.999994140625,0|8,0:0|0:0,0:0:0:0:
256,32,363964,1,0,0:0:0:0:
256,76,364049,1,0,0:0:0:0:
256,120,364135,1,0,0:0:0:0:
256,164,364220,1,0,0:0:0:0:
256,208,364305,6,0,P|204:228|152:224,1,95.9999970703126
0,76,364646,2,0,P|43:57|91:56,1,95.9999970703126,8|0,0:0|0:0,0:0:0:0:
112,296,364987,2,0,P|84:300|56:292,1,47.9999985351563,0|0,0:0|0:0,0:0:0:0:
112,296,365157,2,0,P|152:280|220:288,1,95.9999970703126,8|0,0:0|0:0,0:0:0:0:
484,176,365498,1,8,0:0:0:0:
484,176,365584,1,0,0:0:0:0:
484,176,365669,70,0,L|368:184,1,95.9999970703126
216,72,366010,1,8,0:0:0:0:
332,68,366180,2,0,P|376:32|400:0,2,95.9999970703126,0|0|8,0:0|0:0|0:0,0:0:0:0:
136,128,366691,2,0,P|120:80|124:60,1,47.9999985351563
232,176,366862,2,0,P|227:199|215:220,1,47.9999985351563
108,232,367033,6,0,P|64:208|52:64,1,191.999994140625,0|8,0:0|0:0,0:0:0:0:
160,292,367544,2,0,P|116:312|56:296,2,95.9999970703126,0|0|8,0:0|0:0|0:0,0:0:0:0:
296,260,368055,2,0,L|344:276,1,47.9999985351563
468,192,368226,2,0,L|422:207,1,47.9999985351563,8|0,0:0|0:0,0:0:0:0:
316,152,368396,70,0,P|304:96|324:44,1,95.9999970703126
164,244,368737,2,0,P|174:290|162:336,1,95.9999970703126,8|0,0:0|0:0,0:0:0:0:
36,144,369078,2,0,P|16:96|16:72,1,47.9999985351563
96,96,369248,2,0,L|60:216,2,95.9999970703126,8|0|0,0:0|0:0|0:0,0:0:0:0:
216,300,369760,6,0,P|168:244|184:124,1,191.999994140625,0|8,0:0|0:0,0:0:0:0:
328,264,370271,2,0,P|332:320|316:360,1,95.9999970703126
420,208,370612,2,0,L|404:104,1,95.9999970703126,8|0,0:0|0:0,0:0:0:0:
196,32,370953,1,8,0:0:0:0:
184,72,371038,1,0,0:0:0:0:
168,112,371123,70,0,L|64:104,1,95.9999970703126
20,308,371464,2,0,L|115:315,1,95.9999970703126,8|0,0:0|0:0,0:0:0:0:
296,232,371805,1,0,0:0:0:0:
296,232,371976,2,0,P|320:184|320:128,1,95.9999970703126,8|0,0:0|0:0,0:0:0:0:
464,32,372316,1,0,0:0:0:0:
464,32,372402,1,0,0:0:0:0:
464,32,372487,6,0,L|480:256,1,191.999994140625,0|8,0:0|0:0,0:0:0:0:
256,364,372999,2,0,P|236:316|244:264,1,95.9999970703126
101,107,373339,1,8,0:0:0:0:
101,107,373424,1,0,0:0:0:0:
101,107,373510,1,0,0:0:0:0:
79,316,373680,1,8,0:0:0:0:
79,316,373765,1,0,0:0:0:0:
79,316,373851,69,0,0:0:0:0:
240,216,374021,1,0,0:0:0:0:
240,216,374191,2,0,P|308:208|352:196,1,95.9999970703126,8|0,0:0|0:0,0:0:0:0:
172,72,374532,1,0,0:0:0:0:
172,72,374703,2,0,P|124:67|77:57,1,95.9999970703126,8|0,0:0|0:0,0:0:0:0:
352,100,375044,1,0,0:0:0:0:
352,100,375214,6,0,L|504:88,1,143.999995605469
495,88,375555,2,0,P|512:140|488:192,1,95.9999970703126,8|0,0:0|0:0,0:0:0:0:
288,312,375896,1,0,0:0:0:0:
288,312,376067,2,0,L|192:304,1,95.9999970703126,8|0,0:0|0:0,0:0:0:0:
4,176,376407,1,8,0:0:0:0:
4,176,376493,1,0,0:0:0:0:
4,176,376578,70,0,P|95:153|137:56,1,191.999994140625,0|8,0:0|0:0,0:0:0:0:
15,57,377089,1,0,0:0:0:0:
188,180,377260,1,0,0:0:0:0:
396,236,377430,1,8,0:0:0:0:
260,66,377601,1,0,0:0:0:0:
271,282,377771,1,0,0:0:0:0:
388,100,377941,5,0,0:0:0:0:
278,290,378112,1,0,0:0:0:0:
278,290,378197,1,0,0:0:0:0:
278,290,378282,2,0,P|235:313|180:311,1,95.9999970703126,8|0,0:0|0:0,0:0:0:0:
4,196,378623,1,0,0:0:0:0:
4,196,378794,2,0,P|45:172|92:168,1,95.9999970703126,8|0,0:0|0:0,0:0:0:0:
316,72,379135,1,8,0:0:0:0:
316,72,379305,70,0,L|112:56,1,191.999994140625,0|8,0:0|0:0,0:0:0:0:
316,168,379817,2,0,P|364:154|407:109,2,95.9999970703126,0|0|8,0:0|0:0|0:0,0:0:0:0:
152,328,380328,2,0,L|36:312,1,95.9999970703126
280,276,380669,6,0,B|376:228|376:296|480:260,1,191.999994140625,0|8,0:0|0:0,0:0:0:0:
200,92,381180,2,0,P|136:88|44:200,1,191.999994140625,0|8,0:0|0:0,0:0:0:0:
160,284,381691,2,0,P|176:240|156:192,1,95.9999970703126,0|8,0:0|0:0,0:0:0:0:
69,318,382033,70,0,P|105:362|249:324,1,191.999994140625,0|8,0:0|0:0,0:0:0:0:
364,240,382544,2,0,L|480:256,2,95.9999970703126,0|0|8,0:0|0:0|0:0,0:0:0:0:
184,96,383055,2,0,L|88:109,1,95.9999970703126,0|0,0:0|0:0,0:0:0:0:
277,151,383396,6,0,P|293:103|273:39,2,95.9999970703126,0|0|8,0:0|0:0|0:0,0:0:0:0:
128,272,383907,2,0,P|120:318|136:363,1,95.9999970703126,0|0,0:0|0:0,0:0:0:0:
400,288,384248,1,8,0:0:0:0:
400,288,384334,1,0,0:0:0:0:
400,288,384419,1,0,0:0:0:0:
460,64,384589,1,8,0:0:0:0:
216,92,384760,70,0,P|196:136|200:184,1,95.9999970703126
32,336,385101,1,8,0:0:0:0:
32,336,385271,2,0,P|35:288|15:245,1,95.9999970703126
128,96,385612,2,0,L|328:88,1,191.999994140625,8|0,0:0|0:0,0:0:0:0:
396,172,386123,6,0,P|430:126|435:73,1,95.9999970703126
208,240,386464,1,8,0:0:0:0:
208,240,386635,2,0,L|100:248,1,95.9999970703126
388,348,386976,2,0,L|483:340,2,95.9999970703126,8|0|0,0:0|0:0|0:0,0:0:0:0:
144,312,387487,70,0,P|114:260|171:151,1,191.999994140625,0|8,0:0|0:0,0:0:0:0:
12,16,387998,2,0,L|40:216,1,191.999994140625,0|8,0:0|0:0,0:0:0:0:
272,280,388510,1,0,0:0:0:0:
304,252,388595,1,0,0:0:0:0:
328,216,388680,1,0,0:0:0:0:
332,172,388765,1,0,0:0:0:0:
323,127,388851,6,0,B|398:86|458:139|458:139|511:111,1,191.999994140625,0|8,0:0|0:0,0:0:0:0:
424,292,389362,2,0,P|396:252|388:196,2,95.9999970703126,0|0|8,0:0|0:0|0:0,0:0:0:0:
188,352,389874,1,0,0:0:0:0:
40,212,390044,1,8,0:0:0:0:
40,212,390129,1,0,0:0:0:0:
40,212,390214,69,0,0:0:0:0:
104,140,390385,1,0,0:0:0:0:
136,48,390555,1,0,0:0:0:0:
204,116,390726,1,0,0:0:0:0:
296,136,390896,1,0,0:0:0:0:
392,116,391066,1,0,0:0:0:0:
468,60,391237,1,0,0:0:0:0:
496,152,391407,1,0,0:0:0:0:
481,246,391578,6,0,B|441:284|388:271|388:271|355:305|301:310|257:295|227:254|226:204|226:204|189:226|149:226|97:206|84:155,1,479.999985351563,0|2,0:0|0:0,0:0:0:0:
173,123,392601,1,8,0:0:0:0:
332,125,392942,70,0,P|319:162|319:202,1,80
413,179,393283,1,0,0:0:0:0:
232,100,393453,2,0,L|216:280,1,160,0|8,0:0|0:0,0:0:0:0:
84,220,393964,1,0,0:0:0:0:
84,220,394049,1,0,0:0:0:0:
84,220,394135,1,0,0:0:0:0:
231,353,394305,38,0,P|279:334|307:295,1,80
202,176,394646,1,8,0:0:0:0:
17,150,394817,2,0,P|-10:233|40:306,1,160,0|8,0:0|0:0,0:0:0:0:
168,265,395328,1,2,0:0:0:0:
196,250,395413,1,2,0:0:0:0:
227,244,395498,1,10,0:0:0:0:
257,252,395584,1,2,0:0:0:0:
284,269,395669,38,0,P|336:286|394:269,1,80
468,248,396010,1,8,0:0:0:0:
335,110,396180,2,0,L|338:209,2,80,0|0|8,0:0|0:0|0:0,0:0:0:0:
229,55,396691,1,0,0:0:0:0:
216,84,396777,1,0,0:0:0:0:
195,108,396862,1,0,0:0:0:0:
165,122,396947,1,0,0:0:0:0:
132,128,397033,38,0,P|53:115|14:42,1,160,0|8,0:0|0:0,0:0:0:0:
106,35,397544,1,0,0:0:0:0:
166,205,397714,1,0,0:0:0:0:
166,236,397799,1,0,0:0:0:0:
183,264,397885,2,0,L|276:283,1,80,8|0,0:0|0:0,0:0:0:0:
289,298,398140,1,0,0:0:0:0:
305,326,398226,1,8,0:0:0:0:
428,336,398396,54,0,L|443:158,1,160,0|8,0:0|0:0,0:0:0:0:
456,23,398907,1,0,0:0:0:0:
402,95,399078,1,0,0:0:0:0:
495,104,399248,1,8,0:0:0:0:
354,20,399419,2,0,P|314:27|253:23,1,80
130,24,399760,22,0,P|161:110|137:190,1,160,0|8,0:0|0:0,0:0:0:0:
95,285,400271,1,0,0:0:0:0:
124,273,400356,1,0,0:0:0:0:
156,274,400441,1,0,0:0:0:0:
263,280,400612,1,8,0:0:0:0:
294,274,400697,1,0,0:0:0:0:
320,255,400782,1,0,0:0:0:0:
377,168,400953,1,8,0:0:0:0:
241,40,401123,54,0,P|223:118|262:219,1,160,0|8,0:0|0:0,0:0:0:0:
481,207,401635,2,0,P|486:163|466:102,2,80,0|0|8,0:0|0:0|0:0,0:0:0:0:
361,358,402146,2,0,P|321:366|269:353,1,80
119,202,402487,22,0,L|104:365,1,160,0|8,0:0|0:0,0:0:0:0:
39,156,402998,1,2,0:0:0:0:
59,131,403084,1,2,0:0:0:0:
88,118,403169,1,2,0:0:0:0:
119,114,403254,1,2,0:0:0:0:
150,116,403339,1,10,0:0:0:0:
235,155,403510,2,0,L|274:150,1,40
233,41,403680,2,0,L|193:37,1,40,8|0,0:0|0:0,0:0:0:0:
208,200,403851,38,0,L|369:180,1,160,0|8,0:0|0:0,0:0:0:0:
468,164,404362,1,0,0:0:0:0:
468,164,404447,1,0,0:0:0:0:
468,164,404532,1,0,0:0:0:0:
260,80,404703,1,8,0:0:0:0:
364,102,404873,2,0,P|372:150|360:198,1,80
182,159,405214,2,0,P|151:100|178:6,1,160,0|8,0:0|0:0,0:0:0:0:
267,0,405726,1,0,0:0:0:0:
352,168,405896,5,0,0:0:0:0:
335,195,405981,1,0,0:0:0:0:
306,210,406066,1,8,0:0:0:0:
169,227,406237,1,0,0:0:0:0:
137,220,406322,1,0,0:0:0:0:
105,227,406407,1,8,0:0:0:0:
0,337,406578,70,0,P|64:316|152:342,1,160,0|8,0:0|0:0,0:0:0:0:
350,351,407089,1,0,0:0:0:0:
309,244,407260,1,0,0:0:0:0:
235,328,407430,1,8,0:0:0:0:
414,276,407601,2,0,P|462:259|501:217,1,80
306,94,407942,2,0,P|283:163|320:257,1,160,0|8,0:0|0:0,0:0:0:0:
439,115,408453,1,0,0:0:0:0:
258,14,408624,5,2,0:0:0:0:
232,33,408709,1,2,0:0:0:0:
216,61,408794,1,10,0:0:0:0:
213,92,408879,1,2,0:0:0:0:
218,123,408964,1,2,0:0:0:0:
315,195,409135,1,0,0:0:0:0:
200,232,409305,70,0,B|20:240|21:240,1,160,0|8,0:0|0:0,0:0:0:0:
105,155,409816,1,0,0:0:0:0:
105,155,409902,1,0,0:0:0:0:
105,155,409987,1,0,0:0:0:0:
96,321,410157,1,8,0:0:0:0:
285,285,410328,2,0,P|316:258|340:200,1,80
368,133,410669,6,0,P|372:220|444:276,1,160,0|8,0:0|0:0,0:0:0:0:
470,169,411180,1,0,0:0:0:0:
312,60,411351,2,0,L|300:8,2,40,0|0|8,0:0|0:0|0:0,0:0:0:0:
228,168,411691,2,0,L|224:224,2,40,0|0|8,0:0|0:0|0:0,0:0:0:0:
68,108,412033,70,0,B|124:108|124:108|176:84|176:84|236:84,1,160,0|8,0:0|0:0,0:0:0:0:
320,84,412544,1,0,0:0:0:0:
102,16,412714,2,0,B|46:16|46:16|14:32,1,80,0|8,0:0|0:0,0:0:0:0:
199,177,413055,2,0,B|255:177|255:177|287:161,1,80
408,48,413396,6,0,L|400:224,1,160,0|8,0:0|0:0,0:0:0:0:
392,340,413907,1,0,0:0:0:0:
392,340,413993,1,0,0:0:0:0:
392,340,414078,1,0,0:0:0:0:
488,280,414248,1,8,0:0:0:0:
268,332,414419,1,2,0:0:0:0:
241,314,414504,1,2,0:0:0:0:
210,305,414589,1,10,0:0:0:0:
177,307,414674,1,2,0:0:0:0:
145,314,414760,22,0,P|86:255|92:171,1,160,0|8,0:0|0:0,0:0:0:0:
146,86,415271,1,0,0:0:0:0:
254,207,415442,2,0,P|214:222|156:217,2,80,0|8|0,0:0|0:0|0:0,0:0:0:0:
413,100,415953,1,0,0:0:0:0:
322,74,416123,70,0,B|302:156|371:156|344:255,1,160,0|8,0:0|0:0,0:0:0:0:
336,318,416635,1,0,0:0:0:0:
465,213,416805,2,0,L|479:148,2,40,0|0|8,0:0|0:0|0:0,0:0:0:0:
477,362,417146,1,2,0:0:0:0:
477,362,417231,1,2,0:0:0:0:
477,362,417316,1,10,0:0:0:0:
336,318,417487,6,0,L|166:324,1,160,0|8,0:0|0:0,0:0:0:0:
85,328,417998,1,0,0:0:0:0:
286,217,418169,2,0,P|287:158|270:122,1,80,0|8,0:0|0:0,0:0:0:0:
114,53,418510,2,0,P|113:112|130:148,1,80
302,59,418851,2,0,P|377:33|468:80,1,160,0|8,0:0|0:0,0:0:0:0:
505,134,419362,1,0,0:0:0:0:
468,259,419533,69,0,0:0:0:0:
455,216,419618,1,0,0:0:0:0:
427,192,419703,2,0,L|323:188,1,80,8|0,0:0|0:0,0:0:0:0:
308,177,419959,1,0,0:0:0:0:
282,146,420044,1,8,0:0:0:0:
160,72,420214,6,0,L|151:242,1,160,0|8,0:0|0:0,0:0:0:0:
146,332,420726,1,0,0:0:0:0:
146,332,420811,1,0,0:0:0:0:
146,332,420896,1,0,0:0:0:0:
61,280,421066,1,8,0:0:0:0:
281,304,421237,2,0,P|330:307|375:286,1,80
438,138,421578,69,0,0:0:0:0:
313,212,421748,1,0,0:0:0:0:
434,236,421919,1,8,0:0:0:0:
338,119,422089,2,0,B|255:101|255:165|180:143,1,160,0|8,0:0|0:0,0:0:0:0:
37,105,422601,1,2,0:0:0:0:
51,133,422686,1,2,0:0:0:0:
57,164,422771,1,10,0:0:0:0:
53,195,422856,1,2,0:0:0:0:
45,226,422942,6,0,P|48:304|126:356,1,160,0|8,0:0|0:0,0:0:0:0:
284,260,423453,2,0,P|206:237|121:271,1,160,0|8,0:0|0:0,0:0:0:0:
357,322,423964,1,2,0:0:0:0:
376,296,424049,1,2,0:0:0:0:
382,264,424135,1,2,0:0:0:0:
379,232,424220,1,2,0:0:0:0:
370,201,424305,70,0,P|363:111|425:49,1,160,0|8,0:0|0:0,0:0:0:0:
452,146,424816,1,0,0:0:0:0:
261,61,424987,2,0,L|253:2,2,40,0|0|8,0:0|0:0|0:0,0:0:0:0:
124,190,425328,1,0,0:0:0:0:
284,260,425498,1,8,0:0:0:0:
209,160,425669,6,0,L|204:261,1,80
201,333,426010,1,8,0:0:0:0:
347,84,426180,2,0,L|336:256,1,160,0|8,0:0|0:0,0:0:0:0:
330,339,426691,1,0,0:0:0:0:
330,339,426777,1,0,0:0:0:0:
330,339,426862,1,0,0:0:0:0:
211,291,427032,70,0,P|172:280|117:288,1,80
56,336,427373,1,8,0:0:0:0:
211,292,427544,2,0,P|235:204|211:128,1,160,0|8,0:0|0:0,0:0:0:0:
41,56,428055,1,2,0:0:0:0:
68,73,428140,1,2,0:0:0:0:
99,78,428226,1,10,0:0:0:0:
130,76,428311,1,2,0:0:0:0:
159,64,428396,5,2,0:0:0:0:
324,48,428566,1,0,0:0:0:0:
240,16,428737,1,8,0:0:0:0:
257,143,428908,2,0,P|313:201|411:186,1,160,0|8,0:0|0:0,0:0:0:0:
348,112,429419,1,0,0:0:0:0:
375,302,429589,1,0,0:0:0:0:
263,280,429760,70,0,L|179:265,1,80
39,237,430101,1,8,0:0:0:0:
92,346,430271,1,0,0:0:0:0:
130,181,430442,5,0,0:0:0:0:
142,141,430527,1,0,0:0:0:0:
170,117,430612,2,0,L|275:112,1,80,8|0,0:0|0:0,0:0:0:0:
290,95,430868,1,0,0:0:0:0:
308,55,430953,1,8,0:0:0:0:
462,90,431124,70,0,L|466:186,2,80,0|0|8,0:0|0:0|0:0,0:0:0:0:
370,33,431635,2,0,L|376:207,1,160,0|8,0:0|0:0,0:0:0:0:
213,309,432146,1,0,0:0:0:0:
213,309,432231,1,0,0:0:0:0:
213,309,432316,1,0,0:0:0:0:
303,348,432487,6,0,P|308:311|288:233,1,80
272,155,432828,1,8,0:0:0:0:
105,97,432998,2,0,P|85:174|116:266,1,160,0|8,0:0|0:0,0:0:0:0:
261,268,433510,69,2,0:0:0:0:
291,259,433595,1,2,0:0:0:0:
322,260,433680,1,10,0:0:0:0:
352,269,433765,53,2,0:0:0:0:
376,289,433851,5,2,0:0:0:0:
256,192,433936,12,4,436578,0:0:0:0:
