osu file format v12

[General]
AudioFilename: Utada Hikaru - Passion (DJ Toy Remix).mp3
AudioLeadIn: 1000
PreviewTime: 76621
Countdown: 0
SampleSet: Soft
StackLeniency: 0.5
Mode: 0
LetterboxInBreaks: 0
EpilepsyWarning: 1
WidescreenStoryboard: 0

[Editor]
Bookmarks: 1225,17092,21059,52795,60754,76596,92489,108332,116266
DistanceSpacing: 1.1
BeatDivisor: 4
GridSize: 4

[Metadata]
Title:Passion (DJ Toy Remix)
TitleUnicode:Passion (DJ Toy Remix)
Artist:Utada Hikaru
ArtistUnicode:Utada Hikaru
Creator:Lanttu
Version:Insane
Source:Kingdom Hearts 2
Tags:techno mix
BeatmapID:229875
BeatmapSetID:77683

[Difficulty]
HPDrainRate:7
CircleSize:4
OverallDifficulty:7
ApproachRate:8
SliderMultiplier:1.8
SliderTickRate:2

[Events]
//Background and Video events
0,0,"bg.png",0,0
//Break Periods
2,53019,58019
//Storyboard Layer 0 (Background)
//Storyboard Layer 1 (Fail)
//Storyboard Layer 2 (Pass)
//Storyboard Layer 3 (Foreground)
//Storyboard Sound Samples
//Background Colour Transformations
3,100,0,0,0

[TimingPoints]
1249,495.867768595041,4,2,0,100,1,0
44885,-95.2380952380952,4,2,0,100,0,0
45381,-100,4,2,0,100,0,0
60629,-133.333333333333,4,2,1,80,0,0
76620,-100,4,2,0,100,0,1
91001,-90.9090909090909,4,2,0,100,0,1
91372,-100,4,2,0,100,0,1
108356,-100,4,2,0,100,0,0

[Colours]
Combo1 : 255,205,130
Combo2 : 36,193,253
Combo3 : 253,91,148
Combo4 : 176,255,98
SliderBorder : 255,255,255

[HitObjects]
45,49,19100,6,0,B|13:17,3,30,0|0|0|2,0:0|0:0|0:0|0:0,0:0:0:0:
164,168,19844,2,0,B|192:140,3,30,0|0|0|2,0:0|0:0|0:0|0:0,0:0:0:0:
256,76,20339,1,4,3:0:0:0:
256,76,20463,1,0,3:0:0:0:
326,146,20711,1,0,3:0:0:0:
396,216,20959,1,0,3:0:0:0:
396,216,21083,6,0,B|440:156|404:89,1,135,4|0,0:0|0:0,0:0:0:0:
384,44,21579,2,0,B|480:60,1,90,2|0,1:3|0:0,0:0:0:0:
512,64,21951,1,2,0:0:0:0:
326,146,22323,1,0,0:0:0:0:
396,216,22571,1,0,1:0:0:0:
396,216,22695,2,0,B|444:228|488:204,1,90
512,164,23067,6,0,B|478:202|518:247|558:291|525:331,1,180,4|0,3:0|1:0,0:0:0:0:
432,304,23810,1,0,0:0:0:0:
432,304,23934,1,4,3:0:0:0:
260,384,24306,1,4,3:0:0:0:
164,344,24554,1,2,1:2:0:0:
164,344,24678,1,0,0:0:0:0:
164,344,24802,1,2,3:0:0:0:
80,292,25050,6,0,B|35:276|5:231|10:174|35:143,1,180,4|0,3:0|1:0,0:0:0:0:
128,100,25794,1,0,0:0:0:0:
128,100,25918,2,0,B|64:76|64:76|32:16,1,135,2|0,0:0|0:0,0:0:0:0:
128,100,26538,2,4,B|142:55|184:31,1,90,0|2,1:0|3:0,3:0:0:0:
312,40,27034,6,4,B|297:84|255:108,1,90,4|0,3:0|3:0,3:0:0:0:
312,40,27529,1,0,1:0:0:0:
456,164,27777,1,0,0:0:0:0:
456,164,27901,1,4,3:0:0:0:
468,16,28273,1,4,3:0:0:0:
396,88,28521,1,2,1:2:0:0:
396,88,28645,1,0,0:0:0:0:
396,88,28769,1,2,3:0:0:0:
368,184,29017,6,0,B|392:256|472:256,1,135,4|0,0:0|0:0,0:0:0:0:
512,256,29513,2,0,B|464:344,1,90,0|0,1:0|0:0,0:0:0:0:
444,380,29885,1,0,1:0:0:0:
268,316,30257,1,0,0:0:0:0:
156,376,30505,1,2,1:2:0:0:
108,376,30629,1,0,0:0:0:0:
64,352,30753,1,2,3:0:0:0:
136,276,31001,6,0,B|149:225|95:203|41:181|55:126,1,180,4|0,3:0|1:0,0:0:0:0:
64,32,31744,1,0,0:0:0:0:
64,32,31868,2,4,B|140:48|156:132,1,135,4|4,3:0|3:0,3:0:0:0:
56,128,32488,1,2,1:2:0:0:
56,128,32612,1,0,0:0:0:0:
56,128,32736,1,2,3:0:0:0:
220,72,32984,6,0,B|248:140|224:212,1,135,4|0,0:0|0:0,0:0:0:0:
208,252,33480,2,0,B|312:232,1,90,0|0,1:0|0:0,0:0:0:0:
344,228,33852,2,0,B|312:296|352:360,1,135,2|4,0:0|3:0,0:0:0:0:
432,288,34472,2,0,B|477:308|518:303,1,90,0|2,1:0|3:0,0:0:0:0:
480,200,34968,6,0,B|492:152|480:112,1,90,4|4,3:0|3:0,0:0:0:0:
448,16,35463,1,0,1:0:0:0:
361,61,35711,1,0,0:0:0:0:
361,61,35835,2,0,B|408:120|480:112,1,135,4|4,3:0|3:0,0:0:0:0:
448,16,36455,1,2,1:2:0:0:
400,32,36579,1,0,0:0:0:0:
360,64,36703,1,2,3:0:0:0:
332,104,36827,1,0,0:0:0:0:
316,144,36951,6,0,B|276:88|200:88,1,135,4|0,0:0|0:0,0:0:0:0:
152,92,37447,2,0,B|152:136|128:180,1,90,0|0,1:0|0:0,0:0:0:0:
100,212,37819,1,4,3:0:0:0:
4,100,38191,1,4,3:0:0:0:
64,12,38439,2,0,L|80:108,1,90,0|2,1:0|3:0,0:0:0:0:
100,212,38934,6,0,B|76:304|-20:344,1,180,4|0,3:0|1:0,0:0:0:0:
140,324,39678,1,0,0:0:0:0:
140,324,39802,2,0,B|176:256|240:232,1,135,4|4,3:0|3:0,0:0:0:0:
332,216,40422,1,2,1:2:0:0:
332,216,40546,1,0,0:0:0:0:
332,216,40670,1,2,3:0:0:0:
304,312,40918,6,0,B|376:320|376:320|421:363|477:349,1,180,4|0,3:0|1:0,0:0:0:0:
452,248,41662,1,0,0:0:0:0:
452,248,41786,1,4,3:0:0:0:
460,48,42158,1,0,3:0:0:0:
456,148,42406,1,2,1:2:0:0:
456,148,42529,1,0,0:0:0:0:
456,148,42653,1,2,3:0:0:0:
376,92,42901,6,0,B|324:83|280:123,1,90,4|4,3:0|3:0,0:0:0:0:
224,260,43397,2,0,B|266:229|268:170,1,90,0|4,1:0|3:0,0:0:0:0:
228,156,43769,2,0,B|104:80,1,135,4|4,3:0|3:0,0:0:0:0:
24,40,44389,1,2,1:2:0:0:
24,40,44513,1,0,0:0:0:0:
24,40,44637,1,2,3:0:0:0:
124,16,44885,6,0,B|128:96|60:136,1,141.749995674133,4|0,0:0|0:0,0:0:0:0:
16,148,45381,1,0,1:0:0:0:
60,236,45629,1,0,0:0:0:0:
60,236,45753,2,0,B|92:280|32:320|64:364,1,135,4|4,3:0|3:0,0:0:0:0:
156,332,46372,2,0,P|168:284|160:240,1,90,0|2,1:0|3:0,0:0:0:0:
252,288,46868,6,0,B|308:336|308:336|360:312|412:328,1,180,4|0,3:0|1:0,0:0:0:0:
504,228,47612,1,0,0:0:0:0:
504,228,47736,2,0,P|448:248|372:240,1,135,4|4,3:0|3:0,0:0:0:0:
284,196,48356,1,2,1:2:0:0:
332,212,48480,1,0,0:0:0:0:
372,240,48604,1,2,3:0:0:0:
396,148,48852,6,0,B|400:84|352:24,1,135,4|0,3:0|0:0,0:0:0:0:
312,52,49348,2,0,B|236:104,1,90,0|0,1:0|0:0,0:0:0:0:
196,132,49720,1,4,3:0:0:0:
72,52,50091,1,4,3:0:0:0:
96,148,50339,2,0,B|92:200|116:240,1,90,0|0,1:0|0:0,0:0:0:0:
156,320,50835,22,0,B|60:340,1,90,4|4,3:0|3:0,0:0:0:0:
176,316,51331,2,0,B|237:365|304:352,1,135,0|4,1:0|3:0,0:0:0:0:
452,340,52075,1,4,3:0:0:0:
420,248,52323,1,2,1:2:0:0:
420,248,52447,1,0,0:0:0:0:
420,248,52571,1,2,3:0:0:0:
320,256,52819,1,2,0:0:0:0:
460,115,58769,38,0,B|492:83,3,30,0|0|0|2,0:0|0:0|0:0|0:0,0:0:0:0:
340,234,59513,2,0,B|312:206,3,30,0|0|0|2,0:0|0:0|0:0|0:0,0:0:0:0:
248,142,60008,1,4,3:0:0:0:
248,142,60132,1,0,3:0:0:0:
318,71,60380,1,0,3:0:0:0:
220,48,60628,1,0,3:0:0:0:
220,48,60752,6,0,B|172:92|100:108,1,135.000005149842,4|0,0:0|0:0,0:0:0:0:
24,108,61496,1,4,3:0:0:0:
60,44,61744,1,0,1:0:0:0:
56,260,62488,1,4,3:0:0:0:
96,324,62736,1,6,3:0:0:0:
316,348,63480,5,4,3:0:0:0:
316,348,63604,2,0,P|352:316|404:304,1,101.250003862381,0|0,1:0|1:0,0:0:0:0:
440,308,64100,1,0,1:0:0:0:
468,160,64472,1,4,3:0:0:0:
436,228,64720,6,0,P|360:204|324:152,1,135.000005149842,4|0,3:0|0:0,0:0:0:0:
316,88,65463,1,4,3:0:0:0:
256,136,65711,1,0,1:0:0:0:
52,52,66455,5,0,0:0:0:0:
52,52,66703,2,4,P|68:100|68:160,1,101.250003862381,6|4,3:0|3:0,3:0:0:0:
164,212,67447,1,0,0:0:0:0:
164,212,67695,2,4,P|165:262|181:310,2,101.250003862381,0|4|4,1:0|3:0|3:0,0:0:0:0:
256,244,68687,6,0,P|200:299|90:354,1,202.500007724762,2|0,0:0|0:0,0:0:0:0:
16,356,69678,1,0,1:0:0:0:
128,164,70422,1,4,3:0:0:0:
192,200,70670,1,6,3:0:0:0:
416,196,71538,5,0,0:0:0:0:
416,196,71662,2,0,P|384:232|348:256,1,67.5000025749208,0|0,1:0|0:0,0:0:0:0:
336,260,72034,2,0,L|360:364,1,101.250003862381,0|4,1:0|3:0,0:0:0:0:
446,327,72653,6,0,L|416:196,1,135.000005149842
472,140,73397,1,0,0:0:0:0:
472,140,73645,1,0,1:0:0:0:
296,32,74389,5,0,0:0:0:0:
248,88,74637,2,0,P|208:112|148:120,1,101.250003862381,4|4,3:0|3:0,0:0:0:0:
44,112,75381,1,0,0:0:0:0:
44,112,75629,1,0,1:0:0:0:
104,60,75877,5,0,0:0:0:0:
104,60,76001,1,4,3:0:0:0:
92,176,76372,1,4,3:0:0:0:
84,276,76620,6,0,P|144:308|172:368,1,135,4|0,0:0|0:0,0:0:0:0:
220,356,77116,2,0,L|332:332,1,90,0|0,1:0|0:0,0:0:0:0:
356,328,77488,2,0,P|416:360|484:348,1,135,2|4,0:0|3:0,0:0:0:0:
452,168,78108,1,0,1:0:0:0:
432,264,78356,1,2,0:0:0:0:
432,264,78480,1,0,0:0:0:0:
432,264,78604,1,4,3:0:0:0:
356,200,78852,5,0,0:0:0:0:
472,72,79100,1,0,1:0:0:0:
380,108,79348,1,0,0:0:0:0:
380,108,79472,2,0,P|316:112|252:84,1,135,4|4,3:0|3:0,0:0:0:0:
188,8,80091,1,0,1:0:0:0:
180,56,80215,1,0,0:0:0:0:
172,104,80339,1,2,3:0:0:0:
80,72,80587,6,0,P|33:39|0:127,1,180,4|0,3:0|1:0,0:0:0:0:
84,188,81331,1,0,0:0:0:0:
84,188,81455,2,0,L|16:304,1,135,4|4,3:0|3:0,0:0:0:0:
116,296,82075,2,0,P|112:340|92:380,1,90,0|2,1:0|3:0,0:0:0:0:
208,276,82571,6,0,P|228:316|236:360,1,90,4|4,3:0|3:0,0:0:0:0:
208,276,83067,1,0,1:0:0:0:
404,320,83315,1,0,0:0:0:0:
404,320,83439,1,4,3:0:0:0:
324,184,83811,1,4,3:0:0:0:
304,296,84059,1,2,1:2:0:0:
304,295,84183,1,0,0:0:0:0:
304,295,84307,1,2,3:0:0:0:
428,204,84554,6,0,L|460:68,1,135,4|0,0:0|0:0,0:0:0:0:
468,24,85050,2,0,P|428:44|384:48,1,90,0|0,1:0|0:0,0:0:0:0:
332,44,85422,1,4,3:0:0:0:
236,156,85794,1,0,0:0:0:0:
144,56,86042,2,0,B|172:60|172:60|204:52|204:52|232:56,1,90,0|2,1:0|3:0,0:0:0:0:
144,56,86538,6,0,P|60:80|0:20,1,180,4|0,3:0|1:0,0:0:0:0:
16,184,87281,1,0,0:0:0:0:
16,184,87405,2,4,B|92:200|104:276,1,135,4|4,3:0|3:0,3:0:0:0:
104,372,88025,1,0,1:0:0:0:
96,324,88149,1,0,0:0:0:0:
104,276,88273,1,2,3:0:0:0:
188,328,88521,5,4,0:0:0:0:
276,284,88769,1,0,0:0:0:0:
364,332,89017,2,0,L|455:342,1,90,0|0,1:0|0:0,0:0:0:0:
504,344,89389,2,0,P|504:280|476:212,1,135,4|4,3:0|3:0,0:0:0:0:
412,144,90009,1,0,1:0:0:0:
412,144,90133,1,0,0:0:0:0:
412,144,90257,1,2,3:0:0:0:
344,72,90505,6,0,P|384:52|432:48,1,90,4|4,3:0|3:0,0:0:0:0:
412,144,91001,2,0,L|344:72,1,99.0000030212403,0|0,1:0|0:0,0:0:0:0:
304,104,91372,2,0,B|264:136|264:136|232:116|176:112,1,135,4|4,3:0|3:0,0:0:0:0:
20,52,91992,1,0,1:0:0:0:
60,64,92116,1,0,0:0:0:0:
100,68,92240,1,2,3:0:0:0:
140,60,92364,1,0,0:0:0:0:
176,40,92488,6,0,L|136:168,1,135,4|0,0:0|0:0,0:0:0:0:
120,216,92984,1,0,1:0:0:0:
149,309,93232,1,0,0:0:0:0:
149,309,93356,2,0,P|85:311|29:258,1,135,4|4,3:0|3:0,0:0:0:0:
212,244,93976,2,0,P|232:280|240:340,1,90,0|2,1:0|3:0,0:0:0:0:
316,260,94472,6,0,B|364:276|390:222|416:168|465:184,1,180,4|0,3:0|1:0,0:0:0:0:
464,284,95215,1,0,0:0:0:0:
464,284,95339,2,0,P|416:332|352:356,1,135,4|4,3:0|3:0,0:0:0:0:
316,260,95959,1,0,1:0:0:0:
316,260,96083,1,0,0:0:0:0:
316,260,96207,1,2,3:0:0:0:
308,160,96455,6,0,P|344:96|440:56,1,180,4|0,3:0|1:0,0:0:0:0:
316,168,97199,1,0,0:0:0:0:
316,168,97323,2,0,P|252:160|196:120,1,135,4|4,3:0|3:0,0:0:0:0:
140,24,97943,1,0,1:0:0:0:
140,24,98067,1,0,0:0:0:0:
140,24,98191,1,2,3:0:0:0:
64,88,98439,6,0,L|72:184,1,90,4|4,3:0|3:0,0:0:0:0:
140,252,98934,2,0,B|104:296|104:296|61:295|33:324,2,135,0|4|4,1:0|3:0|3:0,0:0:0:0:
204,328,99926,1,0,1:0:0:0:
240,344,100050,1,0,0:0:0:0:
280,352,100174,1,2,3:0:0:0:
320,352,100298,1,0,0:0:0:0:
360,348,100422,6,0,L|428:216,1,135,4|0,0:0|0:0,0:0:0:0:
472,232,100918,2,0,P|500:196|504:152,1,90,0|0,1:0|0:0,0:0:0:0:
500,108,101290,1,4,3:0:0:0:
368,36,101662,1,4,3:0:0:0:
308,116,101910,1,0,1:0:0:0:
308,116,102034,1,0,0:0:0:0:
308,116,102158,1,2,3:0:0:0:
140,72,102406,6,0,P|60:52|32:132,1,180,4|0,3:0|1:0,0:0:0:0:
112,256,103273,2,0,P|171:270|192:211,1,135,4|4,3:0|3:0,0:0:0:0:
112,156,103893,1,0,1:0:0:0:
112,156,104017,1,0,0:0:0:0:
112,156,104141,1,2,3:0:0:0:
32,216,104389,6,0,P|32:296|64:344,1,135,4|0,0:0|0:0,0:0:0:0:
108,348,104885,2,0,L|216:364,1,90,0|0,1:0|0:0,0:0:0:0:
248,368,105257,1,4,3:0:0:0:
420,280,105629,1,4,3:0:0:0:
320,308,105877,2,0,P|264:280|240:252,1,90,0|2,1:0|3:0,0:0:0:0:
340,228,106372,6,0,P|328:184|344:136,1,90,4|4,3:0|3:0,0:0:0:0:
448,64,106868,2,0,P|452:128|404:192,2,135,0|4|4,1:0|3:0|3:0,0:0:0:0:
340,24,107860,1,0,1:0:0:0:
304,56,107984,1,0,0:0:0:0:
256,68,108108,1,0,0:0:0:0:
208,56,108232,1,0,0:0:0:0:
172,24,108356,1,4,0:0:0:0:
