osu file format v9

[General]
AudioFilename: [Utada Hikaru - On And On].mp3
AudioLeadIn: 2000
PreviewTime: 49015
Countdown: 0
SampleSet: Soft
StackLeniency: 0.7
Mode: 0
LetterboxInBreaks: 0

[Editor]
DistanceSpacing: 1.1
BeatDivisor: 4
GridSize: 4

[Metadata]
Title:On And On
Artist:Utada Hikaru
Creator:Strawberry
Version:Hard
Source:
Tags:This is the one Bakemonogatari Senjougahara Hitagi

[Difficulty]
HPDrainRate:6
CircleSize:4
OverallDifficulty:6
ApproachRate:7
SliderMultiplier:1.7
SliderTickRate:1

[Events]
//Background and Video events
Video,0,"cheeseharry-Intoxicated.flv"
0,0,"1.jpg"
//Break Periods
//Storyboard Layer 0 (Background)
//Storyboard Layer 1 (Fail)
//Storyboard Layer 2 (Pass)
//Storyboard Layer 3 (Foreground)
//Storyboard Sound Samples
//Background Colour Transformations
3,100,163,162,255

[TimingPoints]
415,495.867768595041,4,2,1,60,1,0
18204,-83.3333333333333,4,2,1,60,0,0
47956,-200,4,2,1,60,0,0
48886,-200,4,2,1,5,0,0
48983,495.867768595041,4,2,1,80,1,0
48983,-83.3333333333333,4,2,1,60,0,0
49974,495.867768595041,4,2,1,80,1,1
49974,-83.3333333333333,4,2,1,80,0,1
65841,-83.3333333333333,4,2,1,60,0,0
71792,-200,4,2,1,60,0,0
73775,-83.3333333333333,4,2,1,60,0,0
81709,-83.3333333333333,4,2,1,80,0,1
97577,-83.3333333333333,4,2,1,70,0,0
103527,-133.333333333333,4,2,1,50,0,0
105264,-100,4,2,1,40,0,0
106875,-100,4,2,1,20,0,0
107123,-100,4,2,1,40,0,0
108859,-100,4,2,1,20,0,0
109107,-100,4,2,1,40,0,0
110842,-100,4,2,1,20,0,0
111090,-100,4,2,1,20,0,0
111338,-100,4,2,1,40,0,0
111834,-100,4,2,1,15,0,0
112330,-100,4,2,1,13,0,0
112578,-100,4,2,1,11,0,0
112825,-100,4,2,1,9,0,0
113073,-100,4,2,1,7,0,0

[Colours]
Combo1 : 128,255,255
Combo2 : 192,192,192
Combo3 : 255,159,255
Combo4 : 128,255,128

[HitObjects]
106,97,415,2,0,B|106:144,3,42.5
143,167,910,2,0,B|143:209,3,42.5,0|0|0|0
185,228,1406,2,0,B|185:275,3,42.5
228,287,1902,2,0,B|228:334,3,42.5
264,359,2398,6,0,B|321:324|446:317,1,170,6|8
374,241,3142,2,0,B|299:212|193:198,1,170,2|0
116,184,3886,1,8
71,101,4134,1,0
71,101,4257,1,0
71,101,4381,6,0,B|148:79|250:82,1,170,2|8
329,58,5125,2,0,B|317:122|313:170,3,85,2|0|0|8
391,328,6365,6,0,B|321:308|213:313,1,170,2|8
128,309,7109,1,2
76,232,7357,1,0
44,144,7605,2,0,B|98:143|149:149,1,85,0|8
204,192,8100,1,0
252,192,8224,1,0
300,196,8348,6,0,B|376:204|492:204,1,170,2|8
416,128,9092,2,0,B|360:124|316:116,1,85,2|0
288,36,9588,2,0,B|352:40|396:48,1,85,0|8
144,60,10332,6,0,B|124:140|88:240,1,170,2|8
32,292,11076,2,0,B|128:308|232:344,1,170,2|0
288,356,11819,1,8
252,272,12067,1,0
252,272,12191,1,0
252,272,12315,2,0,B|260:204|304:188|304:96,1,170,2|8
216,76,13059,6,0,B|184:120|148:136,2,85,2|0|0
124,52,13803,2,0,B|40:52,1,85,8|0
28,144,14299,6,0,B|80:204|136:292,1,170,2|8
160,192,15043,2,0,B|232:216|332:232,1,170,2|0
416,252,15786,1,8
396,160,16034,1,0
352,140,16158,1,0
308,128,16282,6,0,B|256:116,3,42.5,2|0|0|0
220,112,16778,2,0,B|168:104,3,42.5,8|0|0|0
132,100,17274,1,2
148,144,17398,1,0
152,192,17522,1,0
148,240,17646,1,0
136,284,17770,2,0,B|84:284,3,42.5,8|0|0|0
36,292,18266,6,0,B|80:340|152:376,1,102.00000243187,6|0
224,324,18762,2,0,B|272:328|348:344,1,102.00000243187,8|2
436,360,19257,1,0
416,248,19505,2,0,B|392:192|384:148,2,102.00000243187,0|8|0
360,240,20125,1,0
304,232,20249,1,2
196,208,20497,6,0,B|136:192|88:188,2,102.00000243187,0|8|2
280,136,21241,1,0
368,64,21489,2,0,B|432:64|512:76,2,102.00000243187,0|8|0
256,56,22233,6,0,B|192:60|140:56,1,102.00000243187,2|0
40,52,22729,1,8
108,144,22976,1,2
136,252,23224,1,0
220,180,23472,2,0,B|284:172|352:176,2,102.00000243187,0|8|0
164,184,24092,1,0
108,188,24216,1,2
196,256,24464,6,0,B|252:260|336:256,2,102.00000243187,0|8|2
264,344,25208,1,0
376,344,25456,2,0,B|440:344|488:352,2,102.00000243187,8|8|0
416,240,26200,6,0,B|400:188|384:132,3,102.00000243187,6|0|8|2
296,76,27191,2,0,B|272:132|256:184,3,102.00000243187,0|0|8|0
204,184,28059,1,0
148,196,28183,6,0,B|80:220|0:264,1,153.000003647804,2|0
64,272,28679,2,0,B|112:284|164:308,1,102.00000243187,8|2
256,248,29175,1,0
324,336,29423,1,0
396,252,29671,2,0,B|456:252|516:256,1,102.00000243187,8|0
448,152,30167,5,2
368,76,30414,1,0
260,44,30662,1,8
148,56,30910,1,2
48,108,31158,2,0,B|100:144|124:192,1,102.00000243187
224,148,31654,2,0,B|252:192|260:256,1,102.00000243187,8|0
272,300,32026,1,0
276,356,32150,1,2
276,356,32646,6,0,B|336:348|396:356,2,102.00000243187,8|2|0
156,336,33390,1,0
100,240,33638,1,8
100,240,33762,1,0
100,240,33886,1,0
16,164,34134,6,0,B|68:152|140:136,1,102.00000243187,6|0
148,32,34629,2,0,B|216:48|272:68,1,102.00000243187,8|2
236,172,35125,2,0,B|312:164|360:164,2,102.00000243187,0|0|8
128,204,35869,1,0
180,228,35993,1,0
224,260,36117,6,0,B|280:304|340:376,1,153.000003647804,2|0
336,312,36613,2,0,B|328:252|320:200,1,102.00000243187,8|2
292,104,37109,1,0
400,80,37357,1,0
400,80,37605,1,8
428,188,37853,1,0
320,212,38100,6,0,B|264:216|208:232,2,102.00000243187,2|0|8
237,135,38844,1,2
132,92,39092,2,0,B|80:96|20:112,2,102.00000243187,0|0|8
244,72,39836,1,0
300,68,39960,1,0
356,64,40084,6,0,B|420:56|516:60,1,153.000003647804,2|0
464,96,40580,2,0,B|416:124|372:156,1,102.00000243187,8|2
268,172,41076,2,0,B|296:224|348:264,3,102.00000243187,0|0|8|0
228,296,42067,5,2
228,296,42315,1,0
120,320,42563,1,8
120,320,42811,1,2
20,272,43059,1,0
20,272,43307,1,0
128,240,43555,1,8
128,240,43803,5,0
132,184,43927,1,0
140,128,44051,2,0,B|140:80|144:20,2,102.00000243187,2|0|8
236,68,44795,1,2
340,116,45043,2,0,B|384:148|464:172,3,102.00000243187,0|0|8|0
328,208,46034,5,2
328,208,46282,1,0
228,260,46530,1,8
228,260,46778,1,2
232,148,47026,1,0
232,148,47274,1,0
128,192,47522,2,0,B|64:184|24:180,1,102.00000243187,8|0
52,264,48018,6,0,B|120:288|200:336,1,148.75,2|0
244,324,48983,6,0,B|288:360,3,51.0000012159348,2|0|0|0
336,340,49478,2,0,B|392:349,3,51.0000012159348,2|0|0|0
386,348,49974,5,4
472,276,50221,2,0,B|460:224|468:176,1,102.00000243187,0|8
357,152,50717,2,0,B|309:132|249:120,2,102.00000243187
306,51,51461,1,8
192,52,51709,1,0
192,52,51833,1,0
192,52,51957,6,0,B|112:64|32:72,1,153.000003647804,2|0
88,100,52453,2,0,B|148:128|192:160,1,102.00000243187,8|2
80,204,52949,1,0
96,316,53197,1,0
192,256,53445,1,8
284,320,53693,1,0
296,208,53940,6,0,B|360:200|428:200,2,102.00000243187,2|0|8
212,132,54684,2,0,B|156:120|100:112,2,102.00000243187,2|0|0
304,64,55428,1,8
412,96,55676,1,0
412,96,55800,1,0
412,96,55924,6,0,B|388:160|380:252,1,153.000003647804,2|0
352,196,56420,2,0,B|308:152|260:140,1,102.00000243187,8|2
160,104,56916,1,0
48,112,57164,1,0
116,200,57412,1,8
188,284,57659,1,0
244,184,57907,6,0,B|328:136|452:112,1,204.000004863739,2|8
368,216,58651,2,0,B|272:276|216:368,1,204.000004863739,2|0
184,252,59395,1,8
104,172,59643,1,0
104,172,59767,1,0
104,172,59891,6,0,B|148:128|204:88,1,102.00000243187,2|0
272,44,60387,1,8
384,44,60635,1,2
384,44,60883,2,0,B|356:96|340:156,1,102.00000243187
456,148,61378,2,0,B|448:204|424:268,1,102.00000243187,8|0
320,224,61874,6,0,B|264:236|216:248,2,102.00000243187,2|0|8
232,156,62618,1,0
232,156,62866,2,0,B|152:164|108:172,2,102.00000243187,2|0|0
308,72,63610,1,0
364,72,63734,1,0
420,80,63858,1,2
496,164,64106,5,0
384,172,64354,2,2,B|332:192|288:224,1,102.00000243187,8|0
188,188,64850,2,0,B|148:232,3,51.0000012159348,2|0|0|0
96,224,65345,2,0,B|92:276,3,51.0000012159348,8|0|0|0
40,296,65841,6,0,B|100:320|152:360,1,102.00000243187,6|0
240,364,66337,1,8
240,364,66585,2,0,B|216:296|184:264,2,102.00000243187,2|0|0
308,276,67329,2,0,B|376:280|432:280,1,102.00000243187,8|0
409,279,67701,1,0
409,279,67825,6,0,B|436:232|432:176,1,102.00000243187
336,124,68321,1,8
224,108,68569,1,2
224,108,68816,2,0,B|152:80|92:68,1,102.00000243187
112,188,69312,2,0,B|48:200|-8:216,1,102.00000243187,8|0
96,320,69808,6,0,B|152:312|240:340,1,102.00000243187,2|2
224,220,70304,2,0,B|276:241|338:309,1,102.00000243187,2|2
307,277,70800,1,2
264,380,71048,1,0
264,380,71296,1,8
376,352,71544,1,0
384,304,71668,1,0
392,256,71792,6,0,B|416:168|420:72,1,170,2|2
316,32,73031,1,0
252,132,73279,1,8
152,68,73527,1,0
60,136,73775,6,0,B|104:176|144:228,1,102.00000243187,2|0
64,300,74271,2,0,B|124:324|176:340,3,102.00000243187,8|2|2|0
272,340,75263,1,8
380,364,75511,1,0
380,364,75635,1,0
380,364,75759,1,2
344,256,76007,6,0,B|304:204|276:160,2,102.00000243187,0|8|2
452,284,76750,1,2
436,172,76998,2,0,B|424:120|416:64,2,102.00000243187,0|8|0
332,128,77742,5,2
332,128,77990,1,0
224,104,78238,1,8
224,104,78486,1,2
112,104,78734,2,0,B|172:188|232:312,1,204.000004863739,2|8
104,272,79478,1,0
56,244,79602,1,0
20,204,79726,1,2
224,56,80717,5,2
240,68,80841,1,0
256,80,80965,1,0
272,92,81089,1,0
288,104,81213,1,2
304,116,81337,1,0
320,128,81461,1,0
336,140,81585,1,0
352,152,81709,5,6
440,224,81957,1,0
440,224,82205,2,0,B|368:232|312:256,1,102.00000243187,8|2
232,280,82701,1,0
124,308,82949,1,0
20,344,83197,1,8
48,236,83445,1,0
48,236,83569,1,0
48,236,83693,6,0,B|132:200|248:168,1,204.000004863739,2|8
348,140,84436,1,2
456,108,84684,1,0
364,44,84932,1,0
252,24,85180,1,8
140,20,85428,1,0
204,112,85676,6,0,B|244:152|272:204,2,102.00000243187,2|0|8
92,92,86420,2,0,B|116:140|124:204,2,102.00000243187,2|0|0
16,176,87164,1,8
76,272,87412,1,0
76,272,87535,1,0
76,272,87659,6,0,B|164:304|268:368,1,204.000004863739,2|8
408,280,88403,1,0
436,112,88651,2,0,B|348:80|244:16,1,204.000004863739,2|8
104,152,89643,5,6
104,152,89891,1,0
184,232,90139,1,8
184,232,90387,1,2
260,152,90635,2,0,B|320:152|396:156,2,102.00000243187,0|0|8
336,236,91378,1,0
336,236,91502,1,0
336,236,91626,1,2
416,316,91874,6,0,B|344:316|284:316,1,102.00000243187,0|8
200,308,92370,1,2
88,308,92618,2,0,B|28:308|-28:316,2,102.00000243187,0|0|8
24,212,93362,1,0
36,100,93610,6,0,B|88:136|124:172,1,102.00000243187,2|0
188,76,94106,2,0,B|220:120|248:168,1,102.00000243187,8|2
344,108,94602,2,0,B|360:160|372:216,2,102.00000243187,0|0|8
452,136,95345,1,0
452,136,95469,1,0
452,136,95593,6,0,B|364:160|260:224,1,204.000004863739,2|8
168,276,96337,1,0
100,188,96585,2,0,B|60:148|0:124,1,102.00000243187,2|0
124,104,97081,2,0,B|172:144|208:196,1,102.00000243187,8|0
300,136,97577,5,2
300,136,97825,1,0
400,188,98073,1,8
400,188,98321,1,2
296,236,98569,2,0,B|240:256|168:296,2,102.00000243187,0|0|8
196,184,99312,1,0
140,188,99436,1,0
84,196,99560,6,0,B|32:204|-16:216,2,102.00000243187,2|0|8
152,108,100304,1,2
244,44,100552,2,0,B|296:36|344:24,2,102.00000243187,0|0|8
152,108,101296,1,0
252,160,101544,5,2
252,160,101792,1,0
336,236,102040,1,8
336,236,102288,1,2
228,264,102535,6,0,B|144:292|44:368,1,204.000004863739,0|0
163,370,103279,1,0
163,370,103527,6,0,B|275:346|427:358,2,254.999992400408,0|0|2
91,309,105759,5,0
16,252,106007,1,8
100,208,106254,1,2
168,144,106502,2,0,B|208:104|232:64,3,85,0|0|8|0
272,156,107494,6,0,B|308:140|380:124,3,85,2|0|8|2
444,116,108486,1,0
444,116,108734,1,0
416,204,108982,1,8
416,204,109230,1,0
408,296,109478,6,0,B|364:296|304:316,1,85,2|0
232,332,109974,1,8
232,332,110221,2,0,B|228:284|220:236,1,85,2|0
212,156,110717,1,0
212,156,110965,2,0,B|152:156|88:168,1,85,8|0
32,164,111461,5,2
84,88,111709,1,0
127,162,111957,1,8
84,236,112205,1,2
32,164,112453,1,2
84,236,112701,1,2
176,236,112949,1,2
127,162,113197,1,2
