osu file format v9

[General]
AudioFilename: [Utada Hikaru - On And On].mp3
AudioLeadIn: 2000
PreviewTime: 49015
Countdown: 0
SampleSet: Soft
StackLeniency: 0.7
Mode: 0
LetterboxInBreaks: 0

[Editor]
DistanceSpacing: 1
BeatDivisor: 2
GridSize: 4

[Metadata]
Title:On And On
Artist:Utada Hikaru
Creator:Strawberry
Version:Easy
Source:
Tags:This is the one Bakemonogatari Senjougahara Hitagi

[Difficulty]
HPDrainRate:2
CircleSize:3
OverallDifficulty:2
ApproachRate:2
SliderMultiplier:0.8
SliderTickRate:1

[Events]
//Background and Video events
Video,0,"cheeseharry-Intoxicated.flv"
0,0,"1.jpg"
//Break Periods
//Storyboard Layer 0 (Background)
//Storyboard Layer 1 (Fail)
//Storyboard Layer 2 (Pass)
//Storyboard Layer 3 (Foreground)
//Storyboard Sound Samples
//Background Colour Transformations
3,100,163,162,255

[TimingPoints]
415,495.867768595041,4,2,1,5,1,0
580,-100,4,2,1,10,0,0
745,-100,4,2,1,15,0,0
910,-100,4,2,1,20,0,0
1076,-100,4,2,1,25,0,0
1241,-100,4,2,1,30,0,0
1406,-100,4,2,1,35,0,0
1572,-100,4,2,1,40,0,0
1737,-100,4,2,1,45,0,0
1902,-100,4,2,1,50,0,0
2067,-100,4,2,1,55,0,0
2233,-100,4,2,1,60,0,0
48983,495.867768595041,4,2,1,80,1,0
49974,495.867768595041,4,2,1,80,1,1
49974,-100,4,2,1,80,0,1
50469,-100,4,2,1,50,0,1
51213,-100,4,2,1,80,0,1
54436,-100,4,2,1,50,0,1
55180,-100,4,2,1,80,0,1
58403,-100,4,2,1,50,0,1
59147,-100,4,2,1,80,0,1
63362,-100,4,2,1,50,0,1
63610,-100,4,2,1,80,0,1
65841,-100,4,2,1,60,0,0
81709,-100,4,2,1,80,0,1
82205,-100,4,2,1,50,0,1
82453,-100,4,2,1,80,0,1
86172,-100,4,2,1,50,0,1
86420,-100,4,2,1,80,0,1
90139,-100,4,2,1,50,0,1
90387,-100,4,2,1,80,0,1
94106,-100,4,2,1,50,0,1
94354,-100,4,2,1,80,0,1
97577,-100,4,2,1,70,0,0
98074,-100,4,2,1,50,0,0
98817,-100,4,2,1,70,0,0
102041,-100,4,2,1,50,0,0
104520,-100,4,2,1,40,0,0
106876,-100,4,2,1,20,0,0
107124,-100,4,2,1,40,0,0
108859,-100,4,2,1,20,0,0
109107,-100,4,2,1,40,0,0
110842,-100,4,2,1,20,0,0
111338,-100,4,2,1,40,0,0
111833,-100,4,2,1,15,0,0
112329,-100,4,2,1,13,0,0
112825,-100,4,2,1,9,0,0

[Colours]
Combo1 : 128,255,255
Combo2 : 192,192,192
Combo3 : 255,159,255
Combo4 : 128,255,128

[HitObjects]
256,192,415,12,4,2398
256,72,3390,5,0
176,64,3886,1,8
96,72,4381,2,0,B|96:168|216:208,1,160,2|0
304,304,6365,6,0,B|344:320|400:304,1,80,2|8
456,280,7357,1,0
456,200,7853,1,8
380,166,8348,2,0,B|300:134|204:174,1,160,2|0
120,288,10332,6,0,B|168:304|216:304,1,80,2|8
280,288,11324,1,0
344,240,11819,1,8
392,176,12315,2,0,B|440:112|440:16,1,160,2|0
296,96,14299,6,0,B|176:56|40:96,1,240,2|8
56,168,16282,1,2
128,208,16778,1,8
208,208,17274,1,0
280,168,17770,1,8
333,108,18266,6,0,B|380:149|366:220|310:248,1,160,6|0
240,256,19753,1,8
160,256,20249,2,0,B|72:256,1,80,2|8
56,176,21241,2,0,B|144:176,1,80,0|8
182,111,22233,6,0,B|235:146|224:217|181:249,1,160,2|0
104,280,23720,1,8
168,336,24216,2,0,B|272:336,1,80,2|8
248,256,25208,1,0
248,256,25704,1,8
320,296,26200,6,0,B|329:230|394:203|464:248,1,160,6|0
399,306,27687,1,8
320,296,28183,2,0,B|192:80,1,240,2|8
128,48,30167,5,2
59,88,30662,1,8
58,168,31158,1,0
123,213,31654,1,8
189,167,32150,2,0,B|309:143|437:167,1,240,2|8
424,248,34134,5,2
424,248,34629,1,8
368,304,35125,1,0
368,304,35621,1,8
312,248,36117,2,0,B|136:248,1,160,2|0
72,248,37605,1,8
112,176,38100,6,0,B|112:56,1,80,2|8
160,32,39092,1,0
208,96,39588,1,8
208,176,40084,2,0,B|208:336,1,160,2|0
288,312,41572,1,8
368,296,42067,5,2
448,280,42563,2,0,B|432:211|361:192|312:232,1,160,8|8
248,248,44051,1,2
173,276,44547,2,0,B|152:197|209:157|280:168,1,160,8|8
336,168,46034,6,0,B|432:168,1,80,2|8
424,88,47026,1,0
344,88,47522,2,0,B|256:88,1,80,8|2
72,88,48983,1,2
72,168,49478,1,2
144,128,49975,6,0,B|256:88|384:128,1,240,6|8
448,176,51958,1,2
376,212,52454,1,8
316,265,52950,1,0
294,342,53446,1,8
221,378,53941,6,0,B|89:325|85:194,1,240,2|8
43,129,55925,1,2
123,129,56421,1,8
191,169,56917,1,0
225,241,57413,1,8
240,320,57908,6,0,B|360:288|496:320,1,240,2|8
480,232,59892,2,0,B|480:144,1,80,2|8
400,168,60884,2,0,B|400:272,1,80,0|8
400,328,61875,5,2
400,328,62371,1,8
332,288,62867,2,0,B|252:280|164:288,1,160,0|2
92,276,64355,1,8
136,208,64851,2,0,B|136:128,1,80,0|8
56,116,65842,6,0,B|56:40|140:20|216:40|216:124,1,240,6|8
296,128,67826,1,2
360,176,68322,1,8
288,208,68817,1,0
348,260,69313,1,8
287,312,69809,6,0,B|349:385|469:319|418:211,1,240,2|8
487,178,71793,2,0,B|429:97|302:163|356:279,1,240,2|8
272,280,73776,5,2
272,280,74272,1,8
192,280,74768,2,0,B|96:280,1,80,0|8
88,200,75760,2,0,B|200:200,2,80,2|8|0
88,120,77247,1,8
168,96,77743,5,2
248,120,78239,1,8
248,200,78735,2,0,B|248:280,1,80,0|8
328,280,79727,2,0,B|317:365|249:383|177:360|168:283,1,240,2|2
248,279,81710,6,0,B|248:103,1,160,6|0
195,58,83198,1,8
136,112,83694,2,0,B|136:208,1,80,2|8
136,272,84685,1,0
136,272,85181,1,8
137,352,85677,6,0,B|195:346|228:295|208:229,1,160,2|0
184,160,87165,1,8
224,88,87660,2,0,B|360:88,1,80,2|8
384,88,88652,1,0
384,88,89148,1,8
464,88,89644,6,0,B|461:161|381:196|316:145,1,160,6|0
288,120,91132,1,8
232,64,91627,1,2
232,64,92123,2,0,B|120:64,1,80,8|0
76,38,93115,1,8
76,38,93611,6,0,B|59:109|122:171|210:135,1,160,2|0
240,144,95098,1,8
280,76,95594,2,0,B|392:76,1,80,2|8
407,140,96586,1,0
461,198,97082,1,8
384,216,97578,6,0,B|329:187|274:196|218:277|290:346,1,240,2|8
338,281,99561,1,2
416,297,100057,1,8
472,240,100553,1,0
449,163,101049,1,8
378,129,101545,6,0,B|210:129,1,160,2|0
138,129,103032,1,0
138,129,103528,1,2
416,296,105512,6,0,B|472:168|408:48,1,240,2|8
336,48,107495,1,2
272,96,107991,1,8
272,176,108487,1,0
336,224,108983,1,8
400,176,109479,6,0,B|450:265|378:320|310:324|261:260,1,240,2|8
248,200,111462,1,2
218,125,111958,1,8
164,65,112454,1,2
89,34,112950,1,2
