osu file format v13

[General]
AudioFilename: FYI.mp3
AudioLeadIn: 2000
PreviewTime: 65265
Countdown: 0
SampleSet: Soft
StackLeniency: 0.7
Mode: 0
LetterboxInBreaks: 0
WidescreenStoryboard: 1

[Editor]
Bookmarks: 266,9677,28501,47324,66148,84971,94383,103795,122618,141442,160265,169677,179089,216736
DistanceSpacing: 0.5
BeatDivisor: 4
GridSize: 4
TimelineZoom: 1

[Metadata]
Title:Merry Christmas Mr. Lawrence - FYI
TitleUnicode:Merry Christmas Mr. Lawrence - FYI
Artist:Utada Hikaru
ArtistUnicode:宇多田ヒカル
Creator:Xakyrie
Version:Hard
Source:
Tags:This Is the One Ryuichi Sakamoto xcherry Makar Makar8000 Haruka Sweet_Serenitee
BeatmapID:175771
BeatmapSetID:58482

[Difficulty]
HPDrainRate:7
CircleSize:4
OverallDifficulty:7
ApproachRate:7
SliderMultiplier:2
SliderTickRate:1

[Events]
//Background and Video events
0,0,"fyi.png",0,0
//Break Periods
2,85171,93483
2,160465,168777
//Storyboard Layer 0 (Background)
//Storyboard Layer 1 (Fail)
//Storyboard Layer 2 (Pass)
//Storyboard Layer 3 (Foreground)
Sprite,Foreground,Centre,"SB lyrics\A-1.png",320,240 S,0,28354,,0.7 M,1,28354,28501,410,80,390,80 F,2,28354,28648,0,1 M,1,28501,28648,390,80,380,80 M,2,32618,32765,380,80,370,80 F,1,32618,32913,1,0 M,2,32765,32913,370,80,350,80
Sprite,Foreground,Centre,"SB lyrics\A-2.png",320,240 S,0,30560,,0.6 M,1,30560,30707,460,135,440,135 F,2,30560,30854,0,1 M,1,30707,30854,440,135,430,135 M,2,32618,32765,430,135,420,135 F,1,32618,32913,1,0 M,2,32765,32913,420,135,400,135
Sprite,Foreground,Centre,"SB lyrics\A-3.png",320,240 S,0,32913,,0.7 M,1,32913,33060,410,80,390,80 F,2,32913,33207,0,1 M,1,33060,33207,390,80,380,80 M,2,37177,37324,380,80,370,80 F,1,37177,37472,1,0 M,2,37324,37472,370,80,350,80
Sprite,Foreground,Centre,"SB lyrics\A-4.png",320,240 S,0,35265,,0.6 M,1,35265,35412,460,135,440,135 F,2,35265,35559,0,1 M,1,35412,35559,440,135,430,135 M,2,37177,37324,430,135,420,135 F,1,37177,37472,1,0 M,2,37324,37472,420,135,400,135
Sprite,Foreground,Centre,"SB lyrics\A-5.png",320,240 S,0,38207,,0.7 M,1,38207,38354,410,80,390,80 F,2,38207,38501,0,1 M,1,38354,38501,390,80,380,80 M,2,42471,42618,380,80,370,80 F,1,42471,42766,1,0 M,2,42618,42766,370,80,350,80
Sprite,Foreground,Centre,"SB lyrics\A-6.png",320,240 S,0,40560,,0.6 M,1,40560,40707,460,135,440,135 F,2,40560,40854,0,1 M,1,40707,40854,440,135,430,135 M,2,42472,42619,430,135,420,135 F,1,42472,42767,1,0 M,2,42619,42767,420,135,400,135
Sprite,Foreground,Centre,"SB lyrics\A-7.png",320,240 S,0,42913,,0.7 M,1,42913,43060,410,80,390,80 F,2,42913,43207,0,1 M,1,43060,43207,390,80,380,80 M,2,47324,47471,380,80,370,80 F,1,47324,47618,1,0 M,2,47471,47618,370,80,350,80
Sprite,Foreground,Centre,"SB lyrics\A-8.png",320,240 S,0,44971,,0.6 M,1,44971,45118,460,135,440,135 F,2,44971,45265,0,1 M,1,45118,45265,440,135,430,135 M,2,47324,47471,430,135,420,135 F,1,47324,47618,1,0 M,2,47471,47618,420,135,400,135
Sprite,Foreground,Centre,"SB lyrics\B-1.png",320,240 S,0,47618,,0.7 M,1,47618,47765,410,80,390,80 F,2,47618,47912,0,1 M,1,47765,47912,390,80,380,80 M,2,49677,49824,380,80,370,80 F,1,49677,49971,1,0 M,2,49824,49971,370,80,350,80
Sprite,Foreground,Centre,"SB lyrics\B-2.png",320,240 S,0,48795,,0.6 M,1,48795,48942,460,135,440,135 F,2,48795,49089,0,1 M,1,48942,49089,440,135,430,135 M,2,49677,49824,430,135,420,135 F,1,49677,49971,1,0 M,2,49824,49971,420,135,400,135
Sprite,Foreground,Centre,"SB lyrics\B-3.png",320,240 S,0,49971,,0.7 M,1,49971,50118,410,80,390,80 F,2,49971,50265,0,1 M,1,50118,50265,390,80,380,80 M,2,52030,52177,380,80,370,80 F,1,52030,52324,1,0 M,2,52177,52324,370,80,350,80
Sprite,Foreground,Centre,"SB lyrics\B-2.png",320,240 S,0,51148,,0.6 M,1,51148,51295,460,135,440,135 F,2,51148,51442,0,1 M,1,51295,51442,440,135,430,135 M,2,52030,52177,430,135,420,135 F,1,52030,52324,1,0 M,2,52177,52324,420,135,400,135
Sprite,Foreground,Centre,"SB lyrics\B-4.png",320,240 S,0,52324,,0.6 M,1,52324,52471,410,80,390,80 F,2,52324,52618,0,1 M,1,52471,52618,390,80,380,80 M,2,56735,56882,380,80,370,80 F,1,56735,57029,1,0 M,2,56882,57029,370,80,350,80
Sprite,Foreground,Centre,"SB lyrics\B-5.png",320,240 S,0,54677,,0.6 M,1,54677,54824,460,135,440,135 F,2,54677,54971,0,1 M,1,54824,54971,440,135,430,135 M,2,56735,56882,430,135,420,135 F,1,56735,57029,1,0 M,2,56882,57029,420,135,400,135
Sprite,Foreground,Centre,"SB lyrics\B-6.png",320,240 S,0,57030,,0.7 M,1,57030,57177,410,80,390,80 F,2,57030,57324,0,1 M,1,57177,57324,390,80,380,80 M,2,59089,59236,380,80,370,80 F,1,59089,59383,1,0 M,2,59236,59383,370,80,350,80
Sprite,Foreground,Centre,"SB lyrics\B-7.png",320,240 S,0,58207,,0.6 M,1,58207,58354,460,135,440,135 F,2,58207,58501,0,1 M,1,58354,58501,440,135,430,135 M,2,59089,59236,430,135,420,135 F,1,59089,59383,1,0 M,2,59236,59383,420,135,400,135
Sprite,Foreground,Centre,"SB lyrics\B-8.png",320,240 S,0,59383,,0.7 M,1,59383,59530,410,80,390,80 F,2,59383,59677,0,1 M,1,59530,59677,390,80,380,80 M,2,61442,61589,380,80,370,80 F,1,61442,61736,1,0 M,2,61589,61736,370,80,350,80
Sprite,Foreground,Centre,"SB lyrics\B-9.png",320,240 S,0,60560,,0.6 M,1,60560,60707,460,135,440,135 F,2,60560,60854,0,1 M,1,60707,60854,440,135,430,135 M,2,61442,61589,430,135,420,135 F,1,61442,61736,1,0 M,2,61589,61736,420,135,400,135
Sprite,Foreground,Centre,"SB lyrics\B-10.png",320,240 S,0,61736,,0.7 M,1,61736,61883,410,80,390,80 F,2,61736,62030,0,1 M,1,61883,62030,390,80,380,80 M,2,66147,66294,380,80,370,80 F,1,66147,66441,1,0 M,2,66294,66441,370,80,350,80
Sprite,Foreground,Centre,"SB lyrics\B-ex.png",320,240 S,0,62913,,0.6 M,1,62913,63060,460,135,440,135 F,2,62913,63207,0,1 M,1,63060,63207,440,135,430,135 M,2,66147,66294,430,135,420,135 F,1,66147,66441,1,0 M,2,66294,66441,420,135,400,135
Sprite,Foreground,Centre,"SB lyrics\C-1.png",320,240 S,0,66148,,0.7 M,1,66148,66295,410,80,390,80 F,2,66148,66442,0,1 M,1,66295,66442,390,80,380,80 M,2,69677,69824,380,80,370,80 F,1,69677,69971,1,0 M,2,69824,69971,370,80,350,80
Sprite,Foreground,Centre,"SB lyrics\C-2.png",320,240 S,0,67618,,0.6 M,1,67618,67765,460,135,440,135 F,2,67618,67912,0,1 M,1,67765,67912,440,135,430,135 M,0,67912,68079,430,135 M,0,68079,69677,430,135 M,2,69677,69824,430,135,420,135 F,1,69677,69971,1,0 M,2,69824,69971,420,135,400,135
Sprite,Foreground,Centre,"SB lyrics\C-3.png",320,240 S,0,69971,,0.7 M,1,69971,70118,410,80,390,80 F,2,69971,70265,0,1 M,1,70118,70265,390,80,380,80 M,2,75560,75707,380,80,370,80 F,1,75560,75854,1,0 M,2,75707,75854,370,80,350,80
Sprite,Foreground,Centre,"SB lyrics\C-4.png",320,240 S,0,75560,,0.7 M,1,75560,75707,410,80,390,80 F,2,75560,75854,0,1 M,1,75707,75854,390,80,380,80 M,2,79089,79236,380,80,370,80 F,1,79089,79383,1,0 M,2,79236,79383,370,80,350,80
Sprite,Foreground,Centre,"SB lyrics\C-5.png",320,240 S,0,77030,,0.6 M,1,77030,77177,460,135,440,135 F,2,77030,77324,0,1 M,1,77177,77324,440,135,430,135 M,2,79089,79236,430,135,420,135 F,1,79089,79383,1,0 M,2,79236,79383,420,135,400,135
Sprite,Foreground,Centre,"SB lyrics\C-6.png",320,240 S,0,79383,,0.7 M,1,79383,79530,410,80,390,80 F,2,79383,79677,0,1 M,1,79530,79677,390,80,380,80 M,2,84971,85118,380,80,370,80 F,1,84971,85265,1,0 M,2,85118,85265,370,80,350,80
Sprite,Foreground,Centre,"SB lyrics\C-7.png",320,240 S,0,82030,,0.6 M,1,82030,82177,460,135,440,135 F,2,82030,82324,0,1 M,1,82177,82324,440,135,430,135 M,2,84971,85118,430,135,420,135 F,1,84971,85265,1,0 M,2,85118,85265,420,135,400,135
Sprite,Foreground,Centre,"SB lyrics\D-1.png",320,240 S,0,84971,,0.7 M,1,84971,85118,410,80,390,80 F,2,84971,85265,0,1 M,1,85118,85265,390,80,380,80 M,2,89088,89235,380,80,370,80 F,1,89088,89383,1,0 M,2,89235,89383,370,80,350,80
Sprite,Foreground,Centre,"SB lyrics\D-2.png",320,240 S,0,87030,,0.6 M,1,87030,87177,460,135,440,135 F,2,87030,87324,0,1 M,1,87177,87324,440,135,430,135 M,2,89088,89235,430,135,420,135 F,1,89088,89383,1,0 M,2,89235,89383,420,135,400,135
Sprite,Foreground,Centre,"SB lyrics\D-3.png",320,240 S,0,89383,,0.7 M,1,89383,89530,410,80,390,80 F,2,89383,89677,0,1 M,1,89530,89677,390,80,380,80 M,2,93794,93941,380,80,370,80 F,1,93794,94089,1,0 M,2,93941,94089,370,80,350,80
Sprite,Foreground,Centre,"SB lyrics\D-4.png",320,240 S,0,91736,,0.6 M,1,91736,91883,460,135,440,135 F,2,91736,92030,0,1 M,1,91883,92030,440,135,430,135 M,2,93794,93941,430,135,420,135 F,1,93794,94089,1,0 M,2,93941,94089,420,135,400,135
Sprite,Foreground,Centre,"SB lyrics\D-5.png",320,240 S,0,94383,,0.7 M,1,94383,94530,410,80,390,80 F,2,94383,94677,0,1 M,1,94530,94677,390,80,380,80 M,2,98942,99089,380,80,370,80 F,1,98942,99237,1,0 M,2,99089,99237,370,80,350,80
Sprite,Foreground,Centre,"SB lyrics\D-6.png",320,240 S,0,97030,,0.6 M,1,97030,97177,460,135,440,135 F,2,97030,97324,0,1 M,1,97177,97324,440,135,430,135 M,2,98942,99089,430,135,420,135 F,1,98942,99237,1,0 M,2,99089,99237,420,135,400,135
Sprite,Foreground,Centre,"SB lyrics\D-7 edit.png",320,240 S,0,99383,,0.7 M,1,99383,99530,410,80,390,80 F,2,99383,99677,0,1 M,1,99530,99677,390,80,380,80 M,2,103794,103941,380,80,370,80 F,1,103794,104088,1,0 M,2,103941,104088,370,80,350,80
Sprite,Foreground,Centre,"SB lyrics\D-8.png",320,240 S,0,101148,,0.6 M,1,101148,101295,460,135,440,135 F,2,101148,101442,0,1 M,1,101295,101442,440,135,430,135 M,2,103794,103941,430,135,420,135 F,1,103794,104088,1,0 M,2,103941,104088,420,135,400,135
Sprite,Foreground,Centre,"SB lyrics\E-1.png",320,240 S,0,104089,,0.7 M,1,104089,104236,410,80,390,80 F,2,104089,104383,0,1 M,1,104236,104383,390,80,380,80 M,2,106148,106295,380,80,370,80 F,1,106148,106442,1,0 M,2,106295,106442,370,80,350,80
Sprite,Foreground,Centre,"SB lyrics\B-2.png",320,240 S,0,105265,,0.6 M,1,105265,105412,460,135,440,135 F,2,105265,105559,0,1 M,1,105412,105559,440,135,430,135 M,2,106147,106294,430,135,420,135 F,1,106147,106441,1,0 M,2,106294,106441,420,135,400,135
Sprite,Foreground,Centre,"SB lyrics\E-1.png",320,240 S,0,106442,,0.7 M,1,106442,106589,410,80,390,80 F,2,106442,106736,0,1 M,1,106589,106736,390,80,380,80 M,2,108501,108648,380,80,370,80 F,1,108501,108795,1,0 M,2,108648,108795,370,80,350,80
Sprite,Foreground,Centre,"SB lyrics\B-2.png",320,240 S,0,107618,,0.6 M,1,107618,107765,460,135,440,135 F,2,107618,107912,0,1 M,1,107765,107912,440,135,430,135 M,2,108500,108647,430,135,420,135 F,1,108500,108794,1,0 M,2,108647,108794,420,135,400,135
Sprite,Foreground,Centre,"SB lyrics\E-2.png",320,240 S,0,108795,,0.6 M,1,108795,108942,410,80,390,80 F,2,108795,109089,0,1 M,1,108942,109089,390,80,380,80 M,2,113206,113353,380,80,370,80 F,1,113206,113500,1,0 M,2,113353,113500,370,80,350,80
Sprite,Foreground,Centre,"SB lyrics\E-3.png",320,240 S,0,111148,,0.6 M,1,111148,111295,460,135,440,135 F,2,111148,111442,0,1 M,1,111295,111442,440,135,430,135 M,2,113206,113353,430,135,420,135 F,1,113206,113500,1,0 M,2,113353,113500,420,135,400,135
Sprite,Foreground,Centre,"SB lyrics\B-6.png",320,240 S,0,113501,,0.7 M,1,113501,113648,410,80,390,80 F,2,113501,113795,0,1 M,1,113648,113795,390,80,380,80 M,2,115560,115707,380,80,370,80 F,1,115560,115854,1,0 M,2,115707,115854,370,80,350,80
Sprite,Foreground,Centre,"SB lyrics\B-7.png",320,240 S,0,114677,,0.6 M,1,114677,114824,460,135,440,135 F,2,114677,114971,0,1 M,1,114824,114971,440,135,430,135 M,2,115559,115706,430,135,420,135 F,1,115559,115853,1,0 M,2,115706,115853,420,135,400,135
Sprite,Foreground,Centre,"SB lyrics\B-8.png",320,240 S,0,115854,,0.7 M,1,115854,116001,410,80,390,80 F,2,115854,116148,0,1 M,1,116001,116148,390,80,380,80 M,2,117913,118060,380,80,370,80 F,1,117913,118207,1,0 M,2,118060,118207,370,80,350,80
Sprite,Foreground,Centre,"SB lyrics\B-9.png",320,240 S,0,117030,,0.6 M,1,117030,117177,460,135,440,135 F,2,117030,117324,0,1 M,1,117177,117324,440,135,430,135 M,2,117912,118059,430,135,420,135 F,1,117912,118206,1,0 M,2,118059,118206,420,135,400,135
Sprite,Foreground,Centre,"SB lyrics\E-4.png",320,240 S,0,118207,,0.7 M,1,118207,118354,410,80,390,80 F,2,118207,118501,0,1 M,1,118354,118501,390,80,380,80 M,2,122618,122765,380,80,370,80 F,1,122618,122912,1,0 M,2,122765,122912,370,80,350,80
Sprite,Foreground,Centre,"SB lyrics\B-ex.png",320,240 S,0,119383,,0.6 M,1,119383,119530,460,135,440,135 F,2,119383,119677,0,1 M,1,119530,119677,440,135,430,135 M,2,122617,122764,430,135,420,135 F,1,122617,122911,1,0 M,2,122764,122911,420,135,400,135
Sprite,Foreground,Centre,"SB lyrics\C-1.png",320,240 S,0,122618,,0.7 M,1,122618,122765,410,80,390,80 F,2,122618,122912,0,1 M,1,122765,122912,390,80,380,80 M,2,126147,126294,380,80,370,80 F,1,126147,126441,1,0 M,2,126294,126441,370,80,350,80
Sprite,Foreground,Centre,"SB lyrics\C-2.png",320,240 S,0,124089,,0.6 M,1,124089,124236,460,135,440,135 F,2,124089,124383,0,1 M,1,124236,124383,440,135,430,135 M,0,124383,124550,430,135 M,0,124550,126148,430,135 M,2,126148,126295,430,135,420,135 F,1,126148,126442,1,0 M,2,126295,126442,420,135,400,135
Sprite,Foreground,Centre,"SB lyrics\C-3.png",320,240 S,0,126442,,0.7 M,1,126442,126589,410,80,390,80 F,2,126442,126736,0,1 M,1,126589,126736,390,80,380,80 M,2,132031,132178,380,80,370,80 F,1,132031,132325,1,0 M,2,132178,132325,370,80,350,80
Sprite,Foreground,Centre,"SB lyrics\C-4.png",320,240 S,0,132030,,0.7 M,1,132030,132177,410,80,390,80 F,2,132030,132324,0,1 M,1,132177,132324,390,80,380,80 M,2,135559,135706,380,80,370,80 F,1,135559,135853,1,0 M,2,135706,135853,370,80,350,80
Sprite,Foreground,Centre,"SB lyrics\C-5.png",320,240 S,0,133501,,0.6 M,1,133501,133648,460,135,440,135 F,2,133501,133795,0,1 M,1,133648,133795,440,135,430,135 M,2,135560,135707,430,135,420,135 F,1,135560,135854,1,0 M,2,135707,135854,420,135,400,135
Sprite,Foreground,Centre,"SB lyrics\C-6.png",320,240 S,0,135854,,0.7 M,1,135854,136001,410,80,390,80 F,2,135854,136148,0,1 M,1,136001,136148,390,80,380,80 M,2,141442,141589,380,80,370,80 F,1,141442,141736,1,0 M,2,141589,141736,370,80,350,80
Sprite,Foreground,Centre,"SB lyrics\C-7.png",320,240 S,0,138501,,0.6 M,1,138501,138648,460,135,440,135 F,2,138501,138795,0,1 M,1,138648,138795,440,135,430,135 M,2,141442,141589,430,135,420,135 F,1,141442,141736,1,0 M,2,141589,141736,420,135,400,135
Sprite,Foreground,Centre,"SB lyrics\E-5.png",320,240 S,0,142030,,0.7 M,1,142030,142177,410,80,390,80 F,2,142030,142324,0,1 M,1,142177,142324,390,80,380,80 M,2,146441,146588,380,80,370,80 F,1,146441,146735,1,0 M,2,146588,146735,370,80,350,80
Sprite,Foreground,Centre,"SB lyrics\E-6.png",320,240 S,0,145560,,0.6 M,1,145560,145707,460,135,440,135 F,2,145560,145854,0,1 M,1,145707,145854,440,135,430,135 M,2,146442,146589,430,135,420,135 F,1,146442,146736,1,0 M,2,146589,146736,420,135,400,135
Sprite,Foreground,Centre,"SB lyrics\E-7.png",320,240 S,0,146736,,0.7 M,1,146736,146883,410,80,390,80 F,2,146736,147030,0,1 M,1,146883,147030,390,80,380,80 M,2,151147,151294,380,80,370,80 F,1,151147,151441,1,0 M,2,151294,151441,370,80,350,80
Sprite,Foreground,Centre,"SB lyrics\E-6.png",320,240 S,0,150265,,0.6 M,1,150265,150412,460,135,440,135 F,2,150265,150559,0,1 M,1,150412,150559,440,135,430,135 M,2,151147,151294,430,135,420,135 F,1,151147,151441,1,0 M,2,151294,151441,420,135,400,135
Sprite,Foreground,Centre,"SB lyrics\E-8.png",320,240 S,0,151442,,0.7 M,1,151442,151589,410,80,390,80 F,2,151442,151736,0,1 M,1,151589,151736,390,80,380,80 M,2,155853,156000,380,80,370,80 F,1,155853,156147,1,0 M,2,156000,156147,370,80,350,80
Sprite,Foreground,Centre,"SB lyrics\E-9.png",320,240 S,0,156148,,0.7 M,1,156148,156295,410,80,390,80 F,2,156148,156442,0,1 M,1,156295,156442,390,80,380,80 M,2,160265,160413,380,80,370,80 F,1,160265,160560,1,0 M,2,160413,160560,370,80,350,80
Sprite,Foreground,Centre,"SB lyrics\C-1.png",320,240 S,0,179089,,0.7 M,1,179089,179236,410,80,390,80 F,2,179089,179383,0,1 M,1,179236,179383,390,80,380,80 M,2,182618,182765,380,80,370,80 F,1,182618,182912,1,0 M,2,182765,182912,370,80,350,80
Sprite,Foreground,Centre,"SB lyrics\C-2.png",320,240 S,0,180560,,0.6 M,1,180560,180707,460,135,440,135 F,2,180560,180854,0,1 M,1,180707,180854,440,135,430,135 M,0,180854,181021,430,135 M,0,181021,182619,430,135 M,2,182619,182766,430,135,420,135 F,1,182619,182913,1,0 M,2,182766,182913,420,135,400,135
Sprite,Foreground,Centre,"SB lyrics\C-3.png",320,240 S,0,182913,,0.7 M,1,182913,183060,410,80,390,80 F,2,182913,183207,0,1 M,1,183060,183207,390,80,380,80 M,2,188502,188649,380,80,370,80 F,1,188502,188796,1,0 M,2,188649,188796,370,80,350,80
Sprite,Foreground,Centre,"SB lyrics\C-4.png",320,240 S,0,188501,,0.7 M,1,188501,188648,410,80,390,80 F,2,188501,188795,0,1 M,1,188648,188795,390,80,380,80 M,2,192030,192177,380,80,370,80 F,1,192030,192324,1,0 M,2,192177,192324,370,80,350,80
Sprite,Foreground,Centre,"SB lyrics\C-5.png",320,240 S,0,189971,,0.6 M,1,189971,190118,460,135,440,135 F,2,189971,190265,0,1 M,1,190118,190265,440,135,430,135 M,2,192030,192177,430,135,420,135 F,1,192030,192324,1,0 M,2,192177,192324,420,135,400,135
Sprite,Foreground,Centre,"SB lyrics\C-6.png",320,240 S,0,192324,,0.7 M,1,192324,192471,410,80,390,80 F,2,192324,192618,0,1 M,1,192471,192618,390,80,380,80 M,2,197912,198059,380,80,370,80 F,1,197912,198206,1,0 M,2,198059,198206,370,80,350,80
Sprite,Foreground,Centre,"SB lyrics\C-7.png",320,240 S,0,194971,,0.6 M,1,194971,195118,460,135,440,135 F,2,194971,195265,0,1 M,1,195118,195265,440,135,430,135 M,2,197912,198059,430,135,420,135 F,1,197912,198206,1,0 M,2,198059,198206,420,135,400,135
Sprite,Foreground,Centre,"SB lyrics\C-1.png",320,240 S,0,197913,,0.7 M,1,197913,198060,410,80,390,80 F,2,197913,198207,0,1 M,1,198060,198207,390,80,380,80 M,2,201442,201589,380,80,370,80 F,1,201442,201736,1,0 M,2,201589,201736,370,80,350,80
Sprite,Foreground,Centre,"SB lyrics\C-2.png",320,240 S,0,199383,,0.6 M,1,199383,199530,460,135,440,135 F,2,199383,199677,0,1 M,1,199530,199677,440,135,430,135 M,0,199677,199844,430,135 M,0,199844,201442,430,135 M,2,201442,201589,430,135,420,135 F,1,201442,201736,1,0 M,2,201589,201736,420,135,400,135
Sprite,Foreground,Centre,"SB lyrics\C-3.png",320,240 S,0,201736,,0.7 M,1,201736,201883,410,80,390,80 F,2,201736,202030,0,1 M,1,201883,202030,390,80,380,80 M,2,207325,207472,380,80,370,80 F,1,207325,207619,1,0 M,2,207472,207619,370,80,350,80
Sprite,Foreground,Centre,"SB lyrics\C-4.png",320,240 S,0,207324,,0.7 M,1,207324,207471,410,80,390,80 F,2,207324,207618,0,1 M,1,207471,207618,390,80,380,80 M,2,210853,211000,380,80,370,80 F,1,210853,211147,1,0 M,2,211000,211147,370,80,350,80
Sprite,Foreground,Centre,"SB lyrics\C-5.png",320,240 S,0,208795,,0.6 M,1,208795,208942,460,135,440,135 F,2,208795,209089,0,1 M,1,208942,209089,440,135,430,135 M,2,210854,211001,430,135,420,135 F,1,210854,211148,1,0 M,2,211001,211148,420,135,400,135
Sprite,Foreground,Centre,"SB lyrics\C-6.png",320,240 S,0,211148,,0.7 M,1,211148,211295,410,80,390,80 F,2,211148,211442,0,1 M,1,211295,211442,390,80,380,80 M,2,216736,216883,380,80,370,80 F,1,216736,217030,1,0 M,2,216883,217030,370,80,350,80
Sprite,Foreground,Centre,"SB lyrics\C-7.png",320,240 S,0,213795,,0.6 M,1,213795,213942,460,135,440,135 F,2,213795,214089,0,1 M,1,213942,214089,440,135,430,135 M,2,216736,216883,430,135,420,135 F,1,216736,217030,1,0 M,2,216883,217030,420,135,400,135
Sprite,Foreground,Centre,"SB lyrics\flash.png",280,100 L,0,16 F,2,66148,67324,1,0 P,0,66736,,V
Sprite,Foreground,Centre,"SB lyrics\flash.png",280,380 L,0,16 F,2,66148,67324,1,0
Sprite,Foreground,Centre,"SB lyrics\flash.png",280,100 L,0,16 F,2,122618,123795,1,0 P,0,122618,,V
Sprite,Foreground,Centre,"SB lyrics\flash.png",280,380 L,0,16 F,2,122618,123795,1,0
Sprite,Foreground,Centre,"SB lyrics\flash.png",280,380 L,0,32 F,0,179089,180265,1,0
Sprite,Foreground,Centre,"SB lyrics\flash.png",280,100 L,0,32 F,0,179677,180854,1,0 P,0,179677,,V
Sprite,Foreground,Centre,"SB lyrics\W.png",320,240 F,1,216736,230118,0,1
//Storyboard Sound Samples
//Background Colour Transformations
3,100,163,162,255

[TimingPoints]
266,588.235294117647,4,2,1,35,1,0
9677,-100,4,2,1,55,0,0
65265,-100,4,2,1,35,0,0
65559,-200,4,2,1,55,0,0
65854,-200,4,2,1,15,0,0
66148,-100,4,2,1,75,0,1
84971,-100,4,2,1,55,0,0
121736,-100,4,2,1,35,0,0
122030,-200,4,2,1,55,0,0
122324,-200,4,2,1,15,0,0
122617,-100,4,2,1,75,0,1
141442,-100,4,2,1,55,0,0
178207,-100,4,2,1,35,0,0
178501,-200,4,2,1,55,0,0
178795,-200,4,2,1,15,0,0
179089,-100,4,2,1,75,0,1
197765,-100,4,2,1,75,0,0
197913,-100,4,2,1,75,0,1
216736,-100,4,2,1,55,0,0

[Colours]
Combo1 : 154,44,77
Combo2 : 255,111,111
Combo3 : 205,44,60
Combo4 : 254,207,99

[HitObjects]
132,148,266,6,0,B|152:204|224:212,1,100,0|2,0:0|0:0,0:0:0:0:
328,280,854,2,0,B|312:168,1,100,2|0,0:0|0:0,0:0:0:0:
232,104,1442,2,2,B|164:20|24:44,1,200,2|0,0:0|0:0,0:0:0:0:
80,212,2618,5,0,0:0:0:0:
184,276,3207,2,0,B|160:336|89:331,1,100,0|2,0:0|0:0,0:0:0:0:
176,180,3795,2,0,B|268:140,1,100,2|0,0:0|0:0,0:0:0:0:
288,248,4383,1,0,0:0:0:0:
168,376,4677,1,0,0:0:0:0:
72,276,4971,6,0,B|16:248|32:164,2,100,0|2|2,0:0|0:0|0:0,0:0:0:0:
256,336,5854,1,0,0:0:0:0:
332,228,6148,2,2,B|252:168|140:200,1,200,2|0,0:0|0:0,0:0:0:0:
324,112,7324,5,0,0:0:0:0:
248,44,7913,2,2,B|148:88|132:208,1,200,2|2,0:0|0:0,0:0:0:0:
104,72,8795,2,0,B|64:40|0:32,1,100,0|0,0:0|0:0,0:0:0:0:
244,164,9677,6,0,B|284:196|348:204,1,100,4|2,0:3|0:0,0:0:0:0:
335,202,10118,1,0,0:0:0:0:
335,202,10266,1,8,0:0:0:0:
364,84,10560,1,2,0:0:0:0:
432,244,10854,2,0,B|472:340,1,100,0|2,0:0|0:0,0:0:0:0:
296,292,11442,1,8,0:0:0:0:
335,202,11736,1,2,0:0:0:0:
335,202,11883,1,0,0:0:0:0:
335,202,12030,6,0,B|295:106,1,100,0|2,0:0|0:0,0:0:0:0:
296,109,12471,1,0,0:0:0:0:
296,109,12618,1,8,0:0:0:0:
240,40,12913,2,0,B|204:148|80:152,1,200,2|2,0:0|0:0,0:0:0:0:
8,48,13795,2,0,P|20:96|12:156,1,100,8|2,0:0|0:0,0:0:0:0:
36,316,14383,6,0,B|24:256|72:204,1,100,0|2,0:0|0:0,0:0:0:0:
57,221,14824,1,0,0:0:0:0:
57,221,14971,1,8,0:0:0:0:
112,60,15266,1,2,0:0:0:0:
208,168,15560,2,0,B|260:180|304:144,1,100,0|2,0:0|0:0,0:0:0:0:
408,80,16148,1,8,0:0:0:0:
460,188,16442,1,2,0:0:0:0:
460,188,16589,1,0,0:0:0:0:
460,188,16736,6,0,B|448:288,1,100,0|2,0:0|0:0,0:0:0:0:
448,287,17177,1,0,0:0:0:0:
448,287,17324,1,8,0:0:0:0:
352,348,17618,2,0,B|296:248|168:252,1,200,2|2,0:0|0:0,0:0:0:0:
212,144,18501,2,0,B|311:147,1,100,8|2,0:0|0:0,0:0:0:0:
393,193,19089,6,0,B|420:148|388:96,2,100,0|2|8,0:0|0:0|0:0,0:0:0:0:
324,312,19971,1,0,0:0:0:0:
248,228,20266,2,2,B|320:296|440:280,1,200,2|8,0:0|0:0,0:0:0:0:
420,168,21148,1,0,0:0:0:0:
420,168,21295,1,0,0:0:0:0:
420,168,21442,6,2,B|451:110|415:37,1,100,0|0,0:0|0:0,0:0:0:0:
408,60,21883,1,0,0:0:0:0:
384,60,22030,2,0,B|340:161,1,100,8|2,0:0|0:0,0:0:0:0:
256,216,22618,2,0,B|256:92,1,100,2|0,0:0|0:0,0:0:0:0:
128,60,23207,2,0,B|172:161,1,100,8|0,0:0|0:0,0:0:0:0:
272,320,23795,6,0,B|316:352|380:352,2,100,0|2|8,0:0|0:0|0:0,0:0:0:0:
220,208,24677,1,0,0:0:0:0:
124,96,24971,2,2,B|72:196|132:288,1,200,0|8,0:0|0:0,0:0:0:0:
108,372,25854,1,0,0:0:0:0:
108,372,26001,1,0,0:0:0:0:
108,372,26148,6,2,B|32:288,1,100,0|0,0:0|0:0,0:0:0:0:
64,304,26589,1,0,0:0:0:0:
84,288,26736,2,0,B|108:232|64:172,1,100,8|0,0:0|0:0,0:0:0:0:
68,60,27324,1,2,0:0:0:0:
164,132,27618,1,0,0:0:0:0:
348,132,27913,1,8,0:0:0:0:
444,60,28207,1,0,0:0:0:0:
476,188,28501,6,0,B|424:296,1,100,2|0,0:0|0:0,0:0:0:0:
432,278,28942,1,0,0:0:0:0:
432,278,29089,1,8,0:0:0:0:
348,132,29383,2,0,B|240:176|244:300,1,200,2|0,0:0|0:0,0:0:0:0:
144,260,30266,1,8,0:0:0:0:
308,364,30560,1,2,0:0:0:0:
308,364,30707,1,0,0:0:0:0:
308,364,30854,6,0,B|256:328|236:268,1,100,0|2,0:0|0:0,0:0:0:0:
244,288,31295,1,0,0:0:0:0:
244,288,31442,1,8,0:0:0:0:
137,69,31736,2,0,B|85:165|144:260,1,200,2|0,0:0|0:0,0:0:0:0:
272,142,32618,1,8,0:0:0:0:
340,56,32913,1,0,0:0:0:0:
420,132,33207,6,0,B|428:232,1,100,2|0,0:0|0:0,0:0:0:0:
427,231,33648,1,0,0:0:0:0:
427,231,33795,1,8,0:0:0:0:
336,308,34089,2,0,B|264:284|236:184|284:124,1,200,2|0,0:0|0:0,0:0:0:0:
324,32,34971,1,8,0:0:0:0:
340,206,35265,1,2,0:0:0:0:
340,206,35413,1,0,0:0:0:0:
340,206,35560,6,0,P|296:184|272:142,1,100,0|2,0:0|0:0,0:0:0:0:
272,142,36001,1,0,0:0:0:0:
272,142,36148,1,8,0:0:0:0:
392,124,36442,2,0,B|472:156|468:260|400:296,1,200,2|0,0:0|0:0,0:0:0:0:
264,264,37324,1,8,0:0:0:0:
272,142,37618,1,2,0:0:0:0:
152,200,37913,6,0,B|100:180|88:112,1,100,0|2,0:0|0:0,0:0:0:0:
91,125,38354,1,0,0:0:0:0:
91,125,38501,1,8,0:0:0:0:
212,68,38795,2,0,B|264:88|276:156,1,100,0|0,0:0|0:0,0:0:0:0:
272,142,39236,1,0,0:0:0:0:
272,142,39383,1,0,0:0:0:0:
236,280,39677,2,0,B|356:300,1,100,8|0,0:0|0:0,0:0:0:0:
356,312,40118,1,0,0:0:0:0:
332,320,40265,6,0,B|309:275|325:207,1,100,0|2,0:0|0:0,0:0:0:0:
322,222,40707,1,0,0:0:0:0:
322,222,40854,1,8,0:0:0:0:
376,116,41148,2,0,B|384:168|440:212,1,100
426,200,41589,1,0,0:0:0:0:
426,200,41736,1,0,0:0:0:0:
492,300,42030,2,0,B|432:292|380:332,1,100,8|0,0:0|0:0,0:0:0:0:
284,368,42618,6,0,B|224:264,1,100,0|2,0:0|0:0,0:0:0:0:
228,256,43060,1,0,0:0:0:0:
244,236,43207,2,0,B|204:276|144:264,1,100,8|0,0:0|0:0,0:0:0:0:
160,80,43795,2,0,B|180:188,1,100,0|0,0:0|0:0,0:0:0:0:
8,200,44383,2,0,B|-12:72,1,100,8|0,0:0|0:0,0:0:0:0:
8,84,44824,1,0,0:0:0:0:
28,96,44971,6,0,B|88:104|124:52,1,100,0|2,0:0|0:0,0:0:0:0:
128,40,45413,1,0,0:0:0:0:
148,24,45560,2,0,B|252:36,1,100,8|0,0:0|0:0,0:0:0:0:
372,68,46148,1,2,0:0:0:0:
292,196,46442,1,0,0:0:0:0:
400,168,46736,1,8,0:0:0:0:
168,204,47030,1,0,0:0:0:0:
96,296,47324,5,4,0:3:0:0:
208,320,47618,2,0,B|236:332|268:328,2,50,2|0|8,0:0|0:0|0:0,0:0:0:0:
168,204,48207,2,0,B|198:203|225:185,2,50,2|0|0,0:0|0:0|0:0,0:0:0:0:
68,140,48795,2,0,B|32:100|32:40,2,100,0|8|0,0:0|0:0|0:0,0:0:0:0:
68,140,49530,1,0,0:0:0:0:
68,140,49677,5,4,0:3:0:0:
208,64,49971,2,0,B|236:52|268:56,2,50,2|0|8,0:0|0:0|0:0,0:0:0:0:
168,180,50560,2,0,B|198:180|225:198,2,50,2|0|0,0:0|0:0|0:0,0:0:0:0:
68,244,51148,2,0,B|32:284|32:344,2,100,0|8|0,0:0|0:0|0:0,0:0:0:0:
156,328,52030,5,4,0:3:0:0:
272,308,52324,2,0,B|321:305,2,50,2|0|8,0:0|0:0|0:0,0:0:0:0:
196,216,52913,2,0,B|242:197,2,50,2|0|0,0:0|0:0|0:0,0:0:0:0:
80,268,53501,2,0,B|84:240|56:212,1,50
36,212,53795,2,0,B|72:172|124:176,1,100,8|0,0:0|0:0,0:0:0:0:
284,248,54383,5,4,0:3:0:0:
380,172,54677,2,0,B|348:160|332:132,1,50
332,120,54971,2,0,B|296:172|236:172,1,100,8|0,0:0|0:0,0:0:0:0:
108,128,55560,1,0,0:0:0:0:
136,264,55854,1,2,0:0:0:0:
208,160,56148,2,0,B|256:136|320:152,1,100,8|0,0:0|0:0,0:0:0:0:
436,272,56736,5,4,0:3:0:0:
420,132,57030,2,0,B|430:83,2,50,2|0|8,0:0|0:0|0:0,0:0:0:0:
284,92,57618,2,0,B|328:52,2,50,2|0|0,0:0|0:0|0:0,0:0:0:0:
152,256,58207,2,0,B|100:236|95:178,2,100,0|8|0,0:0|0:0|0:0,0:0:0:0:
152,256,58942,1,0,0:0:0:0:
152,256,59089,5,4,0:3:0:0:
312,208,59383,2,0,B|361:198,2,50,2|0|8,0:0|0:0|0:0,0:0:0:0:
300,328,59971,2,0,B|340:284,2,50,2|0|0,0:0|0:0|0:0,0:0:0:0:
96,332,60560,2,0,B|101:275|153:255,2,100,0|8|0,0:0|0:0|0:0,0:3:0:0:
212,372,61442,5,4,0:3:0:0:
192,176,61736,2,0,B|196:140|172:112,2,50,2|0|8,0:0|0:0|0:0,0:0:0:0:
268,272,62324,2,0,B|286:241|276:205,2,50,2|0|0,0:0|0:0|0:0,0:0:0:0:
148,264,62913,2,0,B|92:236|92:172,2,100,0|10|0,0:0|0:0|0:0,0:0:0:0:
148,264,63648,1,0,0:0:0:0:
148,264,63795,5,4,0:3:0:0:
212,160,64089,1,0,0:0:0:0:
212,160,64236,1,4,0:3:0:0:
212,160,64383,2,0,B|209:107|157:83,1,100,10|0,0:0|0:0,0:0:0:0:
40,292,65266,1,0,0:0:0:0:
96,188,65560,2,0,B|80:136,1,50,2|0,0:0|0:0,0:0:0:0:
104,96,66148,6,0,B|140:212,1,100,4|0,0:3|0:0,0:0:0:0:
184,300,66736,2,0,B|292:252|272:112,1,200,8|0,0:0|0:0,0:0:0:0:
200,44,67618,1,4,0:3:0:0:
160,156,67913,2,0,B|172:180|204:196,2,50,8|0|2,0:0|0:0|0:0,0:0:0:0:
200,44,68501,6,0,P|224:88|268:120,1,100,4|0,0:3|0:0,0:0:0:0:
376,88,69089,2,0,B|420:64|480:68,2,100,8|0|0,0:0|0:0|0:0,0:0:0:0:
216,216,69971,1,4,0:3:0:0:
376,288,70266,2,0,B|412:176,1,100,8|0,0:0|0:0,0:0:0:0:
216,216,70854,6,0,B|184:320,1,100,4|2,0:3|0:0,0:0:0:0:
172,332,71295,1,0,0:0:0:0:
172,356,71442,2,0,B|224:376|280:344,1,100,8|0,0:0|0:0,0:0:0:0:
325,207,72030,2,0,B|328:261|376:288,2,100,0|0|8,0:0|0:0|0:0,0:0:0:0:
224,72,72913,1,0,0:0:0:0:
164,152,73207,6,0,B|112:108|132:40,1,100,4|0,0:3|0:0,0:0:0:0:
280,152,73795,2,0,B|332:196|312:264,1,100,8|0,0:0|0:0,0:0:0:0:
248,324,74383,2,0,B|196:280|216:212,1,100,0|0,0:0|0:0,0:0:0:0:
224,72,74971,1,10,0:0:0:0:
224,72,75266,1,0,0:0:0:0:
280,152,75560,6,0,B|332:60,1,100,4|0,0:3|0:0,0:0:0:0:
351,276,76148,2,0,P|256:308|165:277,1,200,8|0,0:0|0:0,0:0:0:0:
168,140,77030,1,4,0:3:0:0:
288,160,77324,2,0,B|288:192|264:220,2,50,8|0|2,0:0|0:0|0:0,0:0:0:0:
216,64,77913,6,0,B|160:36|108:72,1,100,4|0,0:3|0:0,0:0:0:0:
36,256,78501,2,0,B|92:255|116:203,2,100,8|0|0,0:0|0:0|0:0,0:0:0:0:
228,132,79383,1,4,0:3:0:0:
284,248,79677,2,0,B|320:352,1,100,8|0,0:0|0:0,0:0:0:0:
388,244,80266,6,0,B|432:204|496:212,1,100,4|2,0:3|0:0,0:0:0:0:
504,220,80707,1,0,0:0:0:0:
492,244,80854,2,0,B|432:148,1,100,8|0,0:0|0:0,0:0:0:0:
343,71,81442,2,0,P|255:31|165:69,1,200
108,172,82324,1,2,0:0:0:0:
108,172,82471,1,0,0:0:0:0:
108,172,82618,6,0,B|96:120|48:92,1,100,4|0,0:3|0:0,0:0:0:0:
123,273,83207,2,0,B|176:264|200:216,1,100,8|0,0:0|0:0,0:0:0:0:
328,124,83795,2,0,B|353:220,1,100,0|2,0:0|0:0,0:0:0:0:
396,344,84383,2,0,B|350:364|298:340,1,100,8|0,0:0|0:0,0:0:0:0:
256,192,84971,5,2,0:0:0:0:
376,244,94383,5,0,0:0:0:0:
288,324,94677,1,2,0:0:0:0:
288,324,94824,1,0,0:0:0:0:
288,324,94971,2,0,B|248:280|176:284,1,100,8|0,0:0|0:0,0:0:0:0:
28,312,95560,2,0,B|32:348|72:376,2,50
100,192,96148,2,0,B|116:300,1,100,8|0,0:0|0:0,0:0:0:0:
200,360,96736,5,0,0:0:0:0:
208,240,97030,1,2,0:0:0:0:
208,240,97177,1,0,0:0:0:0:
208,240,97324,2,0,B|212:180|272:148,1,100,8|0,0:0|0:0,0:0:0:0:
396,124,97913,2,0,B|424:152|463:143,2,50
256,40,98501,2,0,B|216:16|144:20,1,100,8|0,0:0|0:0,0:0:0:0:
8,144,99089,5,0,0:0:0:0:
76,216,99383,1,2,0:0:0:0:
76,216,99530,1,0,0:0:0:0:
76,216,99677,2,0,B|180:176,1,100,8|0,0:0|0:0,0:0:0:0:
328,192,100266,2,0,B|388:208|404:268,2,100,0|0|8,0:0|0:0|0:0,0:0:0:0:
240,272,101148,1,0,0:0:0:0:
332,348,101442,5,0,0:0:0:0:
232,180,101736,1,2,0:0:0:0:
232,180,101883,1,0,0:0:0:0:
232,180,102030,2,0,B|184:144|200:68,1,100,8|0,0:0|0:0,0:0:0:0:
312,60,102618,1,2,0:0:0:0:
376,188,102913,2,0,B|360:288,2,100,0|8|0,0:0|0:0|0:0,0:0:0:0:
456,92,103795,5,4,0:3:0:0:
456,208,104089,2,0,B|444:236|420:248,2,50,2|0|8,0:0|0:0|0:0,0:0:0:0:
360,136,104677,2,0,B|337:156|310:157,2,50,2|0|0,0:0|0:0|0:0,0:0:0:0:
232,96,105266,2,0,B|188:144|224:212,2,100,0|8|0,0:0|0:0|0:0,0:0:0:0:
232,96,106001,1,0,0:0:0:0:
232,96,106148,5,4,0:3:0:0:
364,196,106442,2,0,B|337:190|321:170,2,50,2|0|8,0:0|0:0|0:0,0:0:0:0:
324,308,107030,2,0,B|302:291|296:266,2,50,2|0|0,0:0|0:0|0:0,0:0:0:0:
472,228,107618,2,0,B|492:172|448:116,2,100,0|8|0,0:0|0:0|0:0,0:0:0:0:
452,356,108501,5,4,0:3:0:0:
364,196,108795,2,0,B|324:136,2,50,2|0|8,0:0|0:0|0:0,0:0:0:0:
288,304,109383,2,0,B|277:232,2,50,2|0|0,0:0|0:0|0:0,0:0:0:0:
172,360,109971,2,0,B|144:344|108:348,1,50
100,356,110266,2,0,B|136:316|128:252,1,100,8|0,0:0|0:0,0:0:0:0:
16,128,110854,5,4,0:3:0:0:
152,180,111148,2,0,B|188:176|212:140,1,50
200,136,111442,2,0,B|228:172|288:180,1,100,8|0,0:0|0:0,0:0:0:0:
488,164,112030,1,0,0:0:0:0:
372,48,112324,1,2,0:0:0:0:
288,180,112618,2,0,B|264:232|292:296,1,100,8|0,0:0|0:0,0:0:0:0:
432,336,113207,5,4,0:3:0:0:
445,166,113501,2,0,B|408:200,2,50,2|0|8,0:0|0:0|0:0,0:0:0:0:
344,100,114089,2,0,B|324:146,2,50,2|0|0,0:0|0:0|0:0,0:0:0:0:
232,204,114677,2,0,B|264:252|332:252,2,100,0|8|0,0:0|0:0|0:0,0:0:0:0:
232,204,115413,1,0,0:0:0:0:
232,204,115560,5,4,0:3:0:0:
216,68,115854,2,0,B|272:36,2,50,2|0|8,0:0|0:0|0:0,0:0:0:0:
100,100,116442,2,0,B|137:47,2,50,2|0|0,0:0|0:0|0:0,0:0:0:0:
88,244,117030,2,0,B|27:243|0:199,2,100,0|8|0,0:0|0:0|0:0,0:0:0:0:
240,192,117913,5,4,0:3:0:0:
320,72,118207,2,0,B|344:48|376:48,2,50,2|0|8,0:0|0:0|0:0,0:0:0:0:
396,164,118795,2,0,B|427:152|456:165,2,50,2|0|0,0:0|0:0|0:0,0:0:0:0:
304,296,119383,2,0,B|264:340|192:312,2,100,0|10|0,0:0|0:0|0:0,0:0:0:0:
304,296,120118,1,0,0:0:0:0:
304,296,120266,5,4,0:3:0:0:
164,216,120560,1,0,0:0:0:0:
50,261,120854,2,0,B|20:308|32:360,1,100,2|0,0:0|0:0,0:0:0:0:
80,164,121442,1,2,0:3:0:0:
28,36,121736,1,0,0:0:0:0:
164,88,122030,2,0,B|168:144,1,50,2|0,0:0|0:0,0:0:0:0:
216,160,122618,6,0,B|204:36,1,100,4|0,0:3|0:0,0:0:0:0:
324,88,123207,2,0,B|316:160|380:220|464:200,1,200,8|0,0:0|0:0,0:0:0:0:
448,72,124089,1,4,0:3:0:0:
328,16,124383,2,0,B|300:12|280:28,2,50,8|0|2,0:0|0:0|0:0,0:0:0:0:
400,172,124971,6,0,B|384:228|312:244,1,100,4|0,0:3|0:0,0:0:0:0:
308,348,125560,2,0,B|336:144,1,200,8|0,0:0|0:0,0:0:0:0:
448,72,126442,1,4,0:3:0:0:
284,88,126736,2,0,B|224:96|168:56,1,100,8|0,0:0|0:0,0:0:0:0:
24,36,127324,6,0,B|52:148,1,100,4|2,0:3|0:0,0:0:0:0:
24,120,127766,1,0,0:0:0:0:
4,132,127913,2,0,B|44:164|40:236,1,100,8|0,0:0|0:0,0:0:0:0:
52,360,128501,2,0,B|112:360|144:304,2,100,0|0|8,0:0|0:0|0:0,0:0:0:0:
148,216,129383,1,0,0:0:0:0:
320,224,129677,6,0,B|249:294,1,100,4|0,0:3|0:0,0:0:0:0:
136,108,130266,2,0,B|209:40,1,100,8|0,0:0|0:0,0:0:0:0:
260,132,130854,2,0,B|189:202,1,100,0|0,0:0|0:0,0:0:0:0:
308,60,131442,1,10,0:0:0:0:
308,60,131736,1,0,0:0:0:0:
392,56,132030,6,0,B|432:100|416:168,1,100,4|0,0:3|0:0,0:0:0:0:
284,248,132618,2,0,B|212:276|136:228|140:152,1,200,8|0,0:0|0:0,0:0:0:0:
232,80,133501,1,4,0:3:0:0:
52,164,133795,2,0,B|24:184|-12:164,2,50,8|0|2,0:0|0:0|0:0,0:0:0:0:
152,64,134383,6,0,B|180:4|240:0,1,100,4|0,0:3|0:0,0:0:0:0:
180,200,134971,2,0,B|200:256|164:308,2,100,8|0|0,0:0|0:0|0:0,0:0:0:0:
64,68,135854,1,4,0:3:0:0:
212,120,136148,2,0,B|300:188,1,100,8|0,0:0|0:0,0:0:0:0:
392,272,136736,6,0,B|408:216|468:200,1,100,4|2,0:3|0:0,0:0:0:0:
484,208,137177,1,0,0:0:0:0:
492,184,137324,2,0,B|500:76,1,100,8|0,0:0|0:0,0:0:0:0:
376,32,137913,2,0,B|344:88|280:80|280:80|248:36|200:40,1,200,0|8,0:0|0:0,0:0:0:0:
40,44,138795,1,2,0:0:0:0:
128,200,139089,6,0,B|184:172|188:104,1,100,4|0,0:3|0:0,0:0:0:0:
40,44,139677,2,0,B|116:128,1,100,8|0,0:0|0:0,0:0:0:0:
232,248,140265,2,0,B|216:300|156:312,1,100,0|2,0:0|0:0,0:0:0:0:
256,152,140854,2,0,B|316:172|332:236,1,100,8|0,0:0|0:0,0:0:0:0:
284,344,141442,5,4,0:3:0:0:
156,340,141736,1,2,0:0:0:0:
156,340,141883,1,0,0:0:0:0:
156,340,142030,2,0,B|128:232,1,100,8|2,0:0|0:0,0:0:0:0:
60,148,142618,2,0,B|84:96|132:84|132:84|180:96|204:148,1,200,0|8,0:0|0:0,0:0:0:0:
324,136,143501,1,2,0:0:0:0:
324,136,143648,1,0,0:0:0:0:
324,136,143795,6,0,B|268:16,1,100,0|2,0:0|0:0,0:0:0:0:
288,20,144236,1,0,0:0:0:0:
308,4,144383,2,0,B|249:29|195:4,1,100,8|2,0:0|0:0,0:0:0:0:
17,57,144971,2,0,B|60:148,1,100,0|2,0:0|0:0,0:0:0:0:
208,332,145560,2,0,B|165:241,1,100,8|2,0:0|0:0,0:0:0:0:
192,108,146148,5,4,0:3:0:0:
348,216,146442,1,2,0:0:0:0:
348,216,146589,1,0,0:0:0:0:
348,216,146736,2,0,B|408:216|452:168,1,100,8|2,0:0|0:0,0:0:0:0:
320,104,147324,2,0,B|252:128|220:200|252:288,1,200,0|8,0:0|0:0,0:0:0:0:
360,340,148207,1,2,0:0:0:0:
360,340,148354,1,0,0:0:0:0:
360,340,148501,6,0,B|384:212,1,100,0|2,0:0|0:0,0:0:0:0:
372,216,148942,1,0,0:0:0:0:
348,216,149089,2,0,B|404:220|444:184,1,100,8|2,0:0|0:0,0:0:0:0:
428,44,149677,2,0,B|368:140,1,100,0|2,0:0|0:0,0:0:0:0:
400,344,150265,2,0,B|464:232,1,100,8|2,0:0|0:0,0:0:0:0:
312,152,150854,5,4,0:3:0:0:
188,88,151148,1,2,0:0:0:0:
188,88,151295,1,0,0:0:0:0:
188,88,151442,2,0,B|80:76,1,100,8|2,0:0|0:0,0:0:0:0:
116,184,152030,2,0,B|160:84|280:72,1,200,0|8,0:0|0:0,0:0:0:0:
412,72,152913,1,2,0:0:0:0:
412,72,153060,1,0,0:0:0:0:
412,72,153207,6,0,B|372:176,1,100,0|2,0:0|0:0,0:0:0:0:
360,184,153648,1,0,0:0:0:0:
336,180,153795,2,0,B|396:184|424:240,1,100,8|2,0:0|0:0,0:0:0:0:
248,296,154383,2,0,B|264:196,1,100,0|2,0:0|0:0,0:0:0:0:
324,40,154971,1,8,0:0:0:0:
196,108,155265,1,2,0:0:0:0:
56,76,155560,5,4,0:3:0:0:
156,20,155854,1,2,0:0:0:0:
156,20,156001,1,0,0:0:0:0:
156,20,156148,2,0,B|176:72|152:132,1,100,8|2,0:0|0:0,0:0:0:0:
172,228,156736,2,0,B|204:184|260:184|260:184|292:224|272:280,1,200,0|8,0:0|0:0,0:0:0:0:
148,332,157618,1,2,0:0:0:0:
148,332,157765,1,0,0:0:0:0:
148,332,157913,6,0,B|80:320|64:248,1,100,0|2,0:0|0:0,0:0:0:0:
72,248,158354,1,0,0:0:0:0:
92,236,158501,2,0,B|80:128,1,100,8|2,0:0|0:0,0:0:0:0:
256,192,159089,12,0,160265,0:0:0:0:
400,124,169677,6,0,B|376:236,1,100,4|2,0:3|0:0,0:0:0:0:
380,221,170118,1,0,0:0:0:0:
380,221,170265,1,8,0:0:0:0:
324,328,170560,1,0,0:0:0:0:
240,244,170854,2,2,B|204:228|136:248|136:248|108:200|52:184,1,200,2|8,0:0|0:0,0:0:0:0:
192,316,171736,1,2,0:0:0:0:
184,152,172030,6,0,B|176:40,1,100,4|0,0:3|0:0,0:0:0:0:
176,52,172471,1,0,0:0:0:0:
176,52,172618,1,8,0:0:0:0:
288,120,172913,2,0,B|316:132|332:164,2,50,2|0|2,0:0|0:0|0:0,0:0:0:0:
68,104,173501,1,0,0:0:0:0:
84,224,173795,2,0,B|92:284|40:320,1,100,8|0,0:0|0:0,0:0:0:0:
164,348,174383,6,0,B|292:352,1,100,4|2,0:3|0:0,0:0:0:0:
263,351,174824,1,0,0:0:0:0:
263,351,174971,1,8,0:0:0:0:
412,360,175265,1,0,0:0:0:0:
336,264,175560,2,2,P|276:200|172:212,1,200,0|8,0:0|0:0,0:0:0:0:
68,112,176442,1,2,0:0:0:0:
188,72,176736,6,0,B|300:44,1,100,4|0,0:3|0:0,0:0:0:0:
285,47,177177,1,4,0:3:0:0:
285,47,177324,1,8,0:0:0:0:
440,108,177618,2,0,B|472:124|512:112,2,50,2|0|2,0:0|0:0|0:0,0:0:0:0:
392,16,178207,1,4,0:3:0:0:
305,183,178501,2,0,B|287:244,1,50,2|0,0:0|0:0,0:0:0:0:
240,252,179089,6,0,B|274:132,1,100,4|0,0:3|0:0,0:0:0:0:
200,64,179677,2,0,B|128:68|92:132|92:132|132:152|128:204,1,200,8|0,0:0|0:0,0:0:0:0:
148,324,180560,1,4,0:3:0:0:
80,244,180854,2,0,B|56:224|56:188,2,50,8|0|2,0:0|0:0|0:0,0:0:0:0:
184,224,181442,6,0,B|296:152,1,100,4|0,0:3|0:0,0:0:0:0:
384,52,182030,2,0,B|416:92|384:144|384:144|348:200|384:248,1,200,8|0,0:0|0:0,0:0:0:0:
452,356,182913,1,4,0:3:0:0:
440,196,183207,2,0,B|324:164,1,100,8|0,0:0|0:0,0:0:0:0:
260,52,183795,6,0,B|236:100|164:100,1,100,4|2,0:3|0:0,0:0:0:0:
152,92,184236,1,0,0:0:0:0:
144,68,184383,2,0,B|136:176,1,100,8|0,0:0|0:0,0:0:0:0:
156,320,184971,2,0,B|116:368|44:356,2,100,0|0|8,0:0|0:0|0:0,0:0:0:0:
256,204,185854,1,0,0:0:0:0:
344,80,186148,6,0,B|384:32|448:24,1,100,4|0,0:3|0:0,0:0:0:0:
452,168,186736,2,0,B|412:216|348:224,1,100,8|0,0:0|0:0,0:0:0:0:
244,332,187324,2,0,B|300:305|361:325,1,100,0|0,0:0|0:0,0:0:0:0:
512,376,187913,1,10,0:0:0:0:
512,376,188207,1,0,0:0:0:0:
465,267,188501,6,0,B|452:168,1,100,4|0,0:3|0:0,0:0:0:0:
512,44,189089,2,0,B|444:20|360:48|332:124,1,200,8|0,0:0|0:0,0:0:0:0:
312,220,189971,1,4,0:3:0:0:
228,284,190265,2,0,B|200:260|204:220,2,50,8|0|2,0:0|0:0|0:0,0:0:0:0:
344,320,190854,6,0,B|448:356,1,100,4|0,0:3|0:0,0:0:0:0:
424,232,191442,2,0,B|424:168|496:136,2,100,8|0|0,0:0|0:0|0:0,0:0:0:0:
468,344,192324,1,4,0:3:0:0:
336,288,192618,2,0,B|304:244|332:168,1,100,8|0,0:0|0:0,0:0:0:0:
316,72,193207,6,0,B|240:160,1,100,4|2,0:3|0:0,0:0:0:0:
224,144,193648,1,0,0:0:0:0:
224,120,193795,2,0,B|232:184|188:220,1,100,8|0,0:0|0:0,0:0:0:0:
72,328,194383,2,0,B|44:284|52:236|92:200|92:200|112:132,1,200,0|8,0:0|0:0,0:0:0:0:
60,36,195265,1,2,0:0:0:0:
60,36,195413,1,0,0:0:0:0:
60,36,195560,6,0,B|112:56|164:32,1,100,4|0,0:3|0:0,0:0:0:0:
268,124,196148,2,0,B|312:240,1,100,8|0,0:0|0:0,0:0:0:0:
452,348,196736,2,0,B|400:328|348:352,1,100,0|2,0:0|0:0,0:0:0:0:
244,260,197324,2,0,B|200:144,1,100,8|0,0:0|0:0,0:0:0:0:
144,64,197913,6,0,B|94:63|54:103,1,100,4|0,0:3|0:0,0:0:0:0:
40,212,198501,2,0,B|20:288|84:356|160:340,1,200,8|0,0:0|0:0,0:0:0:0:
260,328,199383,1,4,0:3:0:0:
356,268,199677,2,0,B|380:268|416:300,2,50,8|0|2,0:0|0:0|0:0,0:0:0:0:
294,186,200265,6,0,B|231:168|184:218,1,100,4|0,0:3|0:0,0:0:0:0:
356,268,200854,2,0,B|404:229|413:138|327:97,1,200,8|0,0:0|0:0,0:0:0:0:
216,64,201736,1,4,0:3:0:0:
110,118,202030,2,0,B|74:166|90:218,1,100,8|0,0:0|0:0,0:0:0:0:
192,328,202618,6,0,B|215:230,1,100,4|2,0:3|0:0,0:0:0:0:
232,212,203060,1,0,0:0:0:0:
256,216,203207,2,0,B|200:216|164:180,1,100,8|0,0:0|0:0,0:0:0:0:
216,64,203795,2,0,B|256:24|336:32,2,100,0|0|8,0:0|0:0|0:0,0:0:0:0:
44,192,204677,1,0,0:0:0:0:
220,284,204971,6,0,B|180:180,1,100,4|0,0:3|0:0,0:0:0:0:
44,192,205560,2,0,B|88:304,1,100,8|0,0:0|0:0,0:0:0:0:
208,344,206148,2,0,B|228:232,1,100
152,164,206736,1,10,0:0:0:0:
152,164,207030,1,0,0:0:0:0:
244,112,207324,6,0,B|296:136|308:208,1,100,4|0,0:3|0:0,0:0:0:0:
304,292,207913,2,0,B|424:252|416:124,1,200,8|0,0:0|0:0,0:0:0:0:
344,48,208795,1,4,0:3:0:0:
244,112,209089,2,0,B|216:112|188:148,2,50,8|0|2,0:0|0:0|0:0,0:0:0:0:
432,72,209677,6,0,B|484:100|488:172,1,100,4|0,0:3|0:0,0:0:0:0:
444,264,210265,2,0,B|396:372,2,100,8|0|0,0:0|0:0|0:0,0:0:0:0:
485,151,211148,1,4,0:3:0:0:
368,176,211442,2,0,B|316:180|264:140,1,100,8|0,0:0|0:0,0:0:0:0:
148,16,212030,6,0,B|120:136,1,100,4|2,0:3|0:0,0:0:0:0:
100,120,212471,1,0,0:0:0:0:
108,96,212618,2,0,B|168:84|208:136,1,100,8|0,0:0|0:0,0:0:0:0:
236,240,213207,2,0,B|244:320|160:368|92:336,1,200,0|8,0:0|0:0,0:0:0:0:
56,208,214089,1,2,0:0:0:0:
56,208,214236,1,0,0:0:0:0:
56,208,214383,6,0,B|163:264,1,100,4|0,0:3|0:0,0:0:0:0:
308,320,214971,2,0,B|364:320|400:268,1,100,8|0,0:0|0:0,0:0:0:0:
256,160,215560,2,0,B|319:237,1,100,0|2,0:0|0:0,0:0:0:0:
400,184,216148,2,0,B|336:106,1,100,8|0,0:0|0:0,0:0:0:0:
256,32,216736,5,0,0:0:0:0:
