osu file format v5

[General]
AudioFilename: 01-hikari.mp3
AudioLeadIn: 0
PreviewTime: -1
Countdown: 1
SampleSet: Soft
EditorBookmarks: 3066,25563,50432,83531,113149,148726,159877

[Metadata]
Title:Hikari
Artist:Utada Hikaru
Creator:pokebirdd
Version:Hard

[Difficulty]
HPDrainRate:5
CircleSize:6
OverallDifficulty:8
SliderMultiplier:1.4
SliderTickRate:1

[Events]
//Background and Video events
//Break Periods
2,22666,24363
2,47534,49112
2,82492,84246
2,112670,116637
2,147156,149707
2,157953,160681
//Storyboard Layer 0 (Background)
//Storyboard Layer 1 (Failing)
//Storyboard Layer 2 (Passing)
//Storyboard Layer 3 (Foreground)
//Storyboard Sound Samples
//Background Colour Transformations
3,100,163,162,255

[TimingPoints]
2996,354,4,2,0,90

[HitObjects]
256,384,3350,1,0
256,272,4146,1,2
256,224,4412,1,2
256,128,5031,1,2
256,48,5474,1,0
192,48,5710,1,0
192,128,6182,1,0
192,248,6801,1,0
192,320,7126,2,0,B|304:304|272:208|168:184|152:184,1,233.333333333333
104,184,7952,1,2
104,120,8306,1,2
256,120,8925,1,0
144,264,9545,5,0
144,208,9899,1,2
144,168,10164,1,2
200,168,10518,1,2
200,216,10872,1,2
200,264,11226,1,2
152,264,11580,1,2
152,216,11846,2,0,B|152:32|280:24,2,256.666666666667
152,216,13970,1,0
152,144,14324,1,0
240,144,14678,2,0,B|240:240|416:248,2,210
184,184,16094,1,0
136,216,16271,5,0
136,272,16536,1,0
264,272,17067,1,0
272,192,17392,2,2,B|296:80|432:144|480:224|472:296|304:304,1,396.666666666667
328,240,18572,1,0
328,304,18926,1,4
248,304,19457,1,4
160,304,20165,2,0,B|40:120|296:48,1,350
304,144,21492,1,0
304,144,21935,1,0
304,144,22112,1,0
304,144,22466,1,0
256,192,25563,5,4
256,192,26094,1,0
256,192,26271,1,2
208,232,26537,5,0
160,304,26891,2,0,B|360:304|360:40,1,373.333333333333
320,64,28012,1,0
320,64,28248,2,0,B|200:64|200:64|200:128|200:128|328:128|328:128|328:192,2,373.333333333333
280,136,30962,5,4
280,248,31758,1,0
240,288,32024,5,0
176,296,32378,2,0,B|176:392|40:344|88:232|64:224|112:168|160:224|192:256|224:256|248:248|280:248|288:232|288:216|288:192|264:168|232:160,1,443.333333333333
176,200,33705,2,0,B|176:80|176:80|376:80|376:80|376:208|376:208|256:208,1,560
264,248,35475,5,0
264,328,36006,1,0
328,328,36449,5,4
328,328,36980,1,4
328,328,37157,1,2
328,272,37599,5,0
328,224,37865,5,4
328,224,38219,1,0
328,224,38396,1,0
328,224,38573,1,2
328,160,39192,5,4
328,160,39723,1,4
328,160,39900,1,2
328,112,40520,5,4
328,112,40874,1,0
328,112,41051,1,0
328,112,41228,1,2
280,112,41936,5,4
280,112,42378,1,4
280,112,42555,1,2
280,168,43263,5,4
280,168,43617,1,0
280,168,43794,1,0
280,168,43971,1,2
272,288,44680,6,0,B|424:288|384:112,2,233.333333333333
272,232,46361,5,0
272,176,46715,2,0,B|176:176|176:176|176:264|176:264|240:264|272:264,1,256.666666666667
248,184,50432,5,2
224,184,50609,1,2
224,216,50786,1,2
248,216,50963,1,2
248,248,51140,1,0
232,248,51376,1,0
208,248,51494,1,0
168,248,51848,1,0
168,216,52025,1,0
168,152,52556,1,0
168,112,52910,1,4
152,264,53883,5,0
176,240,54031,2,0,B|216:280|216:280|248:248|248:248|216:216,1,140
232,176,54591,1,0
152,136,55211,1,0
184,160,55388,2,0,B|224:120|224:120|256:152|256:152|224:184,1,140
232,224,55919,1,0
248,240,56096,1,0
272,272,56391,1,0
296,256,56627,1,0
312,240,56804,1,0
336,216,57099,2,2,B|448:128|448:8|296:8|128:24|32:32|40:104|152:144|248:128|304:112|344:136|280:160|232:168|280:208|264:264|264:264|208:264|208:264|208:304|208:304|280:304|280:304|280:344|280:344|208:344|208:344|208:376|208:376|304:376|304:376|336:376|336:376|400:360|408:304|376:256|336:256|312:288|328:352,1,1353.33333333333
408,88,61583,2,0,B|160:88,1,233.333333333333
160,160,63087,1,0
176,248,63707,5,4
232,248,64061,1,4
256,248,64238,1,2
288,248,64415,1,2
344,248,64769,6,0,B|416:248|416:176|328:192,1,140
336,144,65477,1,0
248,144,66273,5,0
248,192,66539,1,0
248,264,66981,1,0
296,264,67335,1,0
368,264,67866,1,0
344,176,68486,2,0,B|344:48|224:56,2,186.666666666667
312,176,69636,5,2
272,176,69902,2,2,B|272:376,1,186.666666666667
312,352,70610,1,2
312,304,70875,1,2
312,256,71141,2,4,B|384:256|384:256|384:192|384:192|304:192,1,210
312,48,72291,5,0
264,48,72645,2,2,B|264:192,1,140
264,224,73265,1,0
264,272,73619,1,0
264,296,73796,2,2,B|360:296|360:296|360:112,1,256.666666666667
360,24,75035,5,0
320,24,75300,1,0
216,24,76008,1,2
168,24,76362,1,2
168,48,76539,1,2
168,120,77070,1,0
168,200,77690,2,4,B|168:368|168:368|416:368|416:368|416:232|416:232|288:232|288:232|288:152|288:152|352:152,1,816.666666666667
256,192,80168,12,0,82292
248,304,85566,2,4,C|248:160|376:120|296:-8,2,420
256,384,88310,2,4,C|376:384|272:256|320:176,1,373.333333333333
320,96,89991,1,0
248,96,90522,1,0
280,200,91319,5,0
280,232,91496,1,0
280,256,91673,1,0
312,256,91850,1,0
312,224,92027,1,0
312,200,92204,1,0
344,200,92381,1,0
344,224,92558,1,0
344,256,92735,1,0
376,256,92912,1,0
376,224,93089,1,0
376,200,93266,1,0
408,200,93443,1,2
408,128,94092,1,0
408,96,94269,1,0
408,72,94446,1,0
376,72,94623,1,0
376,104,94800,1,0
376,128,94977,1,0
344,128,95154,1,0
344,104,95331,1,0
344,72,95508,1,0
312,72,95685,1,0
312,104,95862,1,0
312,128,96039,1,2
328,8,97514,5,0
280,8,97868,2,0,C|184:8|168:208,1,303.333333333333
168,224,98841,1,0
224,224,99195,2,0,C|400:224|344:352|216:360|216:352,2,466.666666666667
320,104,103001,5,0
272,104,103355,2,0,C|272:232|200:288|80:248,1,350
112,208,104594,1,0
112,136,105125,5,4
136,112,105302,1,4
216,48,106010,1,4
216,96,106364,1,2
216,120,106541,1,2
256,192,107514,12,0,112470
256,192,117957,1,4
304,136,118488,5,2
304,152,118636,1,2
304,224,119108,1,0
304,248,119285,1,0
304,304,119639,2,0,B|304:352|384:352|424:248|424:104|320:24|288:0|240:24,1,443.333333333333
248,88,121350,5,2
248,112,121527,1,2
248,136,121704,1,2
248,176,122058,1,0
248,216,122353,2,0,B|248:352|104:328|112:184|144:48|200:-16|240:-24|312:-16|320:96,1,560
288,160,124772,6,0,B|184:160|192:320|352:384|416:200,1,373.333333333333
384,176,126424,1,0
384,120,126837,1,0
368,120,126955,1,0
296,120,127486,5,0
272,120,127663,1,0
216,120,127958,2,0,B|112:120|160:24|232:40|280:72|280:136,1,233.333333333333
272,152,128843,6,2,B|272:416|96:408|96:208|96:112|96:32|120:-8|200:40|192:216,1,676.666666666667
272,232,130967,6,2,B|272:-32|96:-24|96:176|96:272|96:352|120:392|200:344|192:168,1,676.666666666667
240,152,133268,6,2,B|240:416|416:408|416:208|416:112|416:32|392:-8|312:40|320:216,1,676.666666666667
240,232,135569,6,2,B|240:-32|416:-24|416:176|416:272|416:352|392:392|312:344|320:168,1,676.666666666667
296,256,137870,6,2,B|248:352|136:320|112:232|104:144,1,303.333333333333
104,144,138873,2,2,B|104:80|176:8|304:40|296:232,1,350
256,192,140112,5,4
296,192,140407,5,0
344,192,140761,1,0
344,288,141469,1,0
304,288,141764,1,0
272,288,141941,2,2,B|272:216,2,70
240,288,142472,1,4
240,184,143180,1,0
288,184,143534,1,0
288,88,144242,1,0
240,88,144537,1,0
200,88,144773,2,0,B|200:192,2,93.3333333333333
296,328,151027,6,2,B|160:328|112:216,2,210
296,272,152443,2,2,B|296:160|136:192,1,210
176,256,153446,1,2
224,256,153800,2,2,B|224:120|280:40,2,210
280,256,155216,1,2
312,256,155452,1,2
344,256,155629,2,2,B|416:256|416:144|320:96,1,210
304,128,156514,2,0,B|312:376|112:344|96:176,1,396.666666666667
136,184,157753,1,0
416,384,161942,6,4,B|408:168|248:200|200:272|144:144|248:72|296:72|336:88|352:32,1,513.333333333333
272,24,164361,1,0
232,56,164715,2,0,B|232:264,1,186.666666666667
304,240,165718,1,0
272,280,166072,1,0
312,280,166367,1,0
360,280,166721,2,0,B|400:200|384:16|288:-32|208:-24,2,396.666666666667
256,192,169435,12,0,172090
