osu file format v12

[General]
AudioFilename: ~.mp3
AudioLeadIn: 0
PreviewTime: 76372
Countdown: 0
SampleSet: Soft
StackLeniency: 0.7
Mode: 0
LetterboxInBreaks: 0

[Editor]
DistanceSpacing: 1.1
BeatDivisor: 4
GridSize: 4

[Metadata]
Title:Hikari (PLANITb Remix)
TitleUnicode:光 (PLANITb Remix)
Artist:Utada Hikaru
ArtistUnicode:宇多田ヒカル
Creator:Yasora
Version:Normal
Source:Kingdom Hearts
Tags:Chain of Memories Birth by Sleep Re:coded Simple and Clean Disney Square Enix Byakugan249
BeatmapID:169281
BeatmapSetID:55836

[Difficulty]
HPDrainRate:3
CircleSize:3
OverallDifficulty:4
ApproachRate:5
SliderMultiplier:1.4
SliderTickRate:1

[Events]
//Background and Video events
0,0,"bg.jpg",0,0
//Break Periods
//Storyboard Layer 0 (Background)
//Storyboard Layer 1 (Fail)
//Storyboard Layer 2 (Pass)
//Storyboard Layer 3 (Foreground)
//Storyboard Sound Samples
//Background Colour Transformations
3,100,163,162,255

[TimingPoints]
12018,461.538461538462,4,2,0,60,1,0
15941,-100,4,2,1,70,0,0
28633,-100,4,2,1,20,0,0
30479,-100,4,2,0,70,0,0
30941,-100,4,2,1,60,0,0
45133,-100,4,2,0,70,0,0
45364,-100,4,2,1,50,0,0
59902,-100,4,2,0,70,0,0
60133,-100,4,2,1,70,0,0
74787,-100,4,2,1,20,0,0
76611,461.538461538462,4,2,0,50,1,1
76726,-100,4,2,1,80,0,1
90918,-100,4,2,1,30,0,1
91380,-100,4,2,1,40,0,0
106149,-100,4,2,0,70,0,0
106380,-100,4,2,1,70,0,0
120457,-100,4,2,1,20,0,0
122764,-100,4,2,1,5,0,0

[Colours]
Combo1 : 255,128,128
Combo2 : 0,128,255
Combo3 : 255,255,128
Combo4 : 128,128,255

[HitObjects]
256,192,12017,12,0,15248,0:0:0:0:
256,296,15710,5,4,0:0:0:0:
124,216,16171,1,8,0:0:0:0:
136,136,16402,2,0,B|140:88|172:72,1,70,2|0,0:0|0:0,0:0:0:0:
216,140,16864,2,0,B|248:168|296:152,2,70,2|8|2,0:0|0:0|0:0,0:0:0:0:
264,76,17556,5,2,0:0:0:0:
420,64,18018,1,8,0:0:0:0:
468,212,18479,1,2,0:0:0:0:
440,288,18710,2,0,B|412:316|372:308,2,70,0|8|2,0:0|0:0|0:0,0:0:0:0:
388,228,19402,6,0,B|324:196|252:212,1,140,4|8,0:0|0:0,0:0:0:0:
104,156,20325,2,0,B|180:148|224:72,1,140,2|8,0:0|0:0,0:0:0:0:
360,136,21248,6,0,B|404:200|352:280,1,140,2|8,0:0|0:0,0:0:0:0:
216,214,22171,2,0,B|172:150|220:80,1,140,2|8,0:0|0:0,0:0:0:0:
282,40,22864,1,0,0:0:0:0:
360,40,23094,6,0,B|431:69|428:152,1,140,4|8,0:0|0:0,0:0:0:0:
424,300,24018,1,0,0:0:0:0:
356,264,24248,2,0,B|324:236|316:192,2,70,2|8|2,0:0|0:0|0:0,0:0:0:0:
400,196,24941,5,2,0:0:0:0:
280,104,25402,1,8,0:0:0:0:
136,164,25864,1,2,0:0:0:0:
64,128,26094,2,0,B|44:164|68:208,2,70,0|8|2,0:0|0:0|0:0,0:0:0:0:
108,64,26787,6,0,B|176:40|260:64,1,140,4|8,0:0|0:0,0:0:0:0:
360,164,27710,2,0,B|348:248|420:292,1,140,2|8,0:0|0:0,0:0:0:0:
256,192,28633,12,4,30479,0:0:0:0:
368,280,30941,5,8,0:0:0:0:
224,332,31402,2,0,B|140:328|104:272,1,140,2|8,0:0|0:0,0:0:0:0:
56,212,32094,1,2,0:0:0:0:
36,136,32325,5,0,0:0:0:0:
188,160,32787,2,0,B|260:128|324:160,1,140,8|2,0:0|0:0,0:0:0:0:
464,224,33710,1,8,0:0:0:0:
320,300,34171,6,0,B|256:336|184:300,1,140,4|8,0:0|0:0,0:0:0:0:
112,276,34864,1,0,0:0:0:0:
80,204,35094,2,0,B|84:116|164:68,1,140,2|8,0:0|0:0,0:0:0:0:
216,60,35787,1,2,0:0:0:0:
292,68,36018,5,0,0:0:0:0:
404,176,36479,1,8,0:0:0:0:
312,300,36941,2,0,B|240:320|164:272,1,140,2|8,0:0|0:0,0:0:0:0:
108,248,37633,1,0,0:0:0:0:
76,176,37864,6,0,B|148:152|192:80,1,140,4|8,0:0|0:0,0:0:0:0:
288,204,38787,1,0,0:0:0:0:
364,176,39018,2,0,B|364:212|396:248,2,70,2|8|2,0:0|0:0|0:0,0:0:0:0:
444,180,39710,6,0,B|488:160|496:92|448:60,1,140,0|8,0:0|0:0,0:0:0:0:
376,56,40402,1,0,0:0:0:0:
304,80,40633,2,0,B|248:128|156:120,1,140,2|8,0:0|0:0,0:0:0:0:
96,120,41325,1,0,0:0:0:0:
68,192,41556,6,0,B|84:236|52:276|52:276|96:328,1,140,4|8,0:0|0:0,0:0:0:0:
228,256,42479,1,2,0:0:0:0:
288,304,42710,2,0,B|300:344|360:364,2,70,0|8|2,0:0|0:0|0:0,0:0:0:0:
364,280,43402,5,4,0:0:0:0:
424,136,43864,1,8,0:0:0:0:
280,84,44325,1,2,0:0:0:0:
216,224,44787,1,8,0:0:0:0:
68,276,45248,5,4,0:0:0:0:
104,124,45710,2,0,B|128:84|120:32,2,70,8|0|2,0:0|0:0|0:0,0:0:0:0:
68,276,46633,2,0,B|92:300|152:296,1,70,8|0,0:0|0:0,0:0:0:0:
212,300,47094,5,0,0:0:0:0:
344,212,47556,2,0,B|372:240|376:280,2,70,8|0|2,0:0|0:0|0:0,0:0:0:0:
212,132,48479,2,0,B|176:112|168:64,1,70,8|0,0:0|0:0,0:0:0:0:
96,56,48941,5,0,0:0:0:0:
72,208,49402,1,8,0:0:0:0:
200,292,49864,2,0,B|228:328|280:312,1,70,2|0,0:0|0:0,0:0:0:0:
340,312,50325,1,8,0:0:0:0:
428,184,50787,5,0,0:0:0:0:
352,52,51248,1,8,0:0:0:0:
220,164,51710,2,0,B|144:176|80:116,1,140,2|8,0:0|0:0,0:0:0:0:
28,80,52402,1,0,0:0:0:0:
16,156,52633,6,0,B|-4:196|12:224|12:224|-8:252|16:296,1,140,0|8,0:0|0:0,0:0:0:0:
84,316,53325,2,0,B|120:328|164:316,1,70,2|0,0:0|0:0,0:0:0:0:
220,280,53787,2,0,B|260:268|312:288,2,70,0|8|0,0:0|0:0|0:0,0:0:0:0:
152,240,54479,6,0,B|152:152|208:108,1,140,0|8,0:0|0:0,0:0:0:0:
352,140,55402,1,2,0:0:0:0:
408,284,55864,1,8,0:0:0:0:
256,252,56325,5,2,0:0:0:0:
104,284,56787,1,8,0:0:0:0:
80,208,57018,2,0,B|64:168|88:128,2,70,0|0|2,0:0|0:0|0:0,0:0:0:0:
152,176,57710,2,0,B|192:156|228:180,1,70,8|0,0:0|0:0,0:0:0:0:
188,248,58171,6,0,B|200:324|292:336,1,140,0|8,0:0|0:0,0:0:0:0:
440,344,59094,1,2,0:0:0:0:
444,188,59556,1,0,0:0:0:0:
444,188,60018,6,0,B|472:112|408:60,1,140,4|8,0:0|0:0,0:0:0:0:
296,168,60941,1,0,0:0:0:0:
224,200,61171,2,0,B|180:208|148:168,2,70,2|8|2,0:0|0:0|0:0,0:0:0:0:
212,120,61864,6,0,B|172:52|96:40,1,140,4|8,0:0|0:0,0:0:0:0:
4,164,62787,1,2,0:0:0:0:
32,236,63018,2,0,B|32:288|8:324,2,70,0|8|2,0:0|0:0|0:0,0:0:0:0:
108,220,63710,6,0,B|168:252|252:248,1,140,4|8,0:0|0:0,0:0:0:0:
392,212,64633,1,0,0:0:0:0:
440,152,64864,2,0,B|456:116|448:64,2,70,2|8|2,0:0|0:0|0:0,0:0:0:0:
372,108,65556,6,0,B|344:136|308:132,2,70,4|0|8,0:0|0:0|0:0,0:0:0:0:
316,52,66248,1,2,0:0:0:0:
236,44,66479,2,0,B|204:28|164:44,2,70,4|0|8,0:0|0:0|0:0,0:0:0:0:
200,116,67171,1,2,0:0:0:0:
148,176,67402,6,0,B|72:200|8:152,2,140,4|8|0,0:0|0:0|0:0,0:0:0:0:
212,224,68556,2,0,B|224:280|268:296,2,70,2|8|2,0:0|0:0|0:0,0:0:0:0:
296,220,69248,6,0,B|372:216|444:260,2,140,4|8|2,0:0|0:0|0:0,0:0:0:0:
256,148,70402,2,0,B|268:104|312:88,2,70,0|8|2,0:0|0:0|0:0,0:0:0:0:
176,132,71094,6,0,B|108:152|28:120,1,140,4|8,0:0|0:0,0:0:0:0:
40,280,72018,1,2,0:0:0:0:
112,312,72248,2,0,B|148:328|188:320,2,70,0|8|0,0:0|0:0|0:0,0:0:0:0:
40,280,72941,6,0,B|44:196|120:160,1,140,4|8,0:0|0:0,0:0:0:0:
256,124,73864,1,2,0:0:0:0:
308,184,74094,2,0,B|320:260|416:280,1,140
480,276,74787,5,4,0:0:0:0:
496,200,75018,2,0,B|496:152|508:116,2,70,2|2|2,0:0|0:0|0:0,0:0:0:0:
424,336,75941,2,0,B|388:344|356:328,2,70,2|2|2,0:0|0:0|0:0,0:0:0:0:
480,276,76611,6,0,B|436:208|360:208,1,140,4|8,0:0|0:0,0:0:0:0:
212,220,77534,1,2,0:0:0:0:
156,276,77764,2,0,B|120:300|80:288,2,70,0|8|0,0:0|0:0|0:0,0:0:0:0:
108,212,78457,5,2,0:0:0:0:
156,68,78918,1,8,0:0:0:0:
288,144,79380,2,0,B|340:196|424:220,1,140,2|8,0:0|0:0,0:0:0:0:
476,256,80072,1,2,0:0:0:0:
424,320,80303,6,0,B|364:352|280:320,1,140,4|8,0:0|0:0,0:0:0:0:
136,300,81226,1,2,0:0:0:0:
108,148,81687,2,0,B|148:160|204:144,1,70,8|0,0:0|0:0,0:0:0:0:
240,104,82149,6,0,B|308:88|392:108,1,140,4|8,0:0|0:0,0:0:0:0:
436,248,83072,1,2,0:0:0:0:
296,312,83534,1,10,0:0:0:0:
144,320,83995,6,0,B|112:256|144:184,1,140,4|8,0:0|0:0,0:0:0:0:
232,56,84918,1,2,0:0:0:0:
284,112,85149,2,0,B|312:160|344:172,2,70,0|8|0,0:0|0:0|0:0,0:0:0:0:
212,140,85841,5,4,0:0:0:0:
132,272,86303,1,8,0:0:0:0:
52,140,86764,1,2,0:0:0:0:
212,140,87226,1,8,0:0:0:0:
356,88,87687,6,0,B|380:132|360:176|360:176|392:232,1,140,4|8,0:0|0:0,0:0:0:0:
272,324,88610,1,2,0:0:0:0:
208,280,88841,2,0,B|172:280|124:300,2,70,0|8|0,0:0|0:0|0:0,0:0:0:0:
276,244,89534,6,4,B|344:204|344:120,1,140,4|8,0:0|0:0,0:0:0:0:
192,104,90457,1,0,0:0:0:0:
128,240,90918,2,0,B|120:288|68:300,1,70,2|0,0:0|0:0,0:0:0:0:
52,224,91380,6,0,B|44:144|100:88,1,140,4|2,0:0|0:0,0:0:0:0:
248,132,92303,1,0,0:0:0:0:
308,180,92534,2,0,B|296:220|272:248,1,70,2|0,0:0|0:0,0:0:0:0:
324,96,93226,6,0,B|396:76|472:104,1,140,2|0,0:0|0:0,0:0:0:0:
472,256,94149,1,2,0:0:0:0:
396,252,94380,2,0,B|384:220|396:176,2,70,0|2|0,0:0|0:0|0:0,0:0:0:0:
340,304,95072,6,0,B|284:352|200:328,1,140,2|0,0:0|0:0,0:0:0:0:
72,268,95995,1,2,0:0:0:0:
116,120,96457,2,0,B|152:132|204:116,1,70,0|0,0:0|0:0,0:0:0:0:
228,56,96918,6,0,B|272:80|276:152|236:184,1,140,2|0,0:0|0:0,0:0:0:0:
168,312,97841,1,2,0:0:0:0:
320,332,98303,1,2,0:0:0:0:
336,180,98764,6,0,B|312:252|240:284,1,140,2|0,0:0|0:0,0:0:0:0:
128,180,99687,2,0,B|152:108|224:76,1,140,2|0,0:0|0:0,0:0:0:0:
228,232,100610,6,0,B|208:308|140:344,1,140,2|0,0:0|0:0,0:0:0:0:
24,244,101534,2,0,B|44:168|112:132,1,140,2|0,0:0|0:0,0:0:0:0:
232,44,102457,5,2,0:0:0:0:
356,136,102918,2,0,B|364:180|328:224,2,70,2|0|0,0:0|0:0|0:0,0:0:0:0:
204,152,103841,1,2,0:0:0:0:
60,208,104303,6,0,B|68:288|168:308,1,140,2|0,0:0|0:0,0:0:0:0:
300,324,105226,1,2,0:0:0:0:
452,292,105687,2,0,B|416:284|396:252,1,70,0|2,0:0|0:0,0:0:0:0:
464,212,106149,5,4,0:0:0:0:
344,116,106610,1,8,0:0:0:0:
192,148,107072,1,0,0:0:0:0:
132,196,107303,2,0,B|96:216|48:200,2,70,2|8|2,0:0|0:0|0:0,0:0:0:0:
204,228,107995,6,0,B|260:276|360:264,1,140,2|8,0:0|0:0,0:0:0:0:
416,136,108918,1,2,0:0:0:0:
364,80,109149,2,0,B|344:48|304:32,2,70,0|8|2,0:0|0:0|0:0,0:0:0:0:
336,152,109841,6,0,B|300:176|288:200|288:200|208:200,1,140,4|8,0:0|0:0,0:0:0:0:
64,220,110764,2,0,B|64:304|160:324,1,140,2|8,0:0|0:0,0:0:0:0:
264,224,111687,6,0,B|264:140|168:120,1,140,2|8,0:0|0:0,0:0:0:0:
308,32,112610,2,0,B|308:116|404:136,1,140,2|8,0:0|0:0,0:0:0:0:
444,188,113303,1,2,0:0:0:0:
496,248,113534,6,0,B|460:280|416:264|416:264|380:324,1,140,4|8,0:0|0:0,0:0:0:0:
236,280,114457,1,0,0:0:0:0:
164,308,114687,2,0,B|124:324|84:296,2,70,2|8|2,0:0|0:0|0:0,0:0:0:0:
136,236,115380,5,2,0:0:0:0:
268,152,115841,1,8,0:0:0:0:
136,72,116303,1,2,0:0:0:0:
68,112,116534,2,0,B|44:88|12:72,2,70,0|8|2,0:0|0:0|0:0,0:0:0:0:
80,188,117226,6,0,B|60:272|116:324,1,140,4|8,0:0|0:0,0:0:0:0:
252,260,118149,1,2,0:0:0:0:
396,316,118610,1,8,0:0:0:0:
468,180,119072,5,2,0:0:0:0:
380,52,119534,1,8,0:0:0:0:
232,100,119995,2,0,B|172:132|92:100,1,140,2|0,0:0|0:0,0:0:0:0:
256,192,120918,12,0,122764,0:0:0:0:
