osu file format v12

[General]
AudioFilename: ~.mp3
AudioLeadIn: 0
PreviewTime: 76372
Countdown: 0
SampleSet: Soft
StackLeniency: 0.7
Mode: 0
LetterboxInBreaks: 0

[Editor]
DistanceSpacing: 0.9
BeatDivisor: 4
GridSize: 4

[Metadata]
Title:Hikari (PLANITb Remix)
TitleUnicode:光 (PLANITb Remix)
Artist:Utada Hikaru
ArtistUnicode:宇多田ヒカル
Creator:Yasora
Version:Insane
Source:Kingdom Hearts
Tags:Chain of Memories Birth by Sleep Re:coded Simple and Clean Disney Square Enix Byakugan249
BeatmapID:218276
BeatmapSetID:55836

[Difficulty]
HPDrainRate:7
CircleSize:4
OverallDifficulty:7
ApproachRate:8
SliderMultiplier:2
SliderTickRate:2

[Events]
//Background and Video events
0,0,"bg.jpg",0,0
//Break Periods
//Storyboard Layer 0 (Background)
//Storyboard Layer 1 (Fail)
//Storyboard Layer 2 (Pass)
//Storyboard Layer 3 (Foreground)
//Storyboard Sound Samples
//Background Colour Transformations
3,100,163,162,255

[TimingPoints]
12018,461.538461538462,4,2,0,60,1,0
15248,-100,4,2,0,5,0,0
15710,-100,4,2,0,60,0,0
15941,-100,4,2,1,70,0,0
28633,-200,4,2,1,40,0,0
30479,-100,4,2,0,70,0,0
30594,-100,4,2,1,60,0,0
35441,-100,4,2,2,50,0,0
35671,-100,4,2,1,70,0,0
45133,-100,4,2,0,70,0,0
45364,-100,4,2,1,50,0,0
57594,-100,4,2,2,60,0,0
57825,-100,4,2,1,50,0,0
58518,-100,4,2,2,60,0,0
58748,-100,4,2,1,50,0,0
59556,-200,4,2,1,50,0,0
59902,-100,4,2,0,70,0,0
60133,-100,4,2,1,70,0,0
67748,-100,4,2,2,70,0,0
67979,-100,4,2,1,70,0,0
69594,-100,4,2,2,70,0,0
69825,-100,4,2,1,70,0,0
74787,-100,4,2,1,30,0,0
75018,-100,4,2,1,40,0,0
76611,461.538461538462,4,2,0,80,1,1
76726,-100,4,2,1,80,0,1
78803,-100,4,2,2,60,0,1
79034,-100,4,2,1,80,0,1
84341,-100,4,2,2,70,0,1
84572,-100,4,2,1,80,0,1
85264,-100,4,2,2,70,0,1
85495,-100,4,2,1,80,0,1
90918,-200,4,2,1,30,0,1
91380,-100,4,2,1,40,0,0
105687,-200,4,2,1,50,0,0
106149,-100,4,2,0,60,0,0
106380,-100,4,2,1,70,0,0
120457,-200,4,2,1,20,0,0
122764,-200,4,2,1,5,0,0

[Colours]
Combo1 : 255,128,128
Combo2 : 0,128,255
Combo3 : 255,255,128
Combo4 : 128,128,255

[HitObjects]
256,192,12017,12,0,15248,0:0:0:0:
256,192,15710,5,4,0:0:0:0:
320,104,15941,2,0,B|364:80|364:80|416:80,1,100,0|8,0:0|0:0,0:0:0:0:
488,208,16402,2,0,B|444:184|444:184|392:184,1,100,2|0,0:0|0:0,0:0:0:0:
324,272,16864,1,2,0:0:0:0:
180,272,17094,1,8,0:0:0:0:
128,136,17325,1,2,0:0:0:0:
256,44,17556,6,0,P|304:80|344:96,1,100,2|0,0:0|0:0,0:0:0:0:
448,124,18018,1,8,0:0:0:0:
472,232,18248,1,0,0:0:0:0:
460,268,18364,1,2,0:0:0:0:
448,300,18479,1,0,0:0:0:0:
356,240,18710,1,0,0:0:0:0:
256,288,18941,1,10,0:0:0:0:
152,240,19171,1,2,0:0:0:0:
216,96,19402,6,0,B|248:88|256:68|256:68|264:88|304:96,1,100,4|0,0:0|0:0,0:0:0:0:
256,200,19864,1,8,0:0:0:0:
152,240,20094,2,0,P|124:288|92:328,1,100,0|2,0:0|0:0,0:0:0:0:
256,312,20556,1,0,0:0:0:0:
356,240,20787,2,0,P|384:288|416:328,1,100,8|2,0:0|0:0,0:0:0:0:
468,204,21248,6,0,P|432:152|408:96,1,100,4|0,0:0|0:0,0:0:0:0:
316,76,21710,1,8,0:0:0:0:
216,32,21941,2,0,P|196:84|228:132,1,100,0|2,0:0|0:0,0:0:0:0:
296,192,22402,1,0,0:0:0:0:
212,264,22633,1,10,0:0:0:0:
180,248,22748,1,2,0:0:0:0:
140,264,22864,1,2,0:0:0:0:
104,248,22979,1,0,0:0:0:0:
64,264,23094,6,0,P|44:220|40:148,1,100,4|0,0:0|0:0,0:0:0:0:
88,72,23556,1,8,0:0:0:0:
192,40,23787,2,0,P|216:43|240:52,2,50,0|2|0,0:0|0:0|0:0,0:0:0:0:
180,160,24248,1,2,0:0:0:0:
304,100,24479,1,8,0:0:0:0:
344,224,24710,1,2,0:0:0:0:
344,224,24941,6,0,L|380:320,1,100,2|0,0:0|0:0,0:0:0:0:
480,364,25402,1,8,0:0:0:0:
508,256,25633,2,0,L|520:192,2,50,0|2|0,0:0|0:0|0:0,0:0:0:0:
404,224,26094,1,0,0:0:0:0:
512,124,26325,1,10,0:0:0:0:
408,24,26556,1,2,0:0:0:0:
296,120,26787,6,0,P|248:128|188:124,1,100,4|0,0:0|0:0,0:0:0:0:
160,120,27133,1,0,0:0:0:0:
124,112,27248,1,8,0:0:0:0:
48,192,27479,2,0,P|72:248|76:296,1,100,0|2,0:0|0:0,0:0:0:0:
176,336,27941,2,0,P|224:352|280:332,1,100,0|8,0:0|0:0,0:0:0:0:
224,240,28402,1,0,0:0:0:0:
360,276,28633,6,0,P|404:260|460:284,1,100,0|0,0:0|0:0,0:0:0:0:
500,248,29325,1,0,0:0:0:0:
500,248,29556,2,0,L|512:80,1,150
412,48,30479,6,0,P|344:36|312:28,1,100,4|0,0:0|0:0,0:0:0:0:
212,72,30941,1,8,0:0:0:0:
112,32,31171,2,0,P|81:39|13:51,1,100,2|0,0:0|0:0,0:0:0:0:
8,160,31633,1,2,0:0:0:0:
108,292,31864,1,8,0:0:0:0:
240,188,32094,1,2,0:0:0:0:
136,76,32325,6,0,L|104:16,1,50,0|2,0:0|0:0,0:0:0:0:
124,208,32671,2,0,L|152:264,1,50,0|10,0:0|0:0,0:0:0:0:
192,352,33018,1,0,0:0:0:0:
284,296,33248,2,0,P|328:272|380:280,1,100,2|0,0:0|0:0,0:0:0:0:
476,320,33710,1,8,0:0:0:0:
508,216,33941,1,0,0:0:0:0:
508,216,34056,1,0,0:0:0:0:
508,216,34171,6,0,P|496:152|468:120,1,100,4|0,0:0|0:0,0:0:0:0:
392,200,34633,1,8,0:0:0:0:
296,148,34864,2,0,P|248:152|196:148,1,100
112,80,35325,2,0,B|68:116|68:188|116:220,1,150,2|2,0:0|0:0,0:0:0:0:
152,244,35787,1,0,0:0:0:0:
380,248,36018,6,0,L|400:184,1,50,0|2,0:0|0:0,0:0:0:0:
272,256,36364,2,0,L|248:320,1,50,0|10,0:0|0:0,0:0:0:0:
208,172,36710,2,0,B|224:136|224:136|224:112|224:112|240:76,2,100,0|2|0,0:0|0:0|0:0,0:0:0:0:
100,188,37402,1,8,0:0:0:0:
88,296,37633,1,0,0:0:0:0:
188,336,37864,6,0,P|224:364|280:372,1,100,4|0,0:0|0:0,0:0:0:0:
372,316,38325,1,8,0:0:0:0:
432,224,38556,2,0,L|456:112,1,100,2|0,0:0|0:0,0:0:0:0:
400,28,39018,1,2,0:0:0:0:
284,84,39248,1,8,0:0:0:0:
152,84,39479,1,2,0:0:0:0:
60,176,39710,6,0,L|48:232,1,50,0|2,0:0|0:0,0:0:0:0:
152,84,40056,2,0,L|164:16,1,50,0|10,0:0|0:0,0:0:0:0:
216,192,40402,2,0,B|208:236|208:236|212:256|212:256|200:312,2,100,0|2|0,0:0|0:0|0:0,0:0:0:0:
320,112,41094,1,8,0:0:0:0:
400,208,41325,1,0,0:0:0:0:
304,300,41556,6,0,P|260:324|204:324,1,100,4|0,0:0|0:0,0:0:0:0:
228,216,42018,1,8,0:0:0:0:
124,180,42248,1,0,0:0:0:0:
124,180,42364,1,2,0:0:0:0:
124,180,42479,1,0,0:0:0:0:
40,104,42710,1,2,0:0:0:0:
124,16,42941,1,8,0:0:0:0:
204,104,43171,5,2,0:0:0:0:
204,272,43402,1,4,0:0:0:0:
40,272,43633,1,0,0:0:0:0:
40,104,43864,1,8,0:0:0:0:
204,104,44094,5,2,0:0:0:0:
384,100,44325,1,0,0:0:0:0:
468,272,44556,1,2,0:0:0:0:
284,272,44787,1,12,0:0:0:0:
464,172,45018,5,10,0:0:0:0:
284,172,45248,1,4,0:0:0:0:
196,252,45479,5,2,0:0:0:0:
152,236,45594,1,0,0:0:0:0:
120,208,45710,1,10,0:0:0:0:
104,168,45825,1,0,0:0:0:0:
100,124,45941,1,0,0:0:0:0:
120,84,46056,1,0,0:0:0:0:
156,56,46171,2,0,P|208:32|256:36,1,100,2|0,0:0|0:0,0:0:0:0:
284,52,46518,2,0,P|336:104|424:112,1,150,2|2,0:0|0:0,0:0:0:0:
480,236,47094,5,0,0:0:0:0:
440,332,47325,1,2,0:0:0:0:
404,308,47441,1,0,0:0:0:0:
384,268,47556,1,10,0:0:0:0:
384,224,47671,1,0,0:0:0:0:
400,180,47787,1,0,0:0:0:0:
428,148,47902,1,0,0:0:0:0:
464,120,48018,2,0,P|436:80|380:52,1,100,2|0,0:0|0:0,0:0:0:0:
344,56,48364,1,0,0:0:0:0:
300,56,48479,2,0,P|252:72|216:112,1,100,10|0,0:0|0:0,0:0:0:0:
104,248,48941,5,0,0:0:0:0:
200,192,49171,2,0,P|252:180|300:192,1,100,0|8,0:0|0:0,0:0:0:0:
376,268,49633,2,0,P|408:312|460:344,1,100,0|2,0:0|0:0,0:0:0:0:
472,232,50094,2,0,P|436:192|416:132,1,100,0|8,0:0|0:0,0:0:0:0:
340,72,50556,5,0,0:0:0:0:
300,52,50671,1,0,0:0:0:0:
256,52,50787,1,2,0:0:0:0:
184,136,51018,1,0,0:0:0:0:
224,156,51133,1,0,0:0:0:0:
268,156,51249,1,10,0:0:0:0:
324,252,51479,2,0,L|336:372,1,100,0|2,0:0|0:0,0:0:0:0:
428,292,51941,1,0,0:0:0:0:
428,184,52171,2,0,L|452:76,1,100,10|0,0:0|0:0,0:0:0:0:
304,112,52633,6,0,B|236:112|236:112|196:188|104:184,1,200,0|8,0:0|0:0,0:0:0:0:
88,184,53210,1,2,0:0:0:0:
44,184,53325,1,0,0:0:0:0:
64,292,53556,1,0,0:0:0:0:
164,340,53787,2,0,L|264:340,1,100,2|8,0:0|0:0,0:0:0:0:
308,340,54133,2,0,P|328:288|384:272,1,100,2|0,0:0|0:0,0:0:0:0:
412,272,54479,1,0,0:0:0:0:
480,64,54941,6,0,P|428:112|412:152,1,100,8|0,0:0|0:0,0:0:0:0:
304,136,55402,2,0,P|292:110|240:62,1,100,2|0,0:0|0:0,0:0:0:0:
188,160,55864,1,8,0:0:0:0:
124,76,56094,1,2,0:0:0:0:
240,63,56325,1,2,0:0:0:0:
436,88,56556,6,0,P|456:116|464:144,2,50,0|0|8,0:0|0:0|0:0,0:0:0:0:
356,164,57018,1,0,0:0:0:0:
320,264,57248,2,0,P|272:332|192:344,2,150,0|0|2,0:0|0:0|0:0,0:0:0:0:
216,232,58171,6,0,P|204:148|256:80,2,150,0|2|0,0:0|0:0|0:0,0:0:0:0:
308,176,59094,2,0,P|320:232|368:260,1,100,2|0,0:0|0:0,0:0:0:0:
408,176,59556,2,0,L|512:176,1,100,2|4,0:0|0:0,0:0:0:0:
408,176,60248,5,0,0:0:0:0:
364,76,60479,2,0,P|312:56|268:16,1,100,8|0,0:0|0:0,0:0:0:0:
176,72,60941,1,2,0:0:0:0:
92,144,61171,2,0,P|64:192|96:220,1,100,2|8,0:0|0:0,0:0:0:0:
192,180,61633,1,2,0:0:0:0:
256,268,61864,5,4,0:0:0:0:
320,180,62094,1,0,0:0:0:0:
424,220,62325,2,0,P|449:193|421:145,1,100,8|0,0:0|0:0,0:0:0:0:
360,52,62787,1,2,0:0:0:0:
256,92,63018,1,0,0:0:0:0:
256,92,63133,1,0,0:0:0:0:
256,92,63248,1,10,0:0:0:0:
152,52,63479,1,2,0:0:0:0:
112,148,63710,5,4,0:0:0:0:
184,232,63941,1,0,0:0:0:0:
260,312,64171,2,0,P|304:336|348:308,1,100,8|0,0:0|0:0,0:0:0:0:
400,220,64633,2,0,P|400:164|440:104,1,100,2|0,0:0|0:0,0:0:0:0:
448,92,64979,1,0,0:0:0:0:
488,72,65094,1,8,0:0:0:0:
492,184,65325,1,2,0:0:0:0:
344,88,65556,5,4,0:0:0:0:
232,88,65787,2,0,L|144:36,2,100,0|8|2,0:0|0:0|0:0,0:0:0:0:
152,164,66479,2,0,L|44:164,1,100,2|0,0:0|0:0,0:0:0:0:
208,256,66941,2,0,L|108:292,1,100,10|2,0:0|0:0,0:0:0:0:
300,328,67402,6,0,B|360:304|360:304|376:248|432:220,2,150,4|2|0,0:0|0:0|0:0,0:0:0:0:
280,220,68325,1,2,0:0:0:0:
364,148,68556,2,0,P|428:140|468:160,1,100,0|8,0:0|0:0,0:0:0:0:
500,256,69018,1,2,0:0:0:0:
364,148,69248,6,0,B|332:104|288:84|224:104,2,150,4|2|0,0:0|0:0|0:0,0:0:0:0:
272,212,70171,1,2,0:0:0:0:
184,276,70402,2,0,P|216:312|272:320,1,100,0|8,0:0|0:0,0:0:0:0:
360,264,70864,1,2,0:0:0:0:
172,200,71094,6,0,P|168:144|140:112,2,100,4|0|8,0:0|0:0|0:0,0:0:0:0:
60,192,71787,1,2,0:0:0:0:
104,292,72018,2,0,P|108:348|136:380,2,100,0|2|8,0:0|0:0|0:0,0:0:0:0:
216,296,72710,1,2,0:0:0:0:
280,204,72941,6,0,P|324:148|380:136,2,100,4|0|8,0:0|0:0|0:0,0:0:0:0:
240,100,73633,1,2,0:0:0:0:
196,200,73864,2,0,P|152:144|96:132,2,100,0|2|8,0:0|0:0|0:0,0:0:0:0:
240,100,74556,1,0,0:0:0:0:
240,100,74787,1,4,0:0:0:0:
344,60,75018,5,2,0:0:0:0:
408,152,75248,1,2,0:0:0:0:
416,260,75479,1,2,0:0:0:0:
344,60,75941,5,2,0:0:0:0:
324,168,76171,1,2,0:0:0:0:
252,248,76402,1,2,0:0:0:0:
152,120,76611,6,0,P|120:76|64:68,1,100,4|0,0:0|0:0,0:0:0:0:
48,172,77072,1,8,0:0:0:0:
124,252,77303,2,0,P|152:296|212:304,1,100,0|2,0:0|0:0,0:0:0:0:
304,296,77764,1,0,0:0:0:0:
304,184,77995,1,8,0:0:0:0:
384,108,78226,1,0,0:0:0:0:
464,184,78457,6,0,B|488:216|468:256|468:256|448:296|480:344,2,150,4|2|0,0:0|0:0|0:0,0:0:0:0:
384,108,79380,2,0,P|332:68|320:36,1,100,2|0,0:0|0:0,0:0:0:0:
216,212,79841,2,0,P|268:172|280:140,1,100,10|2,0:0|0:0,0:0:0:0:
172,120,80303,6,0,P|136:80|88:64,1,100,4|0,0:0|0:0,0:0:0:0:
80,172,80764,2,0,P|32:152|-20:156,1,100,8|0,0:0|0:0,0:0:0:0:
8,264,81226,1,2,0:0:0:0:
52,280,81341,1,2,0:0:0:0:
88,304,81457,1,0,0:0:0:0:
196,308,81687,2,0,P|240:272|288:264,1,100,8|2,0:0|0:0,0:0:0:0:
392,276,82149,5,4,0:0:0:0:
468,196,82380,1,0,0:0:0:0:
436,96,82611,2,0,P|408:48|360:36,1,100,8|0,0:0|0:0,0:0:0:0:
332,144,83072,2,0,L|236:228,1,100,2|0,0:0|0:0,0:0:0:0:
80,244,83534,2,0,L|176:160,1,100,10|0,0:0|0:0,0:0:0:0:
272,68,83995,6,0,B|320:44|320:44|368:68|424:36,2,150,4|2|0,0:0|0:0|0:0,0:0:0:0:
296,252,84918,2,0,B|248:276|248:276|200:252|144:284,2,150,4|2|0,0:0|0:0|0:0,0:0:0:0:
272,148,85841,5,4,0:0:0:0:
164,60,86072,1,0,0:0:0:0:
56,136,86303,1,10,0:0:0:0:
84,260,86534,1,0,0:0:0:0:
212,276,86764,2,0,P|256:308|300:332,1,100,2|0,0:0|0:0,0:0:0:0:
464,256,87226,2,0,P|420:224|376:200,1,100,10|0,0:0|0:0,0:0:0:0:
340,52,87687,6,0,P|272:64|228:84,2,100,4|0|8,0:0|0:0|0:0,0:0:0:0:
436,108,88380,1,0,0:0:0:0:
444,216,88611,2,0,P|456:276|472:320,2,100,0|2|8,0:0|0:0|0:0,0:0:0:0:
436,108,89303,1,2,0:0:0:0:
208,144,89534,6,0,P|168:112|108:124,1,100,4|0,0:0|0:0,0:0:0:0:
304,240,89995,2,0,P|344:272|404:260,1,100,8|0,0:0|0:0,0:0:0:0:
208,240,90457,2,0,P|168:272|108:260,1,100,2|0,0:0|0:0,0:0:0:0:
304,144,90918,2,0,P|344:112|404:124,1,100,0|4,0:0|0:0,0:0:0:0:
468,320,91841,5,0,0:0:0:0:
360,348,92072,1,0,0:0:0:0:
316,248,92303,1,0,0:0:0:0:
114,311,92534,2,0,L|208:276,1,100,2|0,0:0|0:0,0:0:0:0:
232,168,92995,1,0,0:0:0:0:
348,64,93226,6,0,B|404:40|464:80|464:152,2,150,2|2|2,0:0|0:0|0:0,0:0:0:0:
256,124,94149,1,0,0:0:0:0:
184,248,94380,1,2,0:0:0:0:
328,248,94611,1,2,0:0:0:0:
328,248,94841,1,2,0:0:0:0:
156,60,95072,6,0,P|64:60|64:180,1,200,2|0,0:0|0:0,0:0:0:0:
96,232,95764,1,2,0:0:0:0:
112,120,95995,2,0,P|204:156|304:108,1,200,2|0,0:0|0:0,0:0:0:0:
376,48,96687,1,0,0:0:0:0:
468,192,96918,6,0,L|432:288,1,100,2|0,0:0|0:0,0:0:0:0:
328,252,97380,1,2,0:0:0:0:
328,252,97495,1,0,0:0:0:0:
256,168,97726,1,2,0:0:0:0:
256,168,97841,1,0,0:0:0:0:
156,124,98072,2,0,L|48:88,2,100,0|2|0,0:0|0:0|0:0,0:0:0:0:
232,268,98764,6,0,P|300:300|376:296,2,150,2|2|0,0:0|0:0|0:0,0:0:0:0:
156,124,99687,2,0,P|88:92|12:96,2,150,2|2|0,0:0|0:0|0:0,0:0:0:0:
384,132,100611,5,2,0:0:0:0:
292,72,100841,1,2,0:0:0:0:
216,256,101072,1,0,0:0:0:0:
288,172,101303,1,2,0:0:0:0:
108,84,101534,5,2,0:0:0:0:
192,156,101764,1,2,0:0:0:0:
20,256,101995,1,0,0:0:0:0:
88,188,102226,1,2,0:0:0:0:
264,332,102457,6,0,P|332:320|376:296,2,100,0|0|2,0:0|0:0|0:0,0:0:0:0:
152,328,103149,2,0,P|84:340|40:364,2,100,0|0|0,0:0|0:0|0:0,0:0:0:0:
212,232,103841,1,2,0:0:0:0:
212,232,104303,6,0,B|172:264|172:264|148:312,1,100,2|0,0:0|0:0,0:0:0:0:
296,152,104764,2,0,B|336:120|336:120|360:72,1,100,2|0,0:0|0:0,0:0:0:0:
216,152,105226,2,0,B|176:120|176:120|152:72,1,100,2|0,0:0|0:0,0:0:0:0:
296,232,105687,2,0,B|336:264|336:264|360:312,1,100,0|4,0:0|0:0,0:0:0:0:
456,56,106611,5,8,0:0:0:0:
352,92,106841,2,0,P|304:96|260:152,1,100,2|0,0:0|0:0,0:0:0:0:
352,200,107303,1,2,0:0:0:0:
184,224,107534,1,8,0:0:0:0:
76,104,107764,1,2,0:0:0:0:
72,220,107995,6,0,P|44:272|16:312,2,100,2|0|8,0:0|0:0|0:0,0:0:0:0:
76,104,108687,1,0,0:0:0:0:
76,104,108803,1,2,0:0:0:0:
76,104,108918,1,0,0:0:0:0:
184,76,109149,2,0,P|224:32|272:16,2,100,0|10|2,0:0|0:0|0:0,0:0:0:0:
288,116,109841,6,0,P|328:176|376:200,1,100,4|0,0:0|0:0,0:0:0:0:
448,240,110303,1,8,0:0:0:0:
424,48,110534,2,0,P|420:96|452:152,1,100,2|0,0:0|0:0,0:0:0:0:
448,240,110995,1,0,0:0:0:0:
400,340,111226,1,10,0:0:0:0:
292,332,111457,1,2,0:0:0:0:
264,224,111687,6,0,B|240:176|240:176|200:152,1,100,4|0,0:0|0:0,0:0:0:0:
160,256,112149,1,10,0:0:0:0:
200,152,112380,2,0,B|150:130|150:130|104:137,1,100,0|0,0:0|0:0,0:0:0:0:
48,232,112841,1,2,0:0:0:0:
160,256,113072,1,8,0:0:0:0:
176,296,113187,1,2,0:0:0:0:
212,328,113303,1,2,0:0:0:0:
256,340,113418,1,2,0:0:0:0:
300,332,113534,6,0,P|360:308|376:256,1,100,4|0,0:0|0:0,0:0:0:0:
396,172,113995,1,8,0:0:0:0:
352,72,114226,2,0,P|312:104|292:156,1,100,2|0,0:0|0:0,0:0:0:0:
192,196,114687,1,2,0:0:0:0:
308,300,114918,1,8,0:0:0:0:
396,172,115149,1,2,0:0:0:0:
284,76,115380,6,0,P|224:48|176:32,2,100,2|0|8,0:0|0:0|0:0,0:0:0:0:
392,52,116072,1,0,0:0:0:0:
392,52,116187,1,2,0:0:0:0:
392,52,116303,1,0,0:0:0:0:
284,76,116534,1,0,0:0:0:0:
296,184,116764,2,0,P|296:240|280:304,1,100,10|2,0:0|0:0,0:0:0:0:
216,120,117226,6,0,P|192:208|188:320,1,200,4|8,0:0|0:0,0:0:0:0:
292,348,117918,1,0,0:0:0:0:
292,348,118034,1,2,0:0:0:0:
292,348,118149,1,0,0:0:0:0:
372,272,118380,2,0,P|380:216|428:180,1,100,0|10,0:0|0:0,0:0:0:0:
476,100,118841,1,0,0:0:0:0:
476,100,119072,6,0,P|448:52|404:32,2,100,4|0|8,0:0|0:0|0:0,0:0:0:0:
328,224,119764,2,0,P|284:264|212:264,1,100,2|0,0:0|0:0,0:0:0:0:
212,112,120226,1,2,0:0:0:0:
136,112,120457,6,0,L|28:112,1,100,0|4,0:0|0:0,0:0:0:0:
256,192,121034,12,0,122764,0:0:0:0:
