osu file format v12

[General]
AudioFilename: ~.mp3
AudioLeadIn: 0
PreviewTime: 76372
Countdown: 0
SampleSet: Soft
StackLeniency: 0.7
Mode: 0
LetterboxInBreaks: 0

[Editor]
DistanceSpacing: 1.1
BeatDivisor: 4
GridSize: 4

[Metadata]
Title:Hikari (PLANITb Remix)
TitleUnicode:光 (PLANITb Remix)
Artist:Utada Hikaru
ArtistUnicode:宇多田ヒカル
Creator:Yasora
Version:Hard
Source:Kingdom Hearts
Tags:Chain of Memories Birth by Sleep Re:coded Simple and Clean Disney Square Enix Byakugan249
BeatmapID:169159
BeatmapSetID:55836

[Difficulty]
HPDrainRate:5
CircleSize:4
OverallDifficulty:6
ApproachRate:7
SliderMultiplier:1.6
SliderTickRate:2

[Events]
//Background and Video events
0,0,"bg.jpg",0,0
//Break Periods
//Storyboard Layer 0 (Background)
//Storyboard Layer 1 (Fail)
//Storyboard Layer 2 (Pass)
//Storyboard Layer 3 (Foreground)
//Storyboard Sound Samples
//Background Colour Transformations
3,100,163,162,255

[TimingPoints]
12018,461.538461538462,4,2,0,60,1,0
15248,-100,4,2,0,5,0,0
15710,-100,4,2,0,60,0,0
15941,-100,4,2,1,70,0,0
28633,-200,4,2,1,40,0,0
30479,-100,4,2,0,70,0,0
30594,-100,4,2,1,60,0,0
35441,-100,4,2,2,50,0,0
35671,-100,4,2,1,70,0,0
45133,-100,4,2,0,70,0,0
45364,-100,4,2,1,50,0,0
58518,-100,4,2,2,50,0,0
58748,-100,4,2,1,70,0,0
59094,-200,4,2,1,70,0,0
59902,-100,4,2,0,70,0,0
60133,-100,4,2,1,60,0,0
74787,-100,4,2,1,30,0,0
75018,-100,4,2,1,20,0,0
76611,461.538461538462,4,2,0,80,1,1
76726,-100,4,2,1,80,0,1
78803,-100,4,2,2,70,0,1
79034,-100,4,2,1,80,0,1
84341,-100,4,2,2,70,0,1
84572,-100,4,2,1,80,0,1
85264,-100,4,2,2,70,0,1
85495,-100,4,2,1,80,0,1
90918,-100,4,2,1,30,0,1
91380,-100,4,2,1,40,0,0
106149,-100,4,2,0,60,0,0
106380,-100,4,2,1,70,0,0
120457,-200,4,2,1,20,0,0
122764,-200,4,2,1,5,0,0

[Colours]
Combo1 : 255,128,128
Combo2 : 0,128,255
Combo3 : 255,255,128
Combo4 : 128,128,255

[HitObjects]
256,192,12017,12,0,15248,0:0:0:0:
376,264,15710,5,4,0:0:0:0:
400,172,15941,2,0,P|384:128|332:112,1,80,0|8,0:0|0:0,0:0:0:0:
308,196,16402,2,0,P|288:212|276:248,2,40,0|2|0,0:0|0:0|0:0,0:0:0:0:
376,264,16864,1,2,0:0:0:0:
300,328,17094,1,8,0:0:0:0:
204,288,17325,1,2,0:0:0:0:
144,192,17556,6,0,P|140:124|64:76,1,160,2|8,0:0|0:0,0:0:0:0:
56,164,18248,2,0,P|48:212|72:256,1,80,2|0,0:0|0:0,0:0:0:0:
132,304,18710,1,0,0:0:0:0:
228,288,18941,2,0,P|276:260|320:256,1,80,10|2,0:0|0:0,0:0:0:0:
396,240,19402,5,4,0:0:0:0:
352,156,19633,2,0,P|344:116|360:72,2,80,0|8|0,0:0|0:0|0:0,0:0:0:0:
396,240,20325,1,2,0:0:0:0:
476,296,20556,2,0,P|484:332|472:376,2,80,0|8|2,0:0|0:0|0:0,0:0:0:0:
472,200,21248,6,0,P|480:160|468:120,1,80,4|0,0:0|0:0,0:0:0:0:
388,72,21710,2,0,P|377:109|385:149,1,80,8|0,0:0|0:0,0:0:0:0:
472,200,22171,1,2,0:0:0:0:
420,280,22402,1,0,0:0:0:0:
328,308,22633,2,0,P|304:304|268:304,3,40,10|2|2|2,0:0|0:0|0:0|0:0,0:0:0:0:
248,296,23094,6,0,P|180:284|112:192,1,160,4|8,0:0|0:0,0:0:0:0:
196,160,23787,2,0,P|184:112|184:96,2,40,0|2|0,0:0|0:0|0:0,0:0:0:0:
288,184,24248,1,2,0:0:0:0:
296,72,24479,1,8,0:0:0:0:
192,36,24710,1,2,0:0:0:0:
88,104,24941,6,0,P|100:188|84:288,1,160,2|8,0:0|0:0,0:0:0:0:
52,348,25633,2,0,P|24:336|0:312,2,40,0|2|0,0:0|0:0|0:0,0:0:0:0:
148,332,26094,1,0,0:0:0:0:
188,244,26325,2,0,P|208:196|236:164,1,80,10|2,0:0|0:0,0:0:0:0:
308,288,26787,6,0,P|340:228|424:184,1,160,4|8,0:0|0:0,0:0:0:0:
480,256,27479,2,0,L|516:352,2,80,0|2|0,0:0|0:0|0:0,0:0:0:0:
476,160,28171,1,8,0:0:0:0:
416,84,28402,1,2,0:0:0:0:
328,136,28633,6,0,L|292:224,1,80,0|0,0:0|0:0,0:0:0:0:
276,248,29325,1,0,0:0:0:0:
256,280,29556,2,0,P|200:284|144:256,1,120,0|0,0:0|0:0,0:0:0:0:
104,168,30479,6,0,P|108:112|76:80,2,80,4|0|8,0:0|0:0|0:0,0:0:0:0:
200,184,31171,2,0,P|240:176|256:152,2,40,0|2|0,0:0|0:0|0:0,0:0:0:0:
136,256,31633,1,2,0:0:0:0:
192,336,31864,1,8,0:0:0:0:
288,344,32094,1,2,0:0:0:0:
380,320,32325,6,0,L|420:280,1,40,0|2,0:0|0:0,0:0:0:0:
376,200,32671,2,0,L|392:148,1,40,0|10,0:0|0:0,0:0:0:0:
336,80,33018,1,0,0:0:0:0:
244,56,33248,2,0,B|188:56|188:56|140:56|104:112,1,160,2|8,0:0|0:0,0:0:0:0:
120,204,33941,1,0,0:0:0:0:
200,148,34171,6,0,P|256:200|348:184,1,160,4|8,0:0|0:0,0:0:0:0:
292,108,34864,2,0,L|308:68,2,40,0|2|0,0:0|0:0|0:0,0:0:0:0:
388,116,35325,2,0,P|436:104|496:152,1,120,2|2,0:0|0:0,0:0:0:0:
508,180,35787,1,0,0:0:0:0:
456,248,36018,6,0,L|428:288,1,40,0|2,0:0|0:0,0:0:0:0:
348,252,36364,2,0,L|296:268,1,40,0|10,0:0|0:0,0:0:0:0:
216,248,36710,1,0,0:0:0:0:
148,316,36941,2,0,B|100:276|104:200|172:156,1,160,2|8,0:0|0:0,0:0:0:0:
244,164,37633,1,2,0:0:0:0:
336,192,37864,6,0,B|372:192|392:164|392:164|444:180|492:160,1,160,4|8,0:0|0:0,0:0:0:0:
432,80,38556,2,0,P|440:60|444:32,2,40,0|2|0,0:0|0:0|0:0,0:0:0:0:
344,40,39018,1,2,0:0:0:0:
256,72,39248,1,8,0:0:0:0:
228,164,39479,1,2,0:0:0:0:
156,228,39710,6,0,P|116:248|92:248,1,40,0|2,0:0|0:0,0:0:0:0:
88,156,40056,2,0,P|48:148|40:136,1,40,0|10,0:0|0:0,0:0:0:0:
92,64,40402,1,0,0:0:0:0:
176,16,40633,2,0,P|256:28|304:96,1,160,2|8,0:0|0:0,0:0:0:0:
332,180,41325,1,0,0:0:0:0:
256,240,41556,6,0,B|296:292|352:276|352:276|392:324,1,160,4|8,0:0|0:0,0:0:0:0:
472,280,42248,2,0,L|508:296,2,40,0|2|0,0:0|0:0|0:0,0:0:0:0:
448,188,42710,1,2,0:0:0:0:
444,92,42941,1,8,0:0:0:0:
372,28,43171,1,2,0:0:0:0:
344,120,43402,5,4,0:0:0:0:
280,192,43633,1,0,0:0:0:0:
192,232,43864,1,8,0:0:0:0:
200,136,44094,5,2,0:0:0:0:
104,132,44325,1,0,0:0:0:0:
20,84,44556,1,2,0:0:0:0:
104,132,44787,5,10,0:0:0:0:
100,228,45018,1,10,0:0:0:0:
12,268,45248,1,4,0:0:0:0:
92,324,45479,6,0,P|128:352|152:352,2,40,2|0|8,0:0|0:0|0:0,0:0:0:0:
184,300,45941,2,0,P|232:304|256:288,2,40,2|0|0,0:0|0:0|0:0,0:0:0:0:
212,208,46402,1,2,0:0:0:0:
272,132,46633,2,0,P|340:104|432:124,1,160,8|0,0:0|0:0,0:0:0:0:
460,208,47325,6,0,L|464:268,2,40,2|0|8,0:0|0:0|0:0,0:0:0:0:
372,248,47787,2,0,L|364:296,2,40,2|2|0,0:0|0:0|0:0,0:0:0:0:
316,168,48248,2,0,L|328:84,2,80,0|10|0,0:0|0:0|0:0,0:0:0:0:
240,228,48941,5,0,0:0:0:0:
144,236,49171,2,0,P|148:280|176:304,1,80,0|8,0:0|0:0,0:0:0:0:
260,344,49633,2,0,L|348:344,1,80,0|2,0:0|0:0,0:0:0:0:
420,292,50094,2,0,P|424:240|448:208,1,80,0|8,0:0|0:0,0:0:0:0:
428,120,50556,1,0,0:0:0:0:
364,48,50787,6,0,P|308:76|276:76,1,80,0|0,0:0|0:0,0:0:0:0:
212,128,51248,2,0,P|172:176|164:212,1,80,8|0,0:0|0:0,0:0:0:0:
260,216,51710,1,2,0:0:0:0:
288,308,51941,1,0,0:0:0:0:
260,216,52171,2,0,P|296:172|336:160,1,80,10|0,0:0|0:0,0:0:0:0:
344,72,52633,6,0,B|404:84|432:144|400:216,2,160,0|8|2,0:0|0:0|0:0,0:0:0:0:
256,108,53787,2,0,P|212:148|164:152,1,80,0|8,0:0|0:0,0:0:0:0:
144,148,54133,2,0,P|104:100|28:80,1,120,2|0,0:0|0:0,0:0:0:0:
84,268,54941,6,0,P|112:308|160:320,1,80,8|0,0:0|0:0,0:0:0:0:
292,268,55402,2,0,P|264:308|216:320,1,80,2|0,0:0|0:0,0:0:0:0:
192,200,55864,2,0,L|192:120,1,80,10|2,0:0|0:0,0:0:0:0:
256,48,56325,5,0,0:0:0:0:
332,104,56556,2,0,L|368:136,2,40,0|0|8,0:0|0:0|0:0,0:0:0:0:
256,48,57018,2,0,P|196:80|108:80,2,120,0|0|10,0:0|0:0|0:0,0:0:0:0:
332,104,57941,1,2,0:0:0:0:
332,200,58171,2,0,P|352:256|412:300,2,120,0|2|0,0:0|0:0|0:0,0:0:0:0:
252,280,59094,6,0,B|220:272|200:292|168:272,1,80,2|0,0:0|0:0,0:0:0:0:
380,312,60018,5,4,0:0:0:0:
424,228,60248,1,0,0:0:0:0:
416,132,60479,2,0,P|400:64|308:44,1,160,10|0,0:0|0:0,0:0:0:0:
324,136,61171,1,2,0:0:0:0:
228,148,61402,2,0,P|184:168|176:200,1,80,8|2,0:0|0:0,0:0:0:0:
264,232,61864,5,4,0:0:0:0:
320,308,62094,1,0,0:0:0:0:
416,296,62325,2,0,P|468:272|476:176,1,160,10|0,0:0|0:0,0:0:0:0:
384,208,63018,1,2,0:0:0:0:
360,116,63248,2,0,P|320:84|280:104,1,80,8|2,0:0|0:0,0:0:0:0:
224,156,63710,5,4,0:0:0:0:
168,236,63941,1,0,0:0:0:0:
72,240,64171,2,0,P|20:280|36:368,1,160,10|0,0:0|0:0,0:0:0:0:
120,324,64864,1,2,0:0:0:0:
168,236,65094,2,0,P|204:268|212:300,1,80,8|2,0:0|0:0,0:0:0:0:
304,320,65556,5,4,0:0:0:0:
380,264,65787,2,0,P|440:236|456:216,2,80,0|10|0,0:0|0:0|0:0,0:0:0:0:
380,168,66479,2,0,P|424:128|436:104,1,80,2|0,0:0|0:0,0:0:0:0:
340,80,66941,2,0,P|372:40|376:8,1,80,10|2,0:0|0:0,0:0:0:0:
280,16,67402,6,0,P|232:32|160:116,1,160,4|8,0:0|0:0,0:0:0:0:
124,200,68094,1,2,0:0:0:0:
164,288,68325,2,0,L|240:344,2,80,0|2|8,0:0|0:0|0:0,0:0:0:0:
124,200,69018,1,2,0:0:0:0:
212,164,69248,6,0,P|292:184|376:180,1,160,4|8,0:0|0:0,0:0:0:0:
444,124,69941,1,0,0:0:0:0:
504,200,70171,1,2,0:0:0:0:
424,260,70402,2,0,L|408:356,2,80,0|8|2,0:0|0:0|0:0,0:0:0:0:
324,272,71094,6,0,B|332:212|332:212|268:188|264:124,1,160,4|8,0:0|0:0,0:0:0:0:
372,120,71787,1,2,0:0:0:0:
476,148,72018,2,0,B|460:204|407:214|407:214|415:274,1,160,4|8,0:0|0:0,0:0:0:0:
364,356,72710,1,0,0:0:0:0:
272,328,72941,6,0,P|248:288|128:244,1,160,4|8,0:0|0:0,0:0:0:0:
52,260,73633,1,0,0:0:0:0:
88,172,73864,2,0,P|88:72|152:24,2,160,2|8|4,0:0|0:0|0:0,0:0:0:0:
168,120,75018,5,2,0:0:0:0:
252,168,75248,1,2,0:0:0:0:
304,248,75479,1,2,0:0:0:0:
380,72,75941,5,2,0:0:0:0:
372,172,76171,1,2,0:0:0:0:
304,248,76402,1,2,0:0:0:0:
196,264,76611,6,0,P|128:244|100:148,1,160,4|8,0:0|0:0,0:0:0:0:
192,168,77303,1,0,0:0:0:0:
264,104,77534,2,0,P|312:60|412:84,1,160,2|8,0:0|0:0,0:0:0:0:
348,152,78226,1,0,0:0:0:0:
364,248,78457,6,0,P|376:304|440:348,2,120,4|2|0,0:0|0:0|0:0,0:0:0:0:
460,252,79380,1,2,0:0:0:0:
472,156,79611,2,0,P|496:112|516:84,2,80,0|10|2,0:0|0:0|0:0,0:0:0:0:
376,156,80303,6,0,P|344:112|232:72,1,160,4|8,0:0|0:0,0:0:0:0:
160,108,80995,1,0,0:0:0:0:
68,76,81226,2,0,B|56:128|84:168|84:168|84:244,1,160,2|8,0:0|0:0,0:0:0:0:
136,312,81918,1,2,0:0:0:0:
224,272,82149,6,0,P|272:252|320:256,1,80,4|0,0:0|0:0,0:0:0:0:
380,304,82611,2,0,P|416:324|460:328,1,80,8|0,0:0|0:0,0:0:0:0:
440,232,83072,2,0,L|468:152,1,80,2|0,0:0|0:0,0:0:0:0:
412,76,83534,2,0,L|324:76,1,80,10|0,0:0|0:0,0:0:0:0:
240,44,83995,6,0,B|232:96|264:136|264:136|296:168,2,120,4|2|0,0:0|0:0|0:0,0:0:0:0:
144,44,84918,2,0,B|152:96|120:136|120:136|88:168,2,120,4|2|0,0:0|0:0|0:0,0:0:0:0:
56,80,85841,5,2,0:0:0:0:
20,168,86072,1,0,0:0:0:0:
60,256,86303,2,0,P|88:296|132:312,1,80,10|0,0:0|0:0,0:0:0:0:
148,220,86764,2,0,L|236:220,1,80,2|0,0:0|0:0,0:0:0:0:
276,136,87226,2,0,L|188:136,1,80,10|0,0:0|0:0,0:0:0:0:
100,120,87687,6,0,B|120:68|160:52|160:52|252:52,1,160,4|8,0:0|0:0,0:0:0:0:
324,52,88380,2,0,B|390:52|390:52|430:68|450:120,1,160,2|0,0:0|0:0,0:0:0:0:
464,216,89072,1,10,0:0:0:0:
380,264,89303,1,2,0:0:0:0:
300,212,89534,6,0,P|252:168|216:152,1,80,4|0,0:0|0:0,0:0:0:0:
136,160,89995,2,0,P|123:166|75:210,1,80,10|0,0:0|0:0,0:0:0:0:
92,304,90457,2,0,P|104:297|152:253,1,80,2|0,0:0|0:0,0:0:0:0:
248,260,90918,2,0,P|296:304|308:310,1,80,4|2,0:0|0:0,0:0:0:0:
336,220,91380,6,0,P|376:232|484:168,2,160,4|2|0,0:0|0:0|0:0,0:0:0:0:
268,152,92534,2,0,P|248:112|220:88,1,80,2|0,0:0|0:0,0:0:0:0:
176,172,92995,1,0,0:0:0:0:
228,252,93226,6,0,P|196:312|128:336,2,120,2|2|0,0:0|0:0|0:0,0:0:0:0:
132,248,94149,1,2,0:0:0:0:
80,168,94380,1,0,0:0:0:0:
100,72,94611,2,0,P|140:44|176:48,1,80,2|2,0:0|0:0,0:0:0:0:
248,104,95072,6,0,P|292:152|396:188,2,160,2|2|0,0:0|0:0|0:0,0:0:0:0:
104,232,96457,1,2,0:0:0:0:
196,256,96687,1,0,0:0:0:0:
284,296,96918,6,0,P|332:328|360:332,1,80,2|0,0:0|0:0,0:0:0:0:
360,224,97380,2,0,P|384:188|392:140,1,80,2|0,0:0|0:0,0:0:0:0:
288,120,97841,2,0,P|280:64|256:32,2,80,2|0|2,0:0|0:0|0:0,0:0:0:0:
304,208,98534,1,0,0:0:0:0:
280,296,98764,6,0,P|228:308|156:296,1,120,2|0,0:0|0:0,0:0:0:0:
84,172,99457,1,0,0:0:0:0:
84,172,99687,2,0,P|136:160|208:172,1,120,2|0,0:0|0:0,0:0:0:0:
332,112,100380,1,0,0:0:0:0:
412,164,100611,6,0,P|412:204|432:248,1,80,2|0,0:0|0:0,0:0:0:0:
332,240,101072,2,0,P|344:288|324:324,1,80,2|0,0:0|0:0,0:0:0:0:
236,312,101534,2,0,P|224:285|236:237,1,80,2|0,0:0|0:0,0:0:0:0:
140,244,101995,2,0,P|154:207|154:167,1,80,2|0,0:0|0:0,0:0:0:0:
148,72,102457,6,0,P|224:52|328:64,1,160,2|0,0:0|0:0,0:0:0:0:
364,140,103149,2,0,P|384:204|456:280,1,160,2|0,0:0|0:0,0:0:0:0:
484,360,103841,1,2,0:0:0:0:
296,316,104303,6,0,P|240:256|168:224,2,160,2|0|2,0:0|0:0|0:0,0:0:0:0:
356,184,105572,2,0,P|360:120|416:80,1,120,0|2,0:0|0:0,0:0:0:0:
448,168,106149,6,0,B|432:216|452:248|452:248|472:276|460:328,1,160,4|8,0:0|0:0,0:0:0:0:
368,300,106841,2,0,P|364:340|372:356,2,40,0|2|0,0:0|0:0|0:0,0:0:0:0:
280,256,107303,1,2,0:0:0:0:
304,164,107534,1,8,0:0:0:0:
228,104,107764,1,2,0:0:0:0:
156,212,107995,6,0,P|92:256|8:280,2,160,2|8|2,0:0|0:0|0:0,0:0:0:0:
92,140,109149,1,0,0:0:0:0:
140,56,109380,1,10,0:0:0:0:
228,104,109611,1,2,0:0:0:0:
332,172,109841,6,0,B|380:188|424:148|424:148|412:204|432:236,2,160,4|8|2,0:0|0:0|0:0,0:0:0:0:
240,200,110995,2,0,P|244:256|236:304,1,80,0|8,0:0|0:0,0:0:0:0:
152,244,111457,1,2,0:0:0:0:
92,172,111687,2,0,P|88:116|96:68,2,80,4|0|8,0:0|0:0|0:0,0:0:0:0:
152,244,112380,2,0,P|188:292|300:316,1,160,2|2,0:0|0:0,0:0:0:0:
372,292,113072,2,0,L|404:220,3,40,8|2|2|2,0:0|0:0|0:0|0:0,0:0:0:0:
412,216,113534,6,0,P|432:164|372:76,1,160,4|8,0:0|0:0,0:0:0:0:
336,164,114226,2,0,P|300:176|272:168,2,40,0|2|0,0:0|0:0|0:0,0:0:0:0:
280,88,114687,1,2,0:0:0:0:
184,84,114918,1,8,0:0:0:0:
92,108,115149,1,2,0:0:0:0:
36,188,115380,6,0,B|44:236|40:280|40:280|88:344,2,160,2|8|2,0:0|0:0|0:0,0:0:0:0:
92,108,116534,1,0,0:0:0:0:
152,184,116764,1,10,0:0:0:0:
244,152,116995,1,2,0:0:0:0:
320,272,117226,6,0,P|388:308|464:264,1,160,4|8,0:0|0:0,0:0:0:0:
388,208,117918,2,0,L|388:128,1,80,2|0,0:0|0:0,0:0:0:0:
328,52,118380,1,2,0:0:0:0:
300,144,118611,1,8,0:0:0:0:
328,52,118841,1,2,0:0:0:0:
236,84,119072,6,0,L|176:156,1,80,4|0,0:0|0:0,0:0:0:0:
88,148,119534,2,0,L|112:52,2,80,8|2|0,0:0|0:0|0:0,0:0:0:0:
48,236,120226,1,2,0:0:0:0:
48,236,120457,6,0,P|48:264|68:328,1,80,0|4,0:0|0:0,0:0:0:0:
256,192,121034,12,0,122764,0:0:0:0:
