osu file format v12

[General]
AudioFilename: 01 Goodbye Happiness.mp3
AudioLeadIn: 0
PreviewTime: -1
Countdown: 1
SampleSet: None
StackLeniency: 0.7
Mode: 3
LetterboxInBreaks: 1
SpecialStyle: 0

[Editor]
Bookmarks: 17573,17587,18837,19073,29837,31337,37587,45573,46573,113823,114823,145837,146587,154823,155573,168087,169587
DistanceSpacing: 0.9
BeatDivisor: 4
GridSize: 4

[Metadata]
Title:Goodbye Happiness
TitleUnicode:Goodbye Happiness
Artist:Utada Hikaru
ArtistUnicode:Utada Hikaru
Creator:Lizzehb
Version:Easy Mania
Source:
Tags:
BeatmapID:273516
BeatmapSetID:103885

[Difficulty]
HPDrainRate:6
CircleSize:4
OverallDifficulty:6
ApproachRate:6
SliderMultiplier:0.900000005960464
SliderTickRate:1

[Events]
//Background and Video events
0,0,"Goodbye_by_Dark_Scythe.jpg",0,0
//Break Periods
//Storyboard Layer 0 (Background)
//Storyboard Layer 1 (Fail)
//Storyboard Layer 2 (Pass)
//Storyboard Layer 3 (Foreground)
//Storyboard Sound Samples
//Background Colour Transformations
3,100,163,162,255

[TimingPoints]
17587,500,4,2,0,40,1,0
64073,-100,4,2,0,40,0,1
96073,-100,4,2,0,40,0,0
144073,-100,4,2,0,40,0,1
175573,-100,4,2,0,40,0,0

[Colours]
Combo1 : 168,255,190
Combo2 : 205,149,236
Combo3 : 255,130,192
Combo4 : 255,255,128
Combo5 : 255,198,111

[HitObjects]
64,112,16087,128,0,16586:0:0:0:0:
192,56,17087,128,0,17586:0:0:0:0:
320,104,18087,128,0,18587:0:0:0:0:
448,152,19087,1,0,0:0:0:0:
64,132,19587,1,0,0:0:0:0:
64,208,19837,1,0,0:0:0:0:
64,280,20087,1,0,0:0:0:0:
192,228,20587,1,0,0:0:0:0:
320,236,21087,1,0,0:0:0:0:
448,112,21587,128,0,22587:0:0:0:0:
320,140,23337,1,0,0:0:0:0:
320,212,23587,1,0,0:0:0:0:
320,288,23837,1,0,0:0:0:0:
192,264,24587,128,0,25087:0:0:0:0:
320,232,25837,128,0,26837:0:0:0:0:
192,128,27337,1,0,0:0:0:0:
192,128,27587,1,0,0:0:0:0:
192,128,27837,1,0,0:0:0:0:
192,128,28087,128,0,28837:0:0:0:0:
192,56,29087,128,0,29587:0:0:0:0:
192,312,29837,128,0,31337:0:0:0:0:
192,216,31587,1,0,0:0:0:0:
192,216,31837,1,0,0:0:0:0:
192,216,32087,1,0,0:0:0:0:
64,212,32587,1,0,0:0:0:0:
192,216,33087,1,0,0:0:0:0:
320,256,33587,1,0,0:0:0:0:
320,256,33837,128,0,35087:0:0:0:0:
192,288,35337,1,0,0:0:0:0:
192,288,35587,1,0,0:0:0:0:
192,288,35837,1,0,0:0:0:0:
192,200,36087,128,0,37087:0:0:0:0:
320,268,37587,128,0,38837:0:0:0:0:
320,72,39337,1,0,0:0:0:0:
320,72,39587,1,0,0:0:0:0:
320,72,39837,1,0,0:0:0:0:
192,156,40587,128,0,41087:0:0:0:0:
64,268,41837,1,0,0:0:0:0:
64,268,42087,1,0,0:0:0:0:
64,268,42337,1,0,0:0:0:0:
64,268,42587,1,0,0:0:0:0:
64,268,42837,1,0,0:0:0:0:
64,268,43337,128,0,43837:0:0:0:0:
64,96,44087,1,0,0:0:0:0:
192,96,44587,1,0,0:0:0:0:
320,96,45087,1,0,0:0:0:0:
448,100,45587,128,0,46587:0:0:0:0:
320,128,47337,1,0,0:0:0:0:
320,128,47587,1,0,0:0:0:0:
320,128,47837,1,0,0:0:0:0:
320,128,48587,128,0,49587:0:0:0:0:
320,136,50087,1,0,0:0:0:0:
320,136,50587,1,0,0:0:0:0:
320,136,51087,1,0,0:0:0:0:
320,136,51337,128,0,51837:0:0:0:0:
320,264,52087,1,0,0:0:0:0:
192,264,52587,1,0,0:0:0:0:
64,264,53087,1,0,0:0:0:0:
192,92,53587,1,0,0:0:0:0:
64,264,53587,1,0,0:0:0:0:
320,104,54087,128,0,54587:0:0:0:0:
64,68,55087,1,0,0:0:0:0:
64,108,55337,128,0,56087:0:0:0:0:
192,264,56587,128,0,57587:0:0:0:0:
320,96,58087,128,0,58587:0:0:0:0:
320,248,58837,1,0,0:0:0:0:
320,248,59087,1,0,0:0:0:0:
320,248,59337,1,0,0:0:0:0:
320,248,59587,1,0,0:0:0:0:
192,332,60087,128,0,62087:0:0:0:0:
320,204,62587,1,0,0:0:0:0:
448,200,63087,1,0,0:0:0:0:
320,204,63587,1,0,0:0:0:0:
192,236,64087,128,0,64587:0:0:0:0:
320,236,65087,1,0,0:0:0:0:
320,236,65337,1,0,0:0:0:0:
320,236,65587,1,0,0:0:0:0:
192,240,65837,1,0,0:0:0:0:
192,240,66087,1,0,0:0:0:0:
192,240,66337,1,0,0:0:0:0:
192,240,66587,1,0,0:0:0:0:
64,240,67087,1,0,0:0:0:0:
64,240,67337,1,0,0:0:0:0:
64,240,67587,1,0,0:0:0:0:
64,240,67837,1,0,0:0:0:0:
64,240,68087,128,0,69087:0:0:0:0:
192,160,69837,128,0,70587:0:0:0:0:
