osu file format v4

[General]
AudioFilename: Flavor Of Life -Ballad Version- lq.mp3
AudioLeadIn: 0
AudioHash: cc064417cbe67fedf95a818e0d4e5ed9
PreviewTime: -1
SampleSet: Soft
EditorBookmarks: 52,21526,32031,52242,71189,102289,111052,113189,122421,133084,149505,183344,229084,234136,247400,274242

[Metadata]
Title:Flavor Of Life -Ballad Version-
Artist:Utada Hikaru
Creator:James
Version:Hard

[Difficulty]
HPDrainRate:7
CircleSize:6
OverallDifficulty:5
SliderMultiplier: 1.6
SliderTickRate: 1

[Events]
0,-1,"fol11.jpg"
2,61915,67779
2,92936,102273
2,107857,110800
2,118515,122484
3,100,255,213,255

[TimingPoints]
22000,315.789473684211,4,2,0
92724,315.789473684211,4,2,0

[HitObjects]
472,192,21999,5,0
376,176,22946,1,0
336,152,23262,1,0
296,176,23578,1,0
256,192,23894,1,0
216,176,24210,1,0
176,192,24525,1,0
136,208,24841,1,0
93,191,25157,1,0
48,208,25473,1,0
32,184,27052,5,0
120,160,27999,1,0
160,144,28315,1,0
200,168,28631,1,0
240,176,28946,1,0
272,144,29262,1,0
296,104,29578,2,0,B|296:104|255:90|231:93|208:105|189:116|175:135|165:151|156:172|154:207|192:224,1,160
160,200,30210,2,0,B|160:200|158:247|193:275|219:291|248:302|281:289|305:275|328:279|356:254|366:221,1,160
312,272,30841,2,0,B|312:272|339:243|354:219|359:199|356:157|348:138|323:105|282:99|251:100|248:96,1,160
296,104,31473,2,0,B|296:104|280:88|248:72|216:72|192:88|177:106|147:89,1,160
128,104,32736,6,0,B|128:104|184:104|216:120|248:176,1,160
256,184,33367,2,0,B|256:184|256:240|272:272|328:304,1,160
360,272,33999,1,2
376,232,34315,1,0
384,184,34631,1,0
384,144,34946,1,0
384,104,35262,2,0,B|384:104|328:104|296:120|264:176,1,160
256,184,35894,2,0,B|256:184|256:240|240:272|184:304,1,160
128,312,36525,5,2
88,296,36841,1,0
56,264,37157,1,0
40,224,37473,1,0
40,176,37788,2,0,B|40:176|112:123|186:89|256:74|339:89|422:121|496:192,1,480
480,224,39052,1,2
480,272,39367,1,0
456,312,39683,1,0
408,312,39999,1,0
384,272,40315,1,0
384,224,40631,1,0
384,176,40946,1,0
384,128,41262,1,0
384,80,41578,1,2
288,40,43157,6,0,B|288:40|240:66|177:19|136:40,1,160
88,56,43788,1,0
48,80,44104,1,2
48,128,44420,1,0
48,176,44736,2,0,B|48:176|46:238|46:274|42:313|80:320,1,160
88,320,45367,2,0,B|88:320|167:351|248:320,1,160
256,320,45999,2,0,B|256:320|289:299|254:229|262:197|280:175|320:160,1,160
328,144,46631,5,2
360,112,46946,1,0
392,80,47262,2,0,B|392:80|452:4|496:168,2,160
352,104,48210,2,0,B|352:104|287:157|235:193|209:133|162:27|86:110|32:160,1,320
32,160,49157,1,2
32,208,49473,1,0
32,256,49788,1,0
32,304,50104,1,0
64,336,50420,2,0,B|64:336|112:328|152:312|168:280|176:240|192:200|232:176|264:168|312:168|344:168|376:152|400:120|416:80|424:40,1,480
424,48,51683,1,2
256,48,52315,5,0
256,96,52631,1,0
256,144,52946,1,2
256,192,53262,2,0,B|256:192|256:352,2,160
256,192,54210,5,2
296,168,54525,1,0
317,124,54841,1,0
296,80,55157,1,0
256,56,55473,1,2
216,80,55788,1,0
201,126,56104,1,0
224,168,56420,1,0
248,208,56736,5,2
224,248,57052,1,0
176,256,57367,1,0
136,240,57683,1,0
112,200,57999,5,2
136,160,58315,1,0
136,112,58631,1,0
112,72,58946,1,0
64,64,59262,1,2
24,80,59578,6,0,B|24:80|23:159|28:203|7:266|59:290|106:302|180:304|208:274|206:226|194:167|134:71|154:44|197:18|324:32|379:50|353:116|331:186|300:238|304:262|335:291|408:301|465:293|492:265|491:182|488:117|487:63,1,960
488,80,61788,1,2
40,24,69052,6,0,B|40:24|96:24|160:24|244:20|311:43|356:81|367:134|346:181|281:198|195:201|119:246|124:294|173:333|246:355|336:370|378:367|417:359|457:353|486:361|528:360,1,800
40,280,72525,6,0,B|40:280|36:190|120:152,1,160
160,144,73157,1,2
208,144,73473,1,0
256,144,73788,1,0
304,144,74104,1,0
352,144,74420,2,0,B|352:144|443:115|464:32,2,160
312,168,75367,1,0
280,200,75683,5,2
256,240,75999,1,0
248,288,76315,1,0
216,320,76631,1,0
176,328,76946,1,0
128,328,77262,2,0,B|128:328|24:325|40:208,2,160
176,328,78210,5,2
216,304,78525,1,0
256,328,78841,1,0
296,304,79157,1,0
336,328,79473,1,0
368,296,79788,1,0
400,328,80104,1,0
432,296,80420,1,0
432,248,80736,5,2
432,200,81052,2,0,B|432:200|432:105|360:64,1,160
360,64,81683,2,0,B|360:64|272:53|224:136,1,160
226,132,82315,2,0,B|226:132|237:220|154:268,2,160
216,88,83262,5,2
176,64,83578,1,0
128,64,83894,1,0
88,88,84210,1,0
64,128,84525,2,0,B|64:128|13:209|72:280,1,160
69,276,85157,2,0,B|69:276|120:336|200:320,1,160
256,304,85788,5,2
296,280,86104,1,0
320,240,86420,1,0
328,192,86736,2,0,B|328:192|351:98|448:72,1,160
454,40,87999,6,0,B|454:40|511:157|360:167,1,160
405,163,88631,2,0,B|405:163|285:137|288:271,1,160
290,235,89262,2,0,B|290:235|297:341|163:304,1,160
185,308,89894,2,0,B|185:308|68:249|37:378,1,160
32,256,91157,1,0
87,212,91473,2,0,B|87:212|161:160|207:140|258:190|311:202|370:154|405:116,1,320
447,92,92420,1,0
447,92,92736,1,4
64,248,103473,5,0
128,200,103789,1,0
200,160,104105,2,0,B|200:160|274:88|392:176,1,200
288,216,105684,2,0,B|288:216|223:274|144:256,2,160
344,176,106631,1,0
408,136,107026,2,0,B|408:136|363:64|296:80,1,120
240,80,107657,1,0
80,88,112000,6,0,B|80:88|153:202|284:145|435:219|464:328,1,440
376,312,113578,2,0,B|376:312|319:228|208:296,1,160
235,281,114210,2,0,B|235:281|158:333|80:280,1,160
86,281,114842,2,0,B|86:281|29:236|23:172|59:120,1,160
46,140,115473,2,0,B|46:140|73:61|173:82,1,160
177,84,116105,2,0,B|177:84|260:136|377:59,1,160
329,86,116736,2,0,B|329:86|423:40|471:143,1,160
463,128,117368,2,0,B|463:128|368:111|301:160|280:245|347:340,1,320
347,336,118315,1,0
144,80,123684,6,0,B|144:80|160:67|191:48|210:39|246:29|287:29|320:33|346:47|375:69|395:92|412:112|421:144|431:183|428:214|419:247|407:277|390:307|363:330|339:346|309:360|276:364|243:368|217:362|185:355|157:339|120:315|96:282|84:244|79:204|80:170|91:131|131:91|137:82|160:64,1,960
160,112,125881,2,0,B|160:112|144:155|150:199|202:233|248:232,1,160
256,232,126513,2,0,B|256:232|297:225|328:188|344:152|325:120|312:88,1,160
312,88,127145,2,0,B|312:88|293:68|258:47|224:43|192:64|171:81|152:112,1,160
160,112,127776,1,0
256,192,128104,12,0,133157
256,192,133473,1,0
256,192,133788,1,2
296,200,134104,1,0
344,192,134420,1,0
368,152,134736,1,0
360,104,135052,1,0
320,88,135367,1,0
280,104,135683,1,0
256,144,135999,1,0
256,192,136315,5,2
216,200,136631,1,0
168,192,136946,1,0
144,152,137262,1,0
152,104,137578,1,0
192,88,137894,1,0
232,104,138210,1,0
256,144,138525,1,0
256,192,138841,5,2
216,184,139157,1,0
168,192,139473,1,0
144,232,139788,1,0
152,280,140104,1,0
192,296,140420,1,0
232,280,140736,1,0
256,240,141052,1,0
256,192,141367,5,2
296,184,141683,1,0
344,192,141999,1,0
368,232,142315,1,0
360,280,142631,1,0
320,296,142946,1,0
280,280,143262,1,0
256,240,143578,1,0
256,192,143894,5,2
256,152,144210,1,0
256,112,144525,1,0
272,72,144841,1,0
304,48,145157,1,0
344,32,145473,1,0
384,24,145788,1,0
424,24,146104,1,0
464,40,146420,5,2
480,80,146736,1,0
472,120,147052,1,0
448,152,147367,1,0
416,176,147683,1,0
376,192,147999,1,0
336,192,148315,1,0
296,192,148631,1,0
256,192,148946,5,2
256,152,149262,1,0
256,112,149578,1,0
240,72,149894,1,0
208,48,150210,1,0
168,32,150525,1,0
128,24,150841,1,0
88,24,151157,1,0
48,40,151473,5,2
32,80,151788,1,0
40,120,152104,1,0
64,152,152420,1,0
96,176,152736,1,0
136,192,153052,1,0
176,192,153367,1,0
216,192,153683,1,0
256,192,153999,5,2
256,232,154315,1,0
256,272,154631,1,0
240,312,154946,1,0
208,336,155262,1,0
168,352,155578,1,0
128,360,155894,1,0
88,360,156210,1,0
48,344,156525,5,2
32,304,156841,1,0
40,264,157157,1,0
64,232,157473,1,0
96,208,157788,1,0
136,192,158104,1,0
176,192,158420,1,0
216,192,158736,1,0
256,192,159052,5,2
256,232,159367,1,0
256,272,159683,1,0
272,312,159999,1,0
304,336,160315,1,0
344,352,160631,1,0
384,360,160946,1,0
424,360,161262,1,0
464,344,161578,5,2
480,304,161894,1,0
472,264,162210,1,0
448,232,162525,1,0
416,208,162841,1,0
376,192,163157,1,0
336,192,163473,1,0
296,192,163788,1,0
256,192,164104,6,0,B|256:192|343:122|200:-8,1,160
256,48,164736,2,0,B|256:48|169:118|312:248,1,160
256,192,165367,2,0,B|256:192|186:105|56:248,1,160
112,192,165999,2,0,B|112:192|182:279|312:136,1,160
256,192,166631,2,0,B|256:192|169:262|312:392,1,160
256,336,167262,2,0,B|256:336|343:266|200:136,1,160
256,192,167894,2,0,B|256:192|326:279|456:136,1,160
400,192,168525,2,0,B|400:192|330:105|200:248,1,160
256,192,169157,5,2
224,224,169473,1,0
192,192,169788,1,0
160,224,170104,1,0
128,192,170420,1,0
96,224,170736,1,0
64,192,171052,1,0
96,160,171367,1,0
64,128,171683,1,2
40,88,171987,2,0,B|40:88|409:79|55:315|260:369|492:387|472:144,1,640
472,192,173555,5,0
376,176,174502,1,0
336,152,174818,1,0
296,176,175134,1,0
256,192,175450,1,0
216,176,175766,1,0
176,192,176081,1,0
136,208,176397,1,0
93,191,176713,1,0
48,208,177029,1,0
32,184,178608,5,0
120,160,179555,1,0
160,144,179871,1,0
200,168,180187,1,0
240,176,180502,1,0
272,144,180818,1,0
296,104,181134,2,0,B|296:104|255:90|231:93|208:105|189:116|175:135|165:151|156:172|154:207|192:224,1,160
160,200,181766,2,0,B|160:200|158:247|193:275|219:291|248:302|281:289|305:275|328:279|356:254|366:221,1,160
312,272,182397,2,0,B|312:272|339:243|354:219|359:199|356:157|348:138|323:105|282:99|251:100|248:96,1,160
320,128,183052,1,2
