osu file format v4

[General]
AudioFilename: Flavor Of Life -Ballad Version- lq.mp3
AudioLeadIn: 0
AudioHash: cc064417cbe67fedf95a818e0d4e5ed9
PreviewTime: -1
SampleSet: Soft
EditorBookmarks: 52,21052,32031,52242,67789,102289,111052,113189,122421,133084,183344,229084,234136,247400,274242

[Metadata]
Title:Flavor Of Life -Ballad Version-
Artist:Utada Hikaru
Creator:James
Version:Easy

[Difficulty]
HPDrainRate:5
CircleSize:6
OverallDifficulty:5
SliderMultiplier: 1
SliderTickRate: 1

[Events]
0,-1,"fol11.jpg"
2,61989,67852
2,92936,102273
3,100,255,221,255

[TimingPoints]
22000,315.789473684211,4,2,0
92724,315.789473684211,4,2,0

[HitObjects]
472,192,22000,5,0
376,176,22947,1,0
336,152,23263,1,0
296,176,23579,1,0
256,192,23895,1,0
216,176,24211,1,0
176,192,24526,1,0
136,208,24842,1,0
93,191,25158,1,0
48,208,25474,1,0
32,184,27053,5,0
120,160,28000,1,0
160,144,28316,1,0
200,168,28632,1,0
240,176,28947,1,0
272,144,29263,1,0
312,120,29578,2,0,B|312:120|344:72|400:96,1,100
432,120,30210,2,0,B|432:120|456:173|400:224,1,100
376,240,30842,2,0,B|376:240|342:273|288:256,1,100
240,232,31473,2,0,B|240:232|167:210|192:120,1,100
56,144,32736,6,0,B|56:144|152:144,3,100
200,144,34000,1,2
248,144,34315,1,0
360,200,35263,2,0,B|360:200|332:293|257:335|178:338|112:296,1,300
96,264,36526,1,2
88,216,36842,1,0
128,88,37789,2,0,B|128:88|226:163|273:117|329:63|424:120,1,300
400,152,39052,2,0,B|400:152|363:208|247:178|216:256,1,200
192,272,40000,1,0
152,264,40315,1,0
120,232,40631,1,0
112,192,40947,2,0,B|112:192|96:136|128:96,1,100
152,64,41578,1,2
232,32,43157,6,0,B|232:32|304:78|361:-6|448:48,1,200
472,48,44105,1,2
472,96,44421,1,0
472,144,44736,2,0,B|472:144|396:198|328:62|260:160|143:54|72:176,1,400
120,184,46315,1,0
144,224,46631,1,2
112,256,46947,1,0
456,64,48210,6,0,B|456:64|344:50|269:61|246:170|185:233|48:200,1,400
104,320,50421,5,0
256,320,50894,5,0
408,320,51368,5,0
168,232,53263,5,0
168,184,53578,1,0
168,136,53894,1,0
168,88,54210,2,0,B|168:88|72:88,2,100
216,88,55157,1,0
264,88,55473,1,2
312,88,55789,2,0,L|312:88|408:88|408:232,1,200
408,240,56736,1,2
40,312,59578,2,0,B|40:312|100:193|151:58|258:195|370:339|433:192|488:48,1,600
481,67,61789,1,2
472,216,69052,6,0,C|472:216|374:143|266:180|136:231|32:152,1,500
48,120,70947,1,0
80,88,71263,1,0
112,120,71578,1,0
144,88,71894,2,0,C|144:88|247:95|328:160,1,200
352,304,74105,6,0,B|352:304|240:304,2,100
448,304,75368,1,0
448,256,75684,1,0
448,208,76000,2,0,B|448:208|353:178|297:192|238:223|192:248|96:200,1,350
80,120,77894,1,0
160,88,78526,2,0,C|160:88|215:64|277:98|320:79|352:56,1,200
384,64,79473,1,2
384,112,79789,2,0,L|384:112|384:176|384:232|384:288|384:328|296:328,1,300
280,288,81052,2,0,B|280:288|168:264,1,100
184,224,81684,2,0,B|184:224|280:200,1,100
280,160,82315,2,0,B|280:160|176:136,1,100
184,96,82947,1,0
224,72,83263,1,2
224,192,84210,6,0,B|224:192|257:137|320:168,2,100
168,264,85473,1,0
128,280,85789,1,2
96,248,86105,2,0,B|96:248|83:129|216:112,1,200
256,112,87052,1,0
472,56,88000,6,0,B|472:56|416:56|392:88,1,100
368,136,88631,2,0,B|368:136|360:192|312:216,1,100
272,232,89263,2,0,B|272:232|215:251|200:304,1,100
160,320,89894,2,0,B|160:320|74:341|72:248,1,125
72,120,91157,5,0
120,128,91473,2,0,B|120:128|176:187|261:98|328:152,1,200
352,160,92421,1,0
392,136,92736,1,4
144,128,103460,5,0
120,168,103776,2,0,B|120:168|216:168,2,100
72,168,104724,1,2
208,288,105671,2,0,B|208:288|320:288,2,100
160,288,106618,1,0
112,288,106934,2,0,B|112:288|112:216|128:160|192:112|248:88|320:64,1,300
336,72,108197,5,0
360,112,108513,1,0
328,144,108829,1,0
352,184,109145,1,0
312,208,109460,1,0
312,256,109776,1,2
272,288,110092,1,0
240,256,110408,1,0
208,288,110724,1,0
176,256,111039,1,0
144,288,111355,1,0
112,256,111671,1,0
112,208,111987,6,0,B|112:208|208:164|257:193|303:220|355:197|408:176,1,300
416,272,113566,1,0
376,296,113881,1,0
336,272,114197,2,0,B|336:272|302:290|271:262|224:272,1,100
200,288,114829,1,0
160,272,115145,1,0
128,232,115460,2,0,B|128:232|198:242|224:184,2,100
104,192,116408,1,0
96,144,116724,1,0
96,96,117039,2,0,B|96:96|129:52|182:30|248:35|321:75|336:152,1,300
336,192,118302,1,2
472,216,120829,6,0,B|472:216|400:136|296:88|195:91|87:152|24:224,1,500
88,280,123671,1,0
168,280,123987,2,0,B|168:280|263:295|377:219|360:64,1,300
280,64,125881,5,0
240,80,126197,1,0
208,112,126513,2,0,B|208:112|252:156|304:144,1,100
344,152,127145,2,0,B|344:152|317:287|182:287|152:144,1,300
256,192,128408,12,0,133145
64,96,134724,2,0,B|64:96|176:96,2,100
64,192,135987,1,0
112,192,136302,1,2
112,240,136618,2,0,B|112:240|224:240,1,100
216,288,137250,1,0
264,288,137566,1,2
456,320,138513,5,0
416,296,138829,2,0,B|416:296|315:276|302:148|230:103|120:152,1,300
136,136,140092,1,2
176,112,140408,2,0,B|176:112|245:79|297:107|348:140|488:96,1,300
424,32,141671,5,0
376,32,141987,1,0
328,40,142302,2,0,B|328:40|268:44|248:104,1,100
240,136,142934,2,0,B|240:136|240:248,2,100
240,136,143881,1,2
64,312,144829,6,0,B|64:312|86:339|144:298|163:306|176:320,2,100
64,216,146092,1,0
32,184,146408,1,0
64,152,146724,2,0,B|64:152|166:221|339:68|448:176,1,375
448,248,148618,1,0
448,296,148934,1,2
400,296,149250,2,0,L|400:296|288:296|288:192,1,200
240,208,150197,1,0
240,160,150513,2,0,B|240:160|128:160,1,100
56,160,151776,6,0,B|56:160|144:192|240:152|288:104|384:120|456:168,1,400
448,208,153355,1,0
408,232,153671,1,0
368,208,153987,1,2
224,232,154934,5,0
184,248,155250,5,0
144,232,155566,5,0
64,184,156197,6,0,B|64:184|55:108|128:96,1,100
144,88,156829,2,0,B|144:88|212:72|295:84|357:142|376:248,1,300
416,288,158724,2,0,B|416:288|294:317|188:289|102:221|72:128,1,400
64,96,160302,2,0,B|64:96|173:182|320:64|432:232,1,400
392,256,161881,5,0
360,224,162197,1,0
328,256,162513,1,0
296,224,162829,1,0
264,256,163145,1,0
232,224,163460,1,0
200,256,163776,1,0
168,224,164092,1,2
160,80,165039,6,0,B|160:80|40:80,2,100
256,80,166302,2,0,B|256:80|256:176,1,100
304,184,166934,1,0
392,184,167566,2,0,B|392:184|392:296,1,100
256,288,168829,1,0
208,288,169145,1,0
160,288,169460,2,0,L|160:288|60:288|60:170,1,200
64,144,170408,1,0
64,96,170724,2,0,B|64:96|160:96,1,100
136,216,171987,5,0
168,184,172302,2,0,B|168:184|215:116|248:156|303:206|339:130|368:72,1,200
368,88,173250,1,0
256,192,173566,12,0,175776
144,144,177039,1,0
144,192,177355,2,0,B|144:192|198:216|243:187|287:161|352:208,1,200
336,248,178224,1,0
256,192,178618,12,0,182092
