osu file format v5

[General]
AudioFilename: Utada Hikaru - Exodus 04'.mp3
AudioLeadIn: 0
PreviewTime: -1
Countdown: 1
SampleSet: Normal
EditorBookmarks: 22115,78632,101114,134748,179359

[Metadata]
Title:Exodus 04
Artist:Utada Hikaru
Creator:Dakeyrus
Version:Hard

[Difficulty]
HPDrainRate:7
CircleSize:6
OverallDifficulty:6
SliderMultiplier:1.4
SliderTickRate:4

[Events]
//Background and Video events
0,0,"index_01.jpg"
//Break Periods
//Storyboard Layer 0 (Background)
//Storyboard Layer 1 (Failing)
//Storyboard Layer 2 (Passing)
//Storyboard Layer 3 (Foreground)
//Storyboard Sound Samples
//Background Colour Transformations
3,100,198,0,99

[TimingPoints]
210,702.471696247221,4,1,0,100

[Colours]
Combo1 : 64,0,0
Combo2 : 128,128,255
Combo3 : 81,81,81
Combo4 : 81,81,0

[HitObjects]
80,64,22337,5,0
144,64,22689,1,4
240,64,23742,1,0
304,64,24094,1,0
368,64,24445,1,0
432,64,24796,1,2
432,128,25498,2,4,B|432:256|272:256,1,210
240,192,26903,2,4,B|208:128|144:256,1,140
144,320,27957,5,0
208,320,28308,1,4
208,176,29713,1,0
256,208,30065,1,0
304,176,30416,1,2
352,64,31118,2,4,B|320:0|256:128,1,140
256,192,32172,5,0
304,272,32874,1,0
256,320,33226,1,0
208,272,33577,1,0
256,224,33928,1,0
256,192,34104,1,0
256,160,34279,1,0
256,128,34455,1,0
256,64,34806,1,4
256,16,35333,5,0
256,48,35509,1,0
256,80,35684,1,0
256,112,35860,1,0
256,176,36211,1,4
336,144,36738,5,0
384,96,37089,1,0
400,144,37265,1,0
384,192,37440,1,0
336,144,37792,5,4
272,144,38143,1,4
176,144,38845,6,4,B|112:144|112:192|112:240|160:240,4,140
256,192,42007,12,4,45168
48,48,45519,6,0,B|128:48,1,70
160,48,46221,1,0
224,48,46573,1,0
224,48,46748,2,0,B|224:96,2,35
288,48,47275,1,2
352,48,47626,1,2
432,48,48329,2,4,B|464:112|192:128|80:128|144:272,1,420
144,304,50787,5,4
208,288,51139,5,0
240,304,51314,1,0
272,288,51490,1,0
336,288,51841,1,4
304,224,52192,6,0,B|224:224|192:224|144:192|144:144|304:144,1,280
352,144,53949,6,0,B|384:112,1,35
368,64,54475,6,0,B|144:64,1,210
96,144,56056,5,2
160,144,56407,1,0
224,144,56758,1,0
288,144,57110,1,0
352,144,57461,1,2
400,176,57812,1,0
416,208,57988,1,0
368,240,58339,1,0
288,304,58866,5,2
256,304,59042,1,0
144,320,59568,1,0
144,256,59920,1,2
80,256,60271,1,0
80,192,60622,1,0
80,160,60798,1,0
80,96,61149,1,4
96,16,61676,5,0
144,48,62027,1,2
208,48,62378,1,0
272,48,62729,1,0
352,80,63081,1,0
336,48,63256,1,0
352,16,63432,1,0
416,48,63783,1,2
416,80,63959,1,2
416,144,64310,5,0
416,176,64486,1,0
416,208,64661,1,0
416,240,64837,1,0
448,336,65188,1,2
416,320,65364,1,0
352,288,65891,6,4,B|304:288,6,35
240,256,67296,5,2
192,224,67647,1,0
160,176,67998,1,0
128,128,68349,1,2
160,80,68700,1,0
208,112,69052,1,0
256,144,69403,1,0
288,144,69579,1,4
320,96,69930,5,0
368,144,70281,1,0
368,224,70808,1,2
336,272,71159,1,0
288,304,71510,1,0
240,272,71862,1,2
192,240,72213,1,0
192,192,72388,1,4
208,128,72915,5,2
256,96,73267,1,0
304,128,73618,1,0
256,160,73969,1,2
288,208,74320,1,0
320,224,74496,1,0
336,256,74671,1,4
368,304,75023,1,0
400,304,75198,1,4
416,240,75550,5,2
416,208,75725,1,0
416,176,75901,1,0
416,144,76076,1,4
416,80,76428,1,0
384,64,76603,1,4
288,64,77130,5,4
224,64,77481,5,4
112,48,78886,6,0,B|336:48,1,210
384,64,80291,6,0,B|384:144,1,70
304,128,80994,1,0
192,128,81696,1,0
96,128,82750,6,0,B|96:176,6,35
144,208,84155,5,0
176,160,84506,2,0,B|400:160,1,210
448,160,85911,2,0,B|448:208,6,35
384,208,87316,5,0
256,208,88370,5,0
160,208,89072,1,0
112,240,89423,1,0
64,272,89775,1,0
112,304,90126,1,0
144,304,90301,1,0
176,304,90477,1,0
208,304,90653,1,0
256,256,91004,1,0
256,192,91355,5,0
288,160,91531,1,0
336,160,91706,1,0
368,192,91882,1,0
368,240,92058,1,0
368,304,92409,1,0
464,304,92936,5,0
464,240,93287,1,0
464,192,93463,1,0
464,144,93638,1,0
416,96,93989,1,0
368,64,94341,1,0
96,96,95043,6,0,B|48:160|112:256|192:144|208:112|192:272,2,280
256,192,98204,12,0,100662
48,336,101717,6,0,B|128:336,1,70
160,336,102419,1,0
224,336,102770,1,0
224,336,102946,2,0,B|224:288,2,35
288,336,103473,1,2
352,336,103824,1,2
432,336,104527,2,4,B|464:272|192:256|80:256|144:112,1,420
144,80,106985,5,4
208,96,107336,5,0
240,80,107512,1,0
272,96,107688,1,0
336,96,108039,1,4
304,160,108390,6,0,B|224:160|192:160|144:192|144:240|304:240,1,280
352,240,110146,6,0,B|384:272,1,35
368,320,110673,6,0,B|144:320,1,210
96,240,112254,5,2
160,240,112605,1,0
224,240,112956,1,0
288,240,113307,1,0
352,240,113659,1,2
400,208,114010,1,0
416,176,114186,1,0
368,144,114537,1,0
288,80,115064,5,2
256,80,115239,1,0
144,64,115766,1,0
144,128,116117,1,2
80,128,116469,1,0
80,192,116820,1,0
80,224,116995,1,0
80,288,117347,1,4
96,368,117874,5,0
144,336,118225,1,2
208,336,118576,1,0
272,336,118927,1,0
352,304,119278,1,0
336,336,119454,1,0
352,368,119630,1,0
416,336,119981,1,2
416,304,120157,1,2
416,240,120508,5,0
416,208,120683,1,0
416,176,120859,1,0
416,144,121035,1,0
448,48,121386,1,2
416,64,121561,1,0
352,96,122088,6,4,B|304:96,6,35
240,128,123493,5,2
192,160,123845,1,0
160,208,124196,1,0
128,256,124547,1,2
160,304,124898,1,0
208,272,125249,1,0
256,240,125601,1,0
288,240,125776,1,4
320,288,126128,5,0
368,240,126479,1,0
368,160,127006,1,2
336,112,127357,1,0
288,80,127708,1,0
240,112,128059,1,2
192,144,128411,1,0
192,192,128586,1,4
208,256,129113,5,2
256,288,129464,1,0
304,256,129816,1,0
256,224,130167,1,2
288,176,130518,1,0
320,160,130694,1,0
336,128,130869,1,4
368,80,131220,1,0
400,80,131396,1,4
416,144,131747,5,2
416,176,131923,1,0
416,208,132099,1,0
416,240,132274,1,4
416,304,132625,1,0
384,320,132801,1,4
288,320,133328,5,4
224,320,133679,5,4
160,160,134733,5,4
224,160,135084,6,4,B|256:112|272:64|336:96|336:192|384:112|384:16|464:48|448:176|432:272|320:208,2,420
80,272,140353,5,4
128,304,140704,1,4
320,304,142109,1,4
448,304,142811,1,4
448,240,143162,1,4
448,176,143514,1,4
448,112,143865,1,4
400,64,144216,1,4
336,64,144567,1,4
272,80,144919,1,4
256,128,145094,1,4
272,176,145270,1,4
352,288,145972,5,2
288,288,146324,2,0,B|240:352|160:272,2,140
128,208,148431,5,0
128,144,148782,1,0
80,96,149133,1,0
32,48,149485,1,0
96,48,149836,1,0
144,96,150187,1,0
192,144,150538,1,0
256,192,151065,1,4
320,240,151592,5,4
352,288,151943,6,4,B|368:352|480:352|544:336|544:224|464:144|352:144|336:192,2,420
304,272,156509,6,4,B|256:256,1,35
304,352,157212,5,2
304,288,157563,1,0
304,224,157914,1,0
304,160,158266,1,0
304,96,158617,1,2
272,48,158968,1,0
240,32,159144,1,0
208,80,159495,1,0
144,160,160022,5,2
144,192,160197,1,0
128,304,160724,1,0
192,304,161076,1,2
192,368,161427,1,0
256,368,161778,1,0
288,368,161954,1,0
352,368,162305,1,4
432,352,162832,5,0
400,304,163183,1,2
400,240,163534,1,0
400,176,163885,1,0
368,96,164237,1,0
400,112,164412,1,0
432,96,164588,1,0
400,32,164939,1,2
368,32,165115,1,2
304,32,165466,5,0
272,32,165642,1,0
240,32,165817,1,0
208,32,165993,1,0
112,0,166344,1,2
128,32,166520,1,0
160,96,167047,6,4,B|160:144,6,35
192,208,168451,5,2
224,256,168803,1,0
272,288,169154,1,0
320,320,169505,1,2
368,288,169856,1,0
336,240,170208,1,0
304,192,170559,1,0
304,160,170735,1,4
352,128,171086,5,0
304,80,171437,1,0
224,80,171964,1,2
176,112,172315,1,0
144,160,172666,1,0
176,208,173018,1,2
208,256,173369,1,0
256,256,173544,1,4
320,240,174071,5,2
352,192,174422,1,0
320,144,174774,1,0
288,192,175125,1,2
240,160,175476,1,0
224,128,175652,1,0
192,112,175827,1,4
144,80,176179,1,0
144,48,176354,1,4
208,32,176706,5,2
240,32,176881,1,0
272,32,177057,1,0
304,32,177232,1,4
368,32,177584,1,0
384,64,177759,1,4
384,160,178286,5,4
384,224,178637,5,4
256,192,178989,12,4,189174
256,288,189526,6,4,B|256:368,1,70
