osu file format v5

[General]
AudioFilename: Utada Hikaru - Distance [m-flo mix].mp3
AudioLeadIn: 0
PreviewTime: -1
Countdown: 2
SampleSet: Normal
EditorBookmarks: 7263,139528,141345

[Metadata]
Title:Distance -m-flo mix-
Artist:Utada Hikaru
Creator:James
Version:Hard

[Difficulty]
HPDrainRate:5
CircleSize:5
OverallDifficulty:5
SliderMultiplier:1.4
SliderTickRate:1

[Events]
//Background and Video events
0,0,"distance.png"
//Break Periods
2,128364,139841
//Storyboard Layer 0 (Background)
//Storyboard Layer 1 (Failing)
//Storyboard Layer 2 (Passing)
//Storyboard Layer 3 (Foreground)
//Storyboard Sound Samples
//Background Colour Transformations
3,100,80,165,137

[TimingPoints]
11798,454.5534,4,2,0,100
40890,454.5534,4,1,0,100
142240,454.545454545455,4,1,0,100
187467,454.545454545455,4,2,0,100

[Colours]
Combo1 : 56,112,91
Combo2 : 204,230,220
Combo3 : 133,194,171
Combo4 : 78,156,126

[HitObjects]
104,80,11797,1,0
352,296,13616,1,0
280,144,15435,1,0
96,280,17253,1,2
384,328,19071,1,0
320,120,20889,1,2
160,176,22707,1,0
472,216,24526,1,2
56,56,26344,5,0
224,200,27253,1,0
440,144,28162,1,0
296,320,29071,1,2
376,112,29980,1,0
176,216,30889,1,2
40,40,31798,1,0
48,264,32708,1,2
256,344,33617,5,0
368,328,34071,1,0
432,240,34526,1,0
416,128,34980,1,2
336,48,35435,1,0
224,32,35889,1,0
120,80,36344,1,0
80,184,36799,1,2
128,288,37253,5,0
232,336,37708,1,2
312,264,38162,1,0
208,224,38617,1,2
296,160,39071,1,0
208,88,39526,1,2
296,24,39980,1,0
376,96,40435,1,2
472,40,40890,5,0
360,40,41344,1,2
192,40,42026,1,0
136,40,42253,1,2
48,40,42594,1,0
48,40,42708,1,0
112,128,43162,1,2
160,192,43503,1,0
192,232,43730,1,0
192,232,43844,1,0
224,280,44071,1,2
296,360,44526,5,0
384,296,44980,1,2
448,240,45321,1,0
488,200,45549,1,0
488,200,45662,1,0
448,160,45890,1,2
384,104,46231,1,0
384,104,46344,1,0
296,32,46799,1,2
232,184,47481,1,0
264,224,47708,1,2
232,328,48162,5,0
120,304,48617,1,2
32,192,49185,1,0
32,192,49298,1,0
80,160,49525,1,2
176,208,49980,1,0
272,152,50434,1,2
320,216,50775,1,0
368,184,51002,1,0
368,184,51116,1,0
416,208,51344,1,2
376,312,51799,5,0
480,352,52253,1,2
432,216,52822,1,0
432,216,52935,1,0
448,160,53162,1,2
480,48,53617,1,0
400,64,53958,1,0
288,144,54526,1,2
224,360,55435,1,4
72,288,56117,5,0
48,240,56344,1,0
40,184,56572,2,0,B|32:71|192:56,1,210
128,32,57481,2,0,B|100:94|176:176,1,140
240,240,58390,1,0
288,272,58617,1,0
336,296,58844,2,0,B|370:310|408:304,1,70
456,88,59981,5,0
400,104,60208,2,0,B|325:116|296:192,1,140
272,136,60890,2,0,B|401:200|304:336,1,210
360,344,61799,2,0,B|346:264|240:248,1,140
208,248,62481,1,0
48,40,63163,5,0
48,40,63390,1,0
464,40,64072,1,0
464,40,64299,1,0
256,336,65208,1,0
248,280,65435,1,0
232,224,65663,2,0,B|212:183|160:168,1,70
136,208,66117,2,0,B|94:179|112:120,1,70
104,88,66572,1,0
128,40,66799,1,0
176,64,67026,2,0,B|210:90|264:48,1,70
288,96,67481,2,0,B|266:136|312:192,1,70
344,256,68163,5,0
392,232,68390,1,0
392,232,68504,1,2
432,160,68845,1,0
416,104,69072,1,2
360,88,69299,1,0
272,80,69640,1,0
272,80,69754,1,2
272,80,69867,1,0
272,80,69981,1,0
160,96,70435,5,2
216,192,70890,5,0
168,216,71117,2,2,B|89:244|136:344,1,140
184,336,71799,1,0
136,312,72026,2,2,B|66:274|72:176,1,140
40,240,72708,1,0
96,240,72936,2,2,B|192:238|232:168,1,140
256,144,73617,1,0
304,40,74072,5,2
384,56,74413,1,0
416,96,74640,1,0
416,96,74754,1,0
400,152,74981,1,2
360,192,75208,2,0,B|264:169|280:288,1,140
256,320,75890,1,2
312,304,76117,1,2
304,248,76345,2,0,B|277:168|168:184,1,140
136,184,77026,1,2
176,80,77481,5,0
120,64,77708,1,2
72,96,77936,1,0
40,176,78277,1,0
40,176,78390,1,0
80,216,78617,1,2
56,264,78845,1,0
88,312,79072,5,2
192,344,79527,1,2
264,304,79867,1,0
304,336,80095,1,0
304,336,80208,1,0
352,312,80436,1,2
408,320,80663,2,0,B|490:288|448:176,1,140
504,240,81345,2,2,B|429:237|357:223|312:156|304:72,1,280
208,144,82708,5,2
152,136,82936,1,0
152,136,83049,1,2
80,88,83390,6,0,B|152:56,2,70
80,144,84072,1,2
136,128,84299,2,0,B|208:96,1,70
248,152,84981,2,2,B|272:238|192:264|152:256,1,140
152,208,85663,1,0
112,240,85890,2,2,B|152:304,2,70
88,128,86799,5,0
168,96,87140,1,0
168,96,87254,2,2,B|136:0,2,70
200,136,87936,1,0
184,184,88163,2,2,B|264:156|328:224,1,140
216,264,89072,2,0,B|250:187|312:128,1,140
384,208,89981,2,2,B|445:164|424:64,1,140
376,144,90777,1,0
376,144,90890,2,2,B|460:158|480:232,1,140
424,328,91799,6,0,B|520:328,2,70
368,328,92481,1,2
312,328,92709,1,0
256,328,92936,2,2,B|184:328,2,70
240,376,93618,2,0,B|240:292|152:232,1,140
112,208,94413,5,0
112,208,94527,1,2
152,176,94754,1,0
208,192,94981,1,2
264,176,95209,1,0
320,160,95436,2,2,B|416:200,2,70
288,200,96118,2,0,B|320:120,1,70
464,56,97027,5,0
408,40,97254,1,2
352,48,97481,1,0
304,80,97709,1,2
248,72,97936,1,0
192,80,98163,2,2,B|138:96|88:40,2,105
256,192,99072,12,0,100209
160,280,100436,1,0
216,280,100663,1,2
256,240,100891,1,2
312,240,101118,1,0
344,192,101345,1,2
400,192,101572,1,0
472,344,102254,5,0
416,328,102481,1,0
368,296,102709,2,0,B|351:212|264:200,1,140
288,256,103391,2,0,B|376:247|408:152,1,140
368,72,104300,2,0,B|280:32|216:88,1,140
264,120,104982,1,0
240,168,105209,1,0
256,280,105663,1,0
256,280,105891,1,0
256,192,106345,12,0,107254
312,240,107482,1,2
328,184,107709,1,0
312,128,107936,1,2
264,96,108163,1,0
208,96,108391,1,2
160,120,108618,1,0
136,168,108845,5,2
136,168,108959,1,0
144,224,109186,1,2
144,224,109300,1,0
176,264,109527,1,2
264,336,109982,5,2
320,328,110209,1,0
376,312,110436,2,2,B|457:285|424:184,1,140
384,168,111118,1,0
336,192,111345,1,2
288,160,111573,1,0
232,184,111800,1,2
176,168,112027,1,0
176,168,112141,1,0
144,88,112482,5,2
200,88,112709,1,0
256,88,112936,1,2
312,88,113163,1,0
368,88,113391,1,0
256,192,113618,12,0,114754
256,344,114982,1,2
312,328,115209,1,0
360,296,115436,1,2
400,256,115664,1,0
424,208,115891,1,0
432,152,116118,1,0
344,152,116459,5,0
344,152,116573,1,2
296,184,116800,1,0
240,176,117027,1,2
192,200,117254,2,0,B|264:168|256:64,1,140
240,32,117936,2,2,B|244:104|344:128,1,140
432,72,118845,1,0
432,128,119073,2,2,B|496:88,1,70
496,144,119527,1,0
448,176,119755,2,2,B|384:216,1,70
344,240,120209,1,0
344,240,120436,1,2
256,192,120891,12,0,122027
256,192,122255,2,2,B|184:232,1,70
136,224,122709,2,0,B|152:136,1,70
184,112,123164,2,2,B|257:102|264:200,1,105
264,224,123732,1,0
264,224,123845,1,0
296,264,124073,1,2
392,312,124527,2,2,B|464:328,1,70
472,272,124982,1,0
448,224,125209,2,2,B|496:160,2,70
432,280,125891,1,0
472,240,126118,2,2,B|448:168|352:128,1,140
377,141,126686,1,0
288,96,127027,5,2
240,128,127255,1,2
280,168,127482,1,0
248,216,127709,1,2
272,264,127936,1,0
256,320,128164,1,0
256,192,140891,12,0,142240
104,64,142694,5,2
160,72,142923,1,0
208,96,143150,1,0
264,88,143377,1,0
320,72,143603,1,0
368,48,143832,1,0
416,72,144059,1,2
488,24,144400,5,0
488,24,144513,1,2
472,72,144741,1,0
480,128,144968,1,2
440,168,145196,1,0
440,168,145309,1,0
456,224,145535,1,0
456,224,145650,5,0
432,272,145876,1,2
376,288,146104,1,0
344,336,146331,1,2
288,328,146559,1,0
248,288,146786,1,2
200,264,147013,1,0
200,264,147127,1,0
144,280,147355,1,0
144,280,147468,1,0
88,272,147696,5,2
40,344,148036,1,0
40,344,148150,1,2
96,328,148377,1,0
128,280,148605,1,2
136,224,148832,1,0
120,168,149059,1,2
80,128,149286,1,0
32,96,149514,1,2
128,40,149968,5,0
472,160,150877,1,0
264,344,151559,2,2,B|400:320|384:168,1,210
384,112,152582,5,0
352,160,152809,1,0
352,160,152923,1,0
304,192,153150,1,2
248,208,153377,1,0
192,192,153605,1,2
144,160,153832,1,0
104,120,154059,1,0
88,64,154287,1,2
32,128,154627,5,0
32,128,154741,1,0
48,176,154968,1,2
152,216,155423,1,2
72,248,155764,1,0
80,328,156105,1,2
160,336,156446,1,0
160,336,156559,1,0
160,336,156787,1,2
248,264,157241,5,0
144,216,157696,1,2
216,128,158149,1,0
168,104,158376,1,0
208,72,158605,1,2
288,56,158946,1,0
288,56,159059,1,0
376,128,159514,1,2
344,208,159855,1,0
320,256,160082,1,0
320,256,160196,1,0
296,304,160423,1,2
400,352,160878,5,0
384,240,161332,1,2
312,192,161673,1,0
256,184,161900,1,0
256,184,162014,1,0
208,208,162241,1,2
144,152,162580,1,0
144,152,162696,1,0
112,48,163150,1,2
256,344,163832,1,0
256,344,164059,1,2
368,320,164514,5,0
368,320,164741,1,0
320,288,164969,1,2
320,288,165196,1,0
304,232,165423,1,0
304,232,165537,1,2
304,232,165650,1,0
328,176,165877,1,2
376,144,166104,1,0
432,152,166330,5,2
464,192,166560,1,0
424,232,166785,1,2
376,200,167014,1,0
376,200,167128,1,0
320,216,167355,1,0
320,216,167469,1,0
264,200,167696,1,2
216,232,167923,1,0
176,192,168150,5,0
176,192,168377,1,0
144,144,168605,1,2
144,144,168832,1,0
152,88,169059,1,0
152,88,169173,1,2
152,88,169286,1,0
200,56,169513,1,2
256,72,169741,1,0
296,112,169969,5,2
352,104,170196,1,0
376,56,170423,1,2
424,72,170650,1,0
472,136,170991,1,0
472,136,171105,1,0
472,136,171332,1,2
456,344,171787,5,0
48,336,172696,1,0
56,48,173378,1,0
56,48,173605,5,0
168,64,174060,1,2
192,144,174401,1,0
240,168,174628,1,0
240,168,174742,1,0
288,136,174969,1,2
336,104,175196,1,0
392,112,175423,1,0
432,152,175649,1,0
432,208,175878,1,2
424,288,176219,5,0
376,264,176446,1,0
376,264,176560,1,0
336,224,176787,1,2
304,176,177014,1,0
304,176,177242,1,0
288,120,177469,1,0
288,120,177696,1,2
248,80,177923,1,0
192,64,178151,1,0
136,80,178378,1,0
136,80,178605,1,2
72,168,179058,5,0
168,216,179514,1,2
264,160,179969,1,2
296,200,180196,1,0
272,248,180423,1,2
176,312,180878,1,0
288,328,181330,1,2
360,288,181673,1,0
384,240,181901,1,0
384,240,182014,1,0
360,184,182242,1,2
248,160,182696,5,0
240,216,182923,2,2,B|144:192,2,70
280,256,183605,2,0,B|368:224,1,70
320,184,184060,2,0,B|360:120,1,70
384,72,184514,1,2
304,48,184855,1,0
304,48,184969,1,0
264,88,185196,1,2
264,168,185537,1,0
264,168,185651,1,0
224,208,185878,1,2
256,192,186333,12,0,187469
256,80,187696,5,0
232,128,187924,1,0
280,152,188151,1,2
240,192,188378,1,0
280,232,188605,1,2
240,272,188833,1,2
320,352,189287,1,0
264,352,189514,1,2
208,352,189742,1,0
96,320,190196,5,2
144,288,190424,1,0
160,232,190651,1,2
160,232,190765,1,0
168,144,191103,1,2
200,96,191333,1,0
240,64,191558,2,2,B|296:136,1,70
280,176,192012,1,0
312,216,192239,2,0,B|408:224,1,70
440,224,192694,1,2
488,192,192924,2,2,B|476:124|400:96,1,105
352,72,193603,1,0
256,320,194287,5,0
256,320,194401,1,0
256,320,194515,1,0
248,264,194742,1,0
216,216,194969,1,0
216,272,195196,2,0,B|296:232|280:136,1,140
256,192,196103,12,2,198149
256,88,198378,1,2
208,120,198603,2,0,B|120:152,1,70
136,200,199060,1,0
168,240,199285,2,0,B|248:304,2,70
192,192,199969,1,0
248,184,200194,2,2,L|344:176|360:144,1,105
