osu file format v9

[General]
AudioFilename: Distance.mp3
AudioLeadIn: 0
PreviewTime: 99040
Countdown: 0
SampleSet: Soft
StackLeniency: 0.7
Mode: 0
LetterboxInBreaks: 0

[Editor]
DistanceSpacing: 1
BeatDivisor: 4
GridSize: 8

[Metadata]
Title:Distance (m-flo remix)
Artist:Utada Hikaru
Creator:IchiGUN
Version:Hard
Source:
Tags:kosiga -bakari- haruka hinsvar sweet_serenitee

[Difficulty]
HPDrainRate:6
CircleSize:4
OverallDifficulty:6
ApproachRate:7
SliderMultiplier:1.8
SliderTickRate:1

[Events]
//Background and Video events
0,0,"bg.jpg"
//Break Periods
2,19240,25413
//Storyboard Layer 0 (Background)
//Storyboard Layer 1 (Fail)
//Storyboard Layer 2 (Pass)
//Storyboard Layer 3 (Foreground)
Sprite,Foreground,Centre,"Lyrics\ichigun.png",120,255 F,0,19028,19140,0,1 F,0,19140,25794,1 F,0,25794,26246,1,0
Sprite,Foreground,Centre,"Lyrics\ichigun.png",120,255 F,0,20832,21283,1,0 S,0,20832,21283,0.9680003,1.272
Sprite,Foreground,Centre,"Lyrics\ichigun.png",120,255 F,0,22637,23088,1,0 S,0,22637,23088,0.9680003,1.272
Sprite,Foreground,Centre,"Lyrics\ichigun.png",120,255 F,0,24441,24892,1,0 S,0,24441,24892,0.9680003,1.272
Sprite,Foreground,Centre,"lyrics\c01.png",320,450 L,56098,1 F,1,-200,200,0,1 S,0,0,,0.5 L,59738,1 F,0,-200,200,1,0
Sprite,Foreground,Centre,"lyrics\c02.png",320,450 L,59961,1 F,1,-200,200,0,1 S,0,0,,0.5 L,62689,1 F,2,-200,200,1,0
Sprite,Foreground,Centre,"lyrics\c03.png",320,450 L,63143,1 F,1,-200,200,0,1 S,0,0,,0.5 L,67689,1 F,2,-200,200,1,0
Sprite,Foreground,Centre,"lyrics\c04.png",320,450 L,70870,1 F,1,-200,200,0,1 S,0,0,,0.5 L,74052,1 F,2,-200,200,1,0
Sprite,Foreground,Centre,"lyrics\c05.png",320,450 L,74507,1 F,1,-200,200,0,1 S,0,0,,0.5 L,77234,1 F,2,-200,200,1,0
Sprite,Foreground,Centre,"lyrics\c06.png",320,450 L,77461,1 F,1,-200,200,0,1 S,0,0,,0.5 L,79507,1 F,2,-200,200,1,0
Sprite,Foreground,Centre,"lyrics\c07.png",320,450 L,79961,1 F,1,-200,200,0,1 S,0,0,,0.5 L,82234,1 F,0,-200,200,1,0
Sprite,Foreground,Centre,"lyrics\c08.png",320,450 L,83370,1 F,1,-200,200,0,1 S,0,0,,0.5 L,85189,1 F,2,-200,200,1,0
Sprite,Foreground,Centre,"lyrics\c09.png",320,450 L,85416,1 F,1,-200,200,0,1 S,0,0,,0.5 L,87007,1 F,2,-200,200,1,0
Sprite,Foreground,Centre,"lyrics\c10.png",320,450 L,87234,1 F,1,-200,200,0,1 S,0,0,,0.5 L,91552,1 F,2,-200,200,1,0
Sprite,Foreground,Centre,"lyrics\c11.png",320,450 L,91780,1 F,1,-200,200,0,1 S,0,0,,0.5 L,95189,1 F,0,-200,200,1,0
Sprite,Foreground,Centre,"lyrics\c12.png",320,450 L,95416,1 F,1,-200,200,0,1 S,0,0,,0.5 L,96552,1 F,2,-200,200,1,0
Sprite,Foreground,Centre,"lyrics\c13.png",320,450 L,97007,1 F,1,-200,200,0,1 S,0,0,,0.5 L,98825,1 F,2,-200,200,1,0
Sprite,Foreground,Centre,"lyrics\c14.png",320,450 L,99052,1 F,1,-200,200,0,1 S,0,0,,0.5 L,102007,1 F,2,-200,200,1,0
Sprite,Foreground,Centre,"lyrics\c15.png",320,450 L,102234,1 F,1,-200,200,0,1 S,0,0,,0.5 L,105643,1 F,2,-200,200,1,0
Sprite,Foreground,Centre,"lyrics\c16.png",320,450 L,106325,1 F,1,-200,200,0,1 S,0,0,,0.5 L,109507,1 F,2,-200,200,1,0
Sprite,Foreground,Centre,"lyrics\c17.png",320,450 L,109961,1 F,1,-200,200,0,1 S,0,0,,0.5 L,112234,1 F,2,-200,200,1,0
Sprite,Foreground,Centre,"lyrics\c18.png",320,450 L,112461,1 F,1,-200,200,0,1 S,0,0,,0.5 L,113370,1 F,2,-200,200,1,0
Sprite,Foreground,Centre,"lyrics\c14.png",320,450 L,113598,1 F,1,-200,200,0,1 S,0,0,,0.5 L,116325,1 F,2,-200,200,1,0
Sprite,Foreground,Centre,"lyrics\c19.png",320,450 L,116552,1 F,1,-200,200,0,1 S,0,0,,0.5 L,120643,1 F,0,-200,200,1,0
Sprite,Foreground,Centre,"lyrics\c20.png",320,450 L,120870,1 F,1,-200,200,0,1 S,0,0,,0.5 L,124052,1 F,2,-200,200,1,0
Sprite,Foreground,Centre,"lyrics\c21.png",320,450 L,124507,1 F,1,-200,200,0,1 S,0,0,,0.5 L,126780,1 F,2,-200,200,1,0
Sprite,Foreground,Centre,"lyrics\c22.png",320,450 L,127007,1 F,1,-200,200,0,1 S,0,0,,0.5 L,128143,1 F,2,-200,200,1,0
//Storyboard Sound Samples
//Background Colour Transformations
3,100,163,162,255

[TimingPoints]
6994,454.545454545455,4,1,0,35,1,0
8951,454.545454545455,4,1,0,70,1,0
11767,454.545454545455,4,2,1,70,1,0
59381,-100,4,2,1,50,0,0
59608,-100,4,2,1,70,0,0
84495,-100,4,2,1,70,0,1
95404,-100,4,2,1,70,0,0
99040,-100,4,2,1,70,0,1
128131,-100,4,2,1,70,0,0

[Colours]
Combo1 : 255,150,0
Combo2 : 225,134,111
Combo3 : 240,200,77
Combo4 : 130,94,253

[HitObjects]
256,192,11767,1,4
256,104,11995,1,2
320,40,12222,1,0
360,56,12336,1,0
400,40,12449,1,0
480,80,12677,2,0,B|432:104|432:160,1,90,0|0
512,152,13131,2,0,B|496:224|464:232|424:208|400:288,1,180,2|2
352,360,13813,5,0
312,344,13927,1,0
272,360,14040,1,0
218,288,14267,1,0
168,216,14495,1,2
45,347,14949,1,2
218,288,15404,5,2
168,216,15631,2,0,B|112:232|80:176,1,90
152,128,16086,2,0,B|112:96|128:40,1,90,0|2
216,64,16540,1,0
304,56,16768,2,0,B|320:16,2,45,2|0|0
376,112,17222,5,2
429,185,17449,1,0
429,185,17563,1,0
429,185,17677,1,0
304,256,17904,5,0
184,176,18131,1,2
328,176,18358,1,0
208,256,18586,1,0
256,120,18813,1,0
256,196,19040,5,4
80,104,26313,5,4
152,48,26540,1,2
240,40,26768,1,0
280,24,26881,1,0
320,40,26995,1,0
408,64,27222,2,0,B|456:80|456:80|480:128,1,90
512,200,27677,1,2
408,352,28131,5,2
320,376,28358,1,0
340,288,28586,2,0,B|352:236,2,45
256,312,29040,1,2
80,352,29495,1,2
32,176,29949,6,0,B|64:136|48:80,1,90,4|0
192,48,30404,2,0,B|224:16|288:32,1,90
280,176,30858,2,0,B|288:232|352:240,1,90,2|0
424,224,31313,2,0,B|448:184,2,45,2|0|0
392,308,31768,1,2
392,308,31995,1,0
237,216,32449,5,0
136,312,32677,1,2
237,216,32904,1,0
136,264,33131,1,0
237,216,33358,1,0
136,216,33586,5,4
64,160,33813,1,2
40,72,34040,1,0
80,48,34154,1,0
128,48,34268,1,0
216,56,34495,2,0,B|296:96,1,90
296,96,34949,2,0,B|312:32|400:16|440:72,1,180
439,70,35631,5,0
439,70,35745,1,0
439,70,35858,1,0
472,152,36086,2,0,B|416:232,1,90,0|0
336,192,36540,2,0,B|328:296,1,90,0|2
400,336,36995,2,0,B|424:360,3,30,2|0|0|4
328,368,37449,6,0,B|288:336|232:360,1,90,0|0
160,328,37904,2,0,B|104:312|88:264,1,90,0|2
248,192,38586,2,0,B|280:192,3,30,2|0|0|0
368,192,39040,2,0,B|272:192,1,90
456,192,39722,5,0
368,192,39949,1,0
416,272,40177,1,0
472,176,40404,5,2
352,176,40631,1,0
416,296,40858,1,4
416,296,41313,5,8
344,352,41540,1,0
320,360,41654,1,0
296,368,41768,1,0
210,341,41995,1,0
125,370,42222,1,8
64,304,42449,2,0,B|72:248|32:208,1,90,0|0
8,136,42904,5,0
56,56,43131,1,8
144,64,43358,1,0
104,144,43586,1,0
120,168,43699,1,0
136,192,43813,1,0
192,264,44040,2,0,B|224:224|280:232,1,90,8|0
360,264,44495,5,0
432,240,44722,1,0
360,264,44949,5,8
416,168,45177,1,0
360,264,45404,5,0
488,152,45631,1,0
480,64,45858,6,0,B|432:72|400:32,1,90,8|0
312,16,46313,2,0,B|256:16|224:64,1,90
160,112,46768,1,8
96,176,46995,5,0
160,344,47222,1,0
280,208,47449,1,0
128,200,47677,5,8
168,304,47904,1,0
240,224,48131,1,4
128,200,48358,6,0,B|176:184|192:128,1,90,0|8
176,48,48813,1,0
152,32,48927,1,0
128,24,49040,1,0
104,112,49268,1,0
104,112,49495,1,8
232,216,49722,2,0,B|208:168|232:120,1,90
384,184,50177,6,0,B|336:200|320:256,1,90,0|8
336,336,50631,1,0
360,352,50745,1,0
384,360,50858,1,0
408,272,51086,1,0
408,272,51313,1,8
488,240,51540,2,0,B|512:264,3,30,2|0|0|4
472,152,51995,5,0
488,240,52222,1,8
392,120,52449,5,0
488,240,52677,1,0
408,200,52904,5,0
320,168,53131,2,0,B|288:120|320:72,1,90,8|0
256,192,53586,12,2,55404
256,192,55631,6,0,B|240:232|240:232|256:304,1,90
328,240,56086,1,0
328,240,56313,1,2
256,192,56540,6,0,B|272:152|272:152|256:80,1,90
184,144,56995,1,0
184,144,57222,1,2
104,192,57449,5,0
88,216,57563,1,0
72,240,57677,1,0
32,320,57904,1,0
32,320,58131,1,8
112,360,58358,6,0,B|168:376|208:320,1,90
256,272,58813,2,0,B|296:232|368:216|432:248,1,180,0|0
424,244,59381,1,0
424,244,59495,1,2
480,72,59949,5,2
400,24,60177,1,0
224,32,60631,5,0
312,64,60858,1,2
312,152,61086,1,0
224,120,61313,1,0
224,32,61540,1,0
144,64,61768,6,0,B|112:128|152:184|152:184|144:248,1,180,8|0
80,296,62449,1,0
112,328,62563,1,0
160,328,62677,1,2
328,256,63131,6,0,B|280:336,1,90
328,256,63586,1,2
424,104,64040,6,0,B|352:40,1,90
296,112,64495,1,2
256,192,64722,1,0
256,192,64836,1,0
256,192,64949,1,0
212,272,65177,6,0,B|256:296|300:272,1,90,0|8
368,216,65631,1,0
384,192,65745,1,0
392,168,65858,1,0
400,80,66086,1,0
320,40,66313,1,2
256,192,66540,12,2,67677
256,192,68131,5,0
256,104,68358,1,0
256,80,68472,1,0
256,56,68586,1,0
176,24,68813,2,0,B|160:72|112:88,1,90,0|8
8,232,69495,5,0
17,259,69608,1,8
33,283,69722,1,8
56,300,69836,1,0
82,312,69949,1,0
254,365,70404,5,8
424,320,70745,1,0
424,320,70858,1,0
464,240,71086,2,0,B|368:200,1,90,0|8
296,176,71540,1,0
264,144,71654,1,0
248,104,71768,1,0
424,72,72222,5,8
488,192,72563,1,0
488,192,72677,1,0
408,152,72904,2,0,B|360:128|312:144,1,90,0|8
352,224,73358,2,0,B|296:224|256:288,1,90,0|0
240,344,73813,1,0
216,360,73927,1,0
192,368,74040,1,8
40,272,74495,5,0
16,184,74722,2,0,B|56:152|56:96,1,90,0|8
8,32,75177,1,0
96,24,75404,2,0,B|144:40|168:96,2,90,0|0|8
56,106,76086,6,0,B|152:136|72:216|176:250,1,180,0|0
208,168,76768,1,8
232,184,76881,1,0
248,208,76995,1,0
256,232,77108,1,0
256,256,77222,1,0
344,336,77449,5,0
464,296,77677,1,8
376,208,77904,1,0
336,128,78131,6,0,B|304:48|216:64|216:64|176:40,1,180,0|8
112,88,78813,2,0,B|192:144,1,90
256,192,79268,2,0,B|304:224|296:296,1,90,0|8
237,352,79722,1,0
136,352,79949,1,0
104,320,80063,1,0
104,272,80177,1,0
144,192,80404,5,8
208,128,80631,1,0
224,88,80745,1,0
192,56,80858,1,0
104,32,81086,1,0
256,192,81313,12,8,82222
256,182,82677,5,0
256,182,83018,1,0
184,136,83358,5,8
328,136,83586,1,0
256,256,83813,1,0
208,152,84040,5,0
304,152,84268,1,0
256,232,84495,1,4
424,80,84949,5,8
368,360,85404,1,0
88,304,85858,1,8
144,24,86313,1,0
424,304,86768,5,8
368,24,87222,1,0
88,80,87677,1,8
72,168,87904,1,0
88,304,88131,5,0
144,360,88358,1,0
288,368,88586,2,0,B|335:351|360:295,1,90,8|0
440,192,89040,2,0,B|420:139|360:135,1,90
240,80,89495,2,0,B|189:90|167:154,1,90,8|0
144,360,89949,6,0,B|192:352|224:304,1,90
320,240,90404,1,8
320,240,90631,1,0
256,128,90858,1,0
256,128,91086,1,0
192,240,91313,1,8
192,240,91540,1,0
320,240,91768,6,0,B|88:368|88:128|288:104|296:376|104:280,1,450
32,224,93131,1,8
16,136,93358,1,0
88,80,93586,1,0
264,40,94040,6,0,B|488:48|408:256|200:168|280:-32|471:113,1,450,8|0
496,192,95404,1,2
440,264,95631,1,0
352,288,95858,1,2
264,264,96086,1,0
200,208,96313,1,2
408,40,96995,5,0
352,112,97222,1,2
280,168,97449,1,2
200,208,97677,1,0
112,216,97904,1,2
256,192,98131,12,4,99040
96,88,99495,5,8
168,32,99722,1,0
192,24,99836,1,0
216,16,99949,1,0
304,40,100177,1,0
392,16,100404,1,8
408,104,100631,2,0,B|416:152|464:168,1,90,0|0
504,248,101086,5,0
456,328,101313,1,8
368,320,101540,1,0
408,240,101768,1,0
392,216,101881,1,0
376,192,101995,1,0
320,120,102222,2,0,B|288:160|232:152,1,90,8|0
152,120,102677,5,0
80,144,102904,1,0
152,120,103131,5,8
96,216,103358,1,0
152,120,103586,5,0
24,232,103813,1,0
32,320,104040,2,0,B|80:312|112:352,1,90,8|0
200,368,104495,2,0,B|256:368|288:320,1,90
352,272,104949,1,8
416,208,105177,5,0
352,40,105404,1,0
232,176,105631,1,0
384,184,105858,5,8
344,80,106086,1,0
272,160,106313,1,4
384,184,106540,6,0,B|336:200|320:256,1,90,0|8
336,336,106995,1,0
360,352,107108,1,0
384,360,107222,1,0
408,272,107449,1,0
408,272,107677,1,8
280,168,107904,6,0,B|304:216|280:264,1,90
128,200,108358,2,0,B|176:184|192:128,1,90,0|8
176,48,108813,5,0
152,32,108927,1,0
128,24,109040,1,0
104,112,109268,1,0
104,112,109495,1,8
24,144,109722,2,0,B|-8:176,2,45
40,232,110177,5,0
24,144,110404,1,8
120,264,110631,5,0
24,144,110858,1,0
104,184,111086,5,0
184,216,111313,2,0,B|232:248|280:200,1,90,8|0
256,120,111768,2,0,B|293:94|341:126,1,90,0|0
208,256,112449,5,0
256,120,112677,1,0
304,256,112904,1,0
184,176,113131,1,8
328,176,113358,1,0
256,196,113586,5,4
104,288,114040,5,8
168,352,114268,1,0
192,360,114381,1,0
216,368,114495,1,0
304,344,114722,1,0
392,368,114949,1,8
456,312,115177,2,0,B|512:232,1,90,0|0
512,144,115631,5,0
512,56,115858,1,8
432,16,116086,1,0
424,104,116313,1,0
399,118,116427,1,0
374,133,116540,1,0
328,216,116768,2,0,B|280:208|272:144,1,90,8|0
248,64,117222,5,0
200,123,117449,1,0
248,64,117677,5,8
138,83,117904,1,0
248,64,118131,5,0
98,145,118358,1,0
16,176,118586,2,0,B|-7:133|18:89,1,90,8|0
96,56,119040,2,0,B|152:56|184:104,1,90
248,144,119495,1,8
198,209,119722,5,0
80,344,119949,1,0
16,176,120177,1,0
159,220,120404,5,8
86,304,120631,1,0
46,204,120858,1,4
159,220,121086,6,0,B|119:188|123:130,1,90,0|8
176,64,121540,1,0
200,48,121654,1,0
224,40,121768,1,0
312,32,121995,2,0,B|368:24|400:64,1,90,0|8
328,120,122449,1,0
328,120,122677,1,0
416,152,122904,6,0,B|352:224,1,90,0|8
264,216,123358,1,0
224,192,123472,1,0
184,216,123586,1,0
224,296,123813,2,0,B|176:320|128:296,1,90,0|8
72,240,124268,2,0,B|32:272,2,45
24,160,124722,5,0
80,88,124949,1,8
168,56,125177,1,0
256,72,125404,1,0
336,112,125631,1,0
408,168,125858,6,0,B|504:224,1,90,8|0
496,304,126313,2,0,B|416:256,1,90
208,128,126995,5,0
256,264,127222,1,0
304,128,127449,1,0
184,208,127677,1,8
328,208,127904,1,0
256,188,128131,5,4
