osu file format v12

[General]
AudioFilename: miss u.mp3
AudioLeadIn: 0
PreviewTime: 195644
Countdown: 0
SampleSet: Soft
StackLeniency: 0.7
Mode: 0
LetterboxInBreaks: 0
EpilepsyWarning: 1

[Editor]
DistanceSpacing: 1.3
BeatDivisor: 4
GridSize: 4

[Metadata]
Title:Come Back To Me
TitleUnicode:カム・バック・トゥ・ミー
Artist:Utada Hikaru
ArtistUnicode:Utada Hikaru
Creator:Lally
Version:Alone
Source:
Tags:BounceBabe R&B This Is the One
BeatmapID:231533
BeatmapSetID:83824

[Difficulty]
HPDrainRate:2
CircleSize:3
OverallDifficulty:2
ApproachRate:3
SliderMultiplier:0.7
SliderTickRate:1

[Events]
//Background and Video events
0,0,"TwT.jpg",1,1
//Break Periods
2,74675,85384
2,162527,169540
//Storyboard Layer 0 (Background)
//Storyboard Layer 1 (Fail)
//Storyboard Layer 2 (Pass)
//Storyboard Layer 3 (Foreground)
//Storyboard Sound Samples
//Background Colour Transformations
3,100,163,162,255

[TimingPoints]
12138,389.61038961039,4,2,0,60,1,0
12186,-100,4,2,1,60,0,0
24605,-100,4,2,0,60,0,0
24654,-100,4,2,1,60,0,0
37073,-100,4,2,0,70,0,0
37121,-100,4,2,1,70,0,0
49540,-100,4,2,0,80,0,1
49589,-100,4,2,1,80,0,1
52657,-100,4,2,0,80,0,1
52706,-100,4,2,1,80,0,1
55774,-100,4,2,0,80,0,1
55823,-100,4,2,1,80,0,1
58891,-100,4,2,0,80,0,1
58939,-100,4,2,1,80,0,1
61618,-100,4,2,1,80,0,0
62008,-100,4,2,0,80,0,1
62056,-100,4,2,1,80,0,1
65125,-100,4,2,0,80,0,1
65173,-100,4,2,1,80,0,1
68241,-100,4,2,0,80,0,1
68290,-100,4,2,1,80,0,1
71358,-100,4,2,0,80,0,1
74475,-100,4,2,0,60,0,0
86943,-100,4,2,0,50,0,0
86991,-100,4,2,1,50,0,0
97852,-100,4,2,1,70,0,0
99410,-100,4,2,0,80,0,0
99459,-100,4,2,1,80,0,0
111878,-100,4,2,0,90,0,1
111926,-100,4,2,1,90,0,1
114995,-100,4,2,0,90,0,1
115043,-100,4,2,1,90,0,1
118112,-100,4,2,0,90,0,1
118160,-100,4,2,1,90,0,1
121228,-100,4,2,0,90,0,1
121277,-100,4,2,1,90,0,1
123956,-100,4,2,0,90,0,0
124345,-100,4,2,0,90,0,1
124394,-100,4,2,1,90,0,1
127462,-100,4,2,0,90,0,1
127511,-100,4,2,1,90,0,1
130579,-100,4,2,0,90,0,1
130628,-100,4,2,1,90,0,1
136813,-100,4,2,0,70,0,0
136862,-100,4,2,1,70,0,0
149280,-100,4,2,0,70,0,0
149329,-100,4,2,1,70,0,0
161748,-100,4,2,0,50,0,0
171099,-100,4,2,0,80,0,1
171147,-100,4,2,1,80,0,1
174215,-100,4,2,0,80,0,1
174264,-100,4,2,1,80,0,1
177332,-100,4,2,0,80,0,1
177381,-100,4,2,1,80,0,1
180449,-100,4,2,0,80,0,1
180498,-100,4,2,1,80,0,1
183566,-100,4,2,0,80,0,1
183615,-100,4,2,1,80,0,1
186683,-100,4,2,0,80,0,1
186732,-100,4,2,1,80,0,1
189800,-100,4,2,0,80,0,1
189849,-100,4,2,1,80,0,1
195254,-100,4,2,0,80,0,0
196034,-90.9090909090909,4,2,0,90,0,1
196082,-90.9090909090909,4,2,1,90,0,1
199150,-90.9090909090909,4,2,0,90,0,1
199199,-90.9090909090909,4,2,1,90,0,1
202267,-90.9090909090909,4,2,0,90,0,1
202316,-90.9090909090909,4,2,1,90,0,1
205384,-90.9090909090909,4,2,0,90,0,1
205433,-90.9090909090909,4,2,1,90,0,1
208501,-90.9090909090909,4,2,0,90,0,1
208550,-90.9090909090909,4,2,1,90,0,1
211618,-90.9090909090909,4,2,0,90,0,1
211667,-90.9090909090909,4,2,1,90,0,1
214735,-90.9090909090909,4,2,0,90,0,1
214784,-90.9090909090909,4,2,1,90,0,1
217852,-100,4,2,0,90,0,1
217900,-100,4,2,1,90,0,1
220969,-100,4,2,0,50,0,0

[Colours]
Combo1 : 185,6,24
Combo2 : 125,186,236
Combo3 : 134,223,215
Combo4 : 245,192,241
Combo5 : 255,132,141

[HitObjects]
212,150,12137,6,0,P|156:126|67:121,2,140,4|8|4,0:0|0:0|0:0,0:0:0:0:
200,240,14086,1,0,1:0:0:0:
256,312,14475,1,8,0:0:0:0:
312,240,14865,1,2,0:0:0:0:
300,150,15254,6,0,P|356:126|445:121,2,140,4|8|4,0:0|0:0|0:0,0:0:0:0:
256,228,17202,1,0,1:0:0:0:
172,268,17592,2,0,P|116:228|106:161,1,140,8|4,0:0|0:0,0:0:0:0:
180,108,18761,54,0,P|210:112|242:139,1,70,0|8,1:0|0:0,0:0:0:0:
256,228,19540,1,2,0:0:0:0:
288,312,19930,2,0,P|221:315|172:268,1,140,4|8,0:0|0:0,0:0:0:0:
100,212,21099,1,2,0:0:0:0:
36,276,21488,6,0,P|12:208|32:140,1,140,4|8,0:0|0:0,0:0:0:0:
60,60,22657,1,2,0:0:0:0:
148,76,23047,1,4,0:0:0:0:
140,168,23436,2,0,P|160:216|184:236,1,70,0|8,1:0|0:0,0:0:0:0:
339,227,24605,54,0,P|352:216|372:168,1,70,4|0,0:0|1:0,0:0:0:0:
380,76,25384,2,0,P|436:40|512:60,2,140,8|4|8,0:0|0:0|0:0,0:0:0:0:
316,140,27332,1,2,0:0:0:0:
244,196,27722,6,0,P|196:224|108:196,1,140,4|8,0:0|0:0,0:0:0:0:
84,120,28891,1,2,0:0:0:0:
176,120,29280,2,0,L|216:44,1,70,4|0,0:0|1:0,0:0:0:0:
303,58,30060,2,0,L|336:120,1,70,8|2,0:0|0:0,0:0:0:0:
372,204,30839,54,0,P|416:280|464:292,2,140,4|8|4,0:0|0:0|0:0,0:0:0:0:
368,112,32787,1,0,1:0:0:0:
312,40,33176,2,0,P|292:64|280:112,1,70,8|2,0:0|0:0,0:0:0:0:
256,192,33956,12,8,36293,0:0:0:0:
100,304,37073,6,0,P|148:292|184:208,1,140,4|8,0:0|0:0,0:0:0:0:
144,136,38241,1,2,0:0:0:0:
60,100,38631,2,0,P|108:52|180:52,1,140,4|8,0:0|0:0,0:0:0:0:
256,96,39800,1,2,0:0:0:0:
335,50,40189,54,0,P|404:52|452:100,1,140,4|8,0:0|0:0,0:0:0:0:
368,136,41358,1,2,0:0:0:0:
326,215,41747,2,0,P|364:292|412:304,2,140,4|8|4,0:0|0:0|0:0,0:0:0:0:
292,132,43696,6,0,L|212:132,1,70,0|8,1:0|0:0,0:0:0:0:
185,215,44475,2,0,P|148:292|100:304,1,140,2|0,0:0|1:0,0:0:0:0:
96,212,45644,1,8,0:0:0:0:
256,192,46423,12,8,48761,0:0:0:0:
88,192,49540,6,0,P|112:124|176:100,1,140,4|8,0:0|0:0,0:0:0:0:
256,132,50709,2,0,L|256:216,2,70,2|4|0,0:0|0:0|1:0,0:0:0:0:
340,100,51878,2,0,P|388:108|416:128,1,70,8|2,0:0|0:0,0:0:0:0:
412,208,52657,6,0,P|388:276|329:300,1,140,4|8,0:0|0:0,0:0:0:0:
320,208,53826,2,0,L|260:156,1,70,2|4,0:0|0:0,0:0:0:0:
180,132,54605,2,0,L|120:80,2,70,0|8|2,1:0|0:0|0:0,0:0:0:0:
124,204,55774,54,0,P|120:256|192:308,1,140,4|8,0:0|0:0,0:0:0:0:
256,252,56943,2,0,L|256:172,2,70,2|4|0,0:0|0:0|1:0,0:0:0:0:
328,307,58112,2,0,P|392:256|388:204,1,140,8|4,0:0|0:0,0:0:0:0:
332,132,59280,1,0,1:0:0:0:
300,48,59670,6,0,P|368:48|416:104,2,140,8|4|8,0:0|0:0|0:0,0:0:0:0:
256,128,61618,1,2,0:0:0:0:
212,48,62008,54,0,P|144:48|96:104,1,140,4|8,0:0|0:0,0:0:0:0:
72,184,63176,2,0,P|24:216|0:216,2,70,2|4|0,0:0|0:0|1:0,0:0:0:0:
144,132,64345,2,0,P|168:104|208:88,1,70,8|2,0:0|0:0,0:0:0:0:
256,160,65125,6,0,L|256:308,2,140,4|8|4,0:0|0:0|0:0,0:0:0:0:
314,90,67073,2,0,P|344:104|368:132,1,70,0|8,1:0|0:0,0:0:0:0:
428,200,67852,1,2,0:0:0:0:
392,284,68241,54,0,P|352:348|296:336,1,140,4|8,0:0|0:0,0:0:0:0:
256,256,69410,1,2,0:0:0:0:
214,337,69800,2,0,P|160:348|120:284,1,140,4|8,0:0|0:0,0:0:0:0:
124,192,70969,1,2,0:0:0:0:
256,192,71358,12,2,74475,0:0:0:0:
192,144,86943,54,0,P|184:104|88:60,2,140,4|8|4,0:0|0:0|0:0,0:0:0:0:
128,208,88891,1,0,1:0:0:0:
76,280,89281,2,0,P|112:336|188:332,1,140,8|4,0:0|0:0,0:0:0:0:
256,288,90450,53,0,1:0:0:0:
332,336,90839,2,0,P|400:336|436:280,1,140,8|4,0:0|0:0,0:0:0:0:
452,192,92008,1,0,1:0:0:0:
360,192,92398,2,0,L|296:248,1,70,8|2,0:0|0:0,0:0:0:0:
256,316,93177,5,4,0:0:0:0:
204,238,93567,2,0,L|152:192,1,70,0|8,1:0|0:0,0:0:0:0:
112,108,94346,1,2,0:0:0:0:
192,64,94735,2,0,P|255:36|316:64,1,140,4|8,0:0|0:0,0:0:0:0:
400,108,95904,53,2,0:0:0:0:
424,196,96293,2,0,P|468:172|484:148,2,70,4|0|8,0:0|1:0|0:0,0:0:0:0:
279,265,97852,5,4,0:0:0:0:
193,237,98241,1,0,1:0:0:0:
193,146,98631,1,8,0:0:0:0:
279,118,99021,1,2,0:0:0:0:
333,192,99410,54,0,P|392:200|432:136,2,140,4|8|4,0:0|0:0|0:0,0:0:0:0:
279,118,101358,1,0,1:0:0:0:
212,56,101748,2,0,P|160:40|96:88,1,140,8|4,0:0|0:0,0:0:0:0:
60,172,102917,6,0,P|32:212|8:224,2,70,0|8|2,1:0|0:0|0:0,0:0:0:0:
136,224,104086,2,0,P|152:308|200:344,1,140,4|8,0:0|0:0,0:0:0:0:
256,276,105254,1,2,0:0:0:0:
320,340,105644,54,0,P|360:308|376:224,2,140,4|8|4,0:0|0:0|0:0,0:0:0:0:
256,276,107592,1,0,1:0:0:0:
192,340,107982,2,0,B|156:356|124:340|124:340|92:324|56:340,1,140,8|4,0:0|0:0,0:0:0:0:
256,192,109150,12,8,111099,0:0:0:0:
100,224,111878,38,0,P|104:264|192:276,1,140,4|8,0:0|0:0,0:0:0:0:
256,216,113047,1,2,0:0:0:0:
323,279,113436,2,0,P|408:264|412:224,1,140,4|8,0:0|0:0,0:0:0:0:
432,136,114605,54,0,P|468:152|500:180,2,70,2|4|0,0:0|0:0|1:0,0:0:0:0:
344,108,115774,2,0,L|300:48,1,70,8|2,0:0|0:0,0:0:0:0:
209,51,116553,2,0,L|168:108,1,70,4|0,0:0|1:0,0:0:0:0:
80,136,117332,2,0,P|44:152|12:180,1,70,8|2,0:0|0:0,0:0:0:0:
20,264,118112,6,0,P|48:312|136:312,1,140,4|8,0:0|0:0,0:0:0:0:
192,252,119280,1,2,0:0:0:0:
256,188,119670,2,0,L|256:104,2,70,4|0|8,0:0|1:0|0:0,0:0:0:0:
320,252,120839,1,2,0:0:0:0:
384,316,121228,2,0,P|408:324|456:320,1,70,4|0,0:0|1:0,0:0:0:0:
256,192,122008,12,8,123566,0:0:0:0:
80,148,124345,54,0,P|112:112|208:88,1,140,4|8,0:0|0:0,0:0:0:0:
256,156,125514,2,0,L|256:232,2,70,2|4|0,0:0|0:0|1:0,0:0:0:0:
314,86,126683,2,0,P|400:112|432:148,1,140,8|4,0:0|0:0,0:0:0:0:
476,228,127852,5,0,1:0:0:0:
416,296,128241,2,0,P|364:332|296:300,1,140,8|4,0:0|0:0,0:0:0:0:
256,224,129410,1,0,1:0:0:0:
213,304,129800,2,0,P|148:332|96:296,1,140,8|4,0:0|0:0,0:0:0:0:
64,212,130969,54,0,P|28:236|12:264,2,70,0|8|2,1:0|0:0|0:0,0:0:0:0:
156,220,132138,2,0,P|220:220|272:164,1,140,4|8,0:0|0:0,0:0:0:0:
188,132,133306,1,2,0:0:0:0:
256,192,133696,12,8,136034,0:0:0:0:
156,192,136813,38,0,L|16:192,2,140,4|8|4,0:0|0:0|0:0,0:0:0:0:
192,108,138761,1,0,1:0:0:0:
256,172,139150,2,0,L|256:248,1,70,8|2,0:0|0:0,0:0:0:0:
320,308,139930,6,0,P|372:340|392:340,2,70,4|0|8,0:0|1:0|0:0,0:0:0:0:
256,241,141099,1,2,0:0:0:0:
332,192,141488,2,0,L|472:192,2,140,4|8|4,0:0|0:0|0:0,0:0:0:0:
324,100,143436,54,0,L|388:48,2,70,0|8|2,1:0|0:0|0:0,0:0:0:0:
256,160,144605,1,4,0:0:0:0:
188,100,144995,2,0,L|124:48,2,70,0|8|2,1:0|0:0|0:0,0:0:0:0:
256,192,146163,12,8,148501,0:0:0:0:
88,224,149280,6,0,P|96:284|172:308,1,140,4|8,0:0|0:0,0:0:0:0:
212,236,150449,1,2,0:0:0:0:
256,156,150839,2,0,L|256:72,2,70,4|0|8,0:0|1:0|0:0,0:0:0:0:
300,236,152008,1,2,0:0:0:0:
348,312,152398,54,0,P|416:286|424:226,1,140,4|8,0:0|0:0,0:0:0:0:
376,148,153566,2,0,P|400:116|432:96,2,70,2|4|0,0:0|0:0|1:0,0:0:0:0:
301,199,154735,2,0,P|255:243|209:199,2,140,8|4|8,0:0|0:0|0:0,0:0:0:0:
256,120,156683,1,2,0:0:0:0:
192,56,157073,6,0,P|148:48|72:112,1,140,4|8,0:0|0:0,0:0:0:0:
44,188,158241,1,2,0:0:0:0:
256,192,158631,12,4,161748,0:0:0:0:
0,224,171099,6,0,P|0:147|41:103,1,140,4|8,0:0|0:0,0:0:0:0:
129,86,172267,1,2,0:0:0:0:
192,152,172657,6,0,B|212:204|212:204|216:296,1,140,4|8,0:0|0:0,0:0:0:0:
256,372,173826,1,2,0:0:0:0:
296,288,174216,54,0,B|300:204|300:204|320:152,1,140,4|8,0:0|0:0,0:0:0:0:
383,86,175384,1,2,0:0:0:0:
470,103,175773,6,0,P|512:147|512:224,1,140,4|8,0:0|0:0,0:0:0:0:
428,260,176943,1,2,0:0:0:0:
356,316,177332,54,0,P|277:308|237:257,1,140,4|8,0:0|0:0,0:0:0:0:
208,184,178501,1,2,0:0:0:0:
280,136,178891,2,0,P|220:96|156:108,1,140,4|8,0:0|0:0,0:0:0:0:
68,132,180060,1,2,0:0:0:0:
116,208,180449,6,0,P|136:296|176:332,1,140,4|8,0:0|0:0,0:0:0:0:
216,252,181618,1,2,0:0:0:0:
256,168,182008,2,0,L|256:24,2,140,4|8|4,0:0|0:0|0:0,0:0:0:0:
296,252,183956,53,0,1:0:0:0:
352,324,184345,2,0,P|388:344|452:280,1,140,8|4,0:0|0:0,0:0:0:0:
452,196,185514,2,0,L|500:140,2,70,0|8|2,1:0|0:0|0:0,0:0:0:0:
368,228,186683,6,0,P|324:200|324:108,1,140,4|8,0:0|0:0,0:0:0:0:
344,32,187852,1,2,0:0:0:0:
256,56,188241,1,4,0:0:0:0:
168,32,188631,1,0,1:0:0:0:
192,116,189021,2,0,P|186:198|142:226,2,140,8|4|8,0:0|0:0|0:0,0:0:0:0:
108,84,190969,53,2,0:0:0:0:
68,168,191358,2,0,P|48:232|84:296,1,140,4|8,0:0|0:0,0:0:0:0:
152,348,192527,1,2,0:0:0:0:
256,192,192917,12,8,195254,0:0:0:0:
88,152,196034,6,0,P|112:100|212:64,1,154.000004699707,4|8,0:0|0:0,0:0:0:0:
220,160,197202,2,0,P|252:152|284:108,1,77.0000023498536,2|4,0:0|0:0,0:0:0:0:
352,48,197982,1,0,1:0:0:0:
376,144,198371,54,0,P|372:204|300:276,1,154.000004699707,8|4,0:0|0:0,0:0:0:0:
256,356,199540,1,0,1:0:0:0:
200,271,199930,2,0,P|140:204|136:144,1,154.000004699707,8|4,0:0|0:0,0:0:0:0:
140,44,201099,2,0,P|76:40|52:48,2,77.0000023498536,0|8|2,1:0|0:0|0:0,0:0:0:0:
200,124,202267,6,0,L|216:288,1,154.000004699707,4|8,0:0|0:0,0:0:0:0:
256,368,203436,1,2,0:0:0:0:
296,276,203826,2,0,L|310:122,1,154.000004699707,4|8,0:0|0:0,0:0:0:0:
372,44,204995,2,0,P|436:40|460:48,2,77.0000023498536,2|4|0,0:0|0:0|1:0,0:0:0:0:
256,192,206163,12,8,207722,0:0:0:0:
204,244,208501,54,0,L|144:304,2,77.0000023498536,4|0|8,0:0|1:0|0:0,0:0:0:0:
256,156,209670,1,2,0:0:0:0:
308,244,210060,2,0,L|368:304,2,77.0000023498536,4|0|8,0:0|1:0|0:0,0:0:0:0:
348,152,211228,1,2,0:0:0:0:
436,196,211618,6,0,P|444:128|392:64,1,154.000004699707,4|8,0:0|0:0,0:0:0:0:
348,152,212787,1,2,0:0:0:0:
256,184,213176,1,4,0:0:0:0:
164,152,213566,1,0,1:0:0:0:
119,64,213956,2,0,P|68:128|76:196,1,154.000004699707,8|4,0:0|0:0,0:0:0:0:
164,244,215125,53,0,1:0:0:0:
104,324,215514,2,0,P|44:352|0:288,2,154.000004699707,8|4|8,0:0|0:0|0:0,0:0:0:0:
200,304,217462,1,2,0:0:0:0:
208,212,217852,22,0,B|200:172|136:191|103:91|203:25|256:102|256:102|308:25|422:90|379:180|309:193|281:221|280:268,1,560,4|2,0:0|0:0,0:0:0:0:
