osu file format v6

[General]
AudioFilename: Utada Hikaru - Colors.mp3
AudioLeadIn: 0
PreviewTime: -1
Countdown: 1
SampleSet: Soft
StackLeniency: 0.7
Mode: 0
LetterboxInBreaks: 1

[Editor]
DistanceSpacing: 0.800000011920929
BeatDivisor: 6
GridSize: 32

[Metadata]
Title:Colors
Artist:Utada Hikaru
Creator:ramirez_671
Version:Normal
Source:
Tags:

[Difficulty]
HPDrainRate:5
CircleSize:5
OverallDifficulty:5
SliderMultiplier:1.4
SliderTickRate:1

[Events]
//Background and Video events
//Break Periods
//Storyboard Layer 0 (Background)
//Storyboard Layer 1 (Fail)
//Storyboard Layer 2 (Pass)
//Storyboard Layer 3 (Foreground)
//Storyboard Sound Samples
//Background Colour Transformations
3,100,163,162,255

[TimingPoints]
3146.15150649357,408.163265306122,4,2,0,100,1,0

[HitObjects]
96,128,15764,1,0
192,128,16764,1,0
320,192,17764,1,0
256,192,18764,1,0
160,160,19764,1,0
224,224,20764,1,0
192,224,23764,1,0
224,256,24764,1,0
192,192,25764,1,0
224,256,26764,1,0
192,224,27764,1,0
224,256,28764,1,0
192,192,29764,1,0
256,320,31764,1,0
192,224,32764,1,0
192,224,33764,1,0
192,224,34764,1,0
192,224,35764,1,0
192,224,36764,1,0
192,224,37764,1,0
352,128,39764,1,0
256,224,40764,1,0
288,320,41764,1,0
224,160,42764,1,0
96,224,44764,1,0
256,192,45764,1,0
288,128,46764,1,0
224,128,47764,1,0
320,224,48764,1,0
224,224,49764,1,0
224,160,50764,1,0
160,192,51764,1,0
256,192,52764,1,0
96,224,56764,2,0,B|256:224,1,140
128,160,58764,1,0
224,224,59764,1,0
160,128,60764,1,0
96,160,61764,1,0
256,64,63764,1,0
192,128,64764,1,0
256,192,65764,1,0
160,192,66764,1,0
96,192,67764,1,0
160,160,68764,1,0
256,160,69764,1,0
160,128,72764,1,0
192,160,73764,1,0
288,128,74764,1,0
160,160,75764,1,0
256,224,76764,1,0
192,128,77764,1,0
256,224,78764,1,0
192,160,79764,1,0
160,320,80764,1,0
224,256,81764,1,0
96,128,86764,1,0
160,160,87764,1,0
128,224,88764,1,0
192,224,89764,1,0
128,192,90764,1,0
256,192,91764,1,0
288,160,92764,1,0
224,224,93764,1,0
288,256,94764,1,0
256,96,96764,1,0
128,128,99764,1,0
320,288,101764,1,0
192,224,102764,1,0
352,192,103764,1,0
96,192,105764,1,0
352,224,107764,1,0
128,96,109764,1,0
128,224,110764,1,0
192,224,111764,1,0
256,224,112764,1,0
128,288,113764,1,0
192,224,114764,1,0
256,224,115764,1,0
320,224,116764,1,0
192,192,117764,1,0
128,128,118764,1,0
160,192,119764,1,0
96,192,120764,1,0
192,256,121764,1,0
160,256,122764,1,0
128,160,123764,1,0
384,320,126764,1,0
320,256,127764,1,0
192,192,128764,1,0
288,256,129764,1,0
160,160,130764,1,0
256,224,131764,1,0
256,224,132764,1,0
320,224,133764,1,0
256,224,134764,1,0
160,192,135764,1,0
288,256,136764,1,0
192,192,137764,1,0
320,256,139764,1,0
192,224,140764,1,0
160,192,141764,1,0
288,192,142764,1,0
192,256,143764,1,0
256,256,144764,1,0
320,224,145764,1,0
384,224,146764,1,0
256,192,147764,1,0
96,128,149764,1,0
160,160,150764,1,0
224,192,151764,1,0
224,192,152764,1,0
224,192,153764,1,0
320,192,154764,1,0
256,160,155764,1,0
224,192,156764,1,0
192,160,157764,1,0
256,160,158764,1,0
224,192,159764,1,0
352,160,160764,1,0
224,192,161764,1,0
224,160,162764,1,0
160,192,163764,1,0
160,192,166764,1,0
288,192,167764,1,0
224,224,168764,1,0
352,192,170764,1,0
224,192,171764,1,0
192,192,172764,1,0
192,192,173764,1,0
192,192,174764,1,0
192,192,175764,1,0
192,192,176764,1,0
192,192,177764,1,0
160,160,178764,1,0
192,192,179764,1,0
192,192,180764,1,0
160,192,181764,1,0
192,128,182764,1,0
160,192,183764,1,0
128,64,184764,1,0
160,192,185764,1,0
288,192,186764,1,0
224,192,187764,1,0
320,224,188764,1,0
448,288,189764,1,0
352,224,190764,1,0
288,256,191764,1,0
256,192,192764,1,0
256,160,193764,1,0
128,192,194764,1,0
224,160,195764,1,0
224,160,196764,1,0
224,160,197764,1,0
224,160,198764,1,0
224,160,199764,1,0
224,160,200764,1,0
224,160,201764,1,0
384,160,202764,1,0
352,160,203764,1,0
256,160,204764,1,0
192,224,205764,1,0
224,160,206764,1,0
192,192,207764,1,0
288,192,208764,1,0
64,128,212764,2,0,B|480:224,2,420
